#TITLE:Anisakis -somatic mutation type "Forza"-;
#SUBTITLE:;
#ARTIST:朱雀;
#TITLETRANSLIT:;
#SUBTITLETRANSLIT:;
#ARTISTTRANSLIT:Suzaku;
#GENRE:HARD RENAISSANCE;
#CREDIT:;
#BANNER:Anisakis -Somatic Mutation Type Forza-_banner.png;
#BACKGROUND:Anisakis -Somatic Mutation Type Forza-.jpg;
#LYRICSPATH:;
#CDTITLE:;
#MUSIC:Anisakis -Somatic Mutation Type Forza-.ogg;
#OFFSET:-0.040000;
#SAMPLESTART:86.919998;
#SAMPLELENGTH:11.700000;
#SELECTABLE:YES;
#BPMS:0.000000=185.000000
;
#STOPS:32.000000=2.270000,
161.000000=4.865000,
196.500000=0.324000,
199.500000=0.324000,
202.500000=0.324000,
205.500000=0.324000,
230.000000=0.162000,
230.500000=0.162000,
231.000000=0.162000,
231.500000=0.162000,
371.750000=0.324000
;
#BGCHANGES:;
#KEYSOUNDS:;
#ATTACKS:;

//---------------dance-single - ----------------
#NOTES:
     dance-single:
     :
     Easy:
     9:
     0.353782,0.441602,0.094968,0.182631,0.000000,339.000000,326.000000,13.000000,25.000000,0.000000,0.000000,0.353782,0.441602,0.094968,0.182631,0.000000,339.000000,326.000000,13.000000,25.000000,0.000000,0.000000:
0000
0000
0000
0000
,
0000
0000
0000
0000
,
0000
0000
0000
0000
,
0000
0000
0000
0000
,
2000
0000
3000
0000
,
0002
0000
0003
0000
,
0100
0000
0010
0000
,
1000
0010
0100
0001
,
2002
3003
0000
0000
0000
0000
0000
0000
0000
0000
0000
0000
0000
0000
0000
0000
0000
0000
0000
0000
0000
0000
0000
0000
0000
0000
0000
0000
0000
0000
0000
0000
0000
0000
0000
0000
0000
0000
0000
0000
0000
0000
0000
0000
0000
0000
0000
0000
1000
0000
0000
0000
0000
0000
0000
0000
0000
0000
0000
0000
0000
0000
0000
0000
0000
0000
0000
0000
0000
0000
0000
0000
0000
0000
0000
0000
0000
0000
0000
0000
0000
0000
0000
0000
0000
0000
0000
0000
0000
0000
0000
0000
0000
0000
0000
0000
0100
0000
0000
0000
0000
0000
0000
0000
0000
0000
0000
0000
0000
0000
0000
0000
0000
0000
0000
0000
0000
0000
0000
0000
0000
0000
0000
0000
0000
0000
0000
0000
0000
0000
0000
0000
0000
0000
0000
0000
0000
0000
0000
0000
0000
0000
0000
0000
1000
0000
0000
0000
0000
0000
0000
0000
0000
0000
0000
0000
0000
0000
0000
0000
0000
0000
0000
0000
0000
0000
0000
0000
0000
0000
0000
0000
0000
0000
0000
0000
0000
0000
0000
0000
0000
0000
0000
0000
0000
0000
0000
0000
0000
0000
0000
0000
,
0001
0020
0000
0000
,
0030
0100
1000
0001
,
0010
0002
0000
0000
,
0003
1000
0010
0100
,
0001
2000
0000
0000
,
3000
0001
0100
0010
,
1000
0200
0000
0310
,
0010
0001
0010
0001
,
1000
0100
2000
0000
3000
0000
0002
0000
,
0003
0100
0010
1000
,
0001
0010
0002
0000
0003
0000
2000
0000
,
3000
0001
0100
0010
,
1000
0001
0010
0100
,
1000
0010
0010
0100
,
0100
2002
0000
3003
,
0000
0010
1000
0010
,
1000
0001
0100
0001
,
0100
0010
0100
0010
,
0100
0001
1000
0001
,
1000
0001
0100
0010
,
1000
0001
0010
0100
,
1000
0010
1000
0010
,
0100
0220
0000
0000
,
0330
0001
1000
0010
,
0100
0000
0001
0000
0010
0000
0100
1000
,
0100
1000
0010
0100
,
0001
0000
0010
0000
0001
0000
1000
0010
,
1000
0001
0100
0010
,
1000
0001
0010
0100
,
1000
0001
0001
1000
,
1000
0010
0010
0100
,
0100
0110
1000
0001
,
0100
0010
1001
0000
,
0000
0000
0001
1000
,
0010
0100
0001
0100
,
0010
0000
1000
0100
,
1000
0010
0110
0000
,
0000
0000
0001
0100
,
0001
0010
0100
1000
,
0100
0000
1000
0001
,
0100
0001
1000
0100
,
1000
0001
0010
0001
,
1000
0010
1000
0001
,
0100
0010
1000
0100
,
0010
0001
1000
0100
,
1000
0100
0010
0001
,
0010
0001
2000
0001
,
0001
0001
0001
0001
,
0001
0000
3001
0000
0100
0010
0100
0010
,
1000
0001
1000
0001
,
0220
0000
0000
0330
,
2002
0000
0000
3003
,
0001
0010
0001
0100
,
0010
1000
0010
0100
,
0001
0100
0010
1000
,
0100
1000
0010
1000
,
0001
0000
0010
0000
0001
0100
0001
0000
,
1000
0000
0010
0000
1000
0100
1000
0000
,
0001
0100
1000
0100
,
0001
0010
0001
0000
0100
0000
0010
0000
,
1000
0100
1000
0010
,
0100
0001
0100
0010
,
1000
0010
0100
0001
,
0010
0001
0100
0001
,
1000
0100
1000
0000
0001
0100
0001
0000
,
1000
0010
1000
0000
0001
0010
0001
0000
,
1000
0100
0010
0001
,
2002
0000
0000
3003
,
0001
0010
0100
0010
,
0001
1000
0100
0010
,
0001
0100
0001
0010
,
0100
1000
0010
1000
,
0100
1000
0001
0010
,
0100
1000
0010
1000
,
0001
0100
0010
0100
,
0220
0000
0000
0330
,
1000
0000
0100
0000
1000
0001
1000
0000
,
0001
0000
0010
0000
0001
1000
0001
0000
,
1000
0100
0010
0001
,
1001
0000
0110
0000
,
0001
0010
0001
0000
1000
0100
1000
0000
,
0001
0100
0001
0000
1000
0010
1000
0000
,
0001
0010
0100
1000
,
0001
1000
0010
0100
,
1001
0000
0000
0000
;

//---------------dance-single - ----------------
#NOTES:
     dance-single:
     :
     Medium:
     13:
     0.532239,0.611449,0.197242,0.284904,0.032874,510.000000,483.000000,27.000000,39.000000,0.000000,0.000000,0.532239,0.611449,0.197242,0.284904,0.032874,510.000000,483.000000,27.000000,39.000000,0.000000,0.000000:
0000
0000
0000
0000
,
0000
0000
0000
0000
,
0000
0000
0000
0000
,
0000
0000
0000
0000
,
0001
0010
0100
1000
,
2020
0030
0002
3003
,
0100
1000
0001
0010
,
0002
0023
0230
1300
,
2002
3003
0000
0000
0000
0000
0000
0000
0000
0000
0000
0000
0000
0000
0000
0000
1000
0000
0000
0000
0000
0000
0000
0000
0100
0000
0000
0000
0000
0000
0000
0000
0010
0000
0000
0000
0000
0000
0000
0000
0100
0000
0000
0000
0000
0000
0000
0000
1000
0000
0000
0000
0000
0000
0000
0000
0000
0000
0000
0000
0000
0000
0000
0000
,
0001
0100
0020
0000
0000
0000
0000
0000
,
0030
0000
0001
0100
0010
0100
0001
0000
,
1000
0100
0020
0000
0000
0000
0000
0000
,
0030
0000
0100
1000
0100
0010
0100
0000
,
1000
0001
0200
0000
0000
0000
0320
0000
,
0030
0000
0010
1000
0010
0100
0010
0000
,
0100
0001
2000
0000
0000
0000
3001
0000
,
0001
0010
0001
0100
0001
1000
0010
0000
,
0010
1000
0020
0000
0000
0000
1000
0000
,
0030
0000
0100
0001
0100
0010
0100
0000
,
0100
0010
2000
0000
0000
0000
3002
0000
,
0000
0000
1003
0100
0010
0100
1000
0000
,
0001
0100
0010
1000
0010
0000
0100
0001
,
0100
0000
0001
0100
1000
0100
0001
0000
,
1001
0220
0000
0000
,
0330
0000
0010
1000
0010
0100
0001
0100
,
0010
1000
0020
0000
0000
0000
2030
0000
,
0000
0000
3001
0100
0001
1000
0010
1000
,
0001
0100
0002
0000
0000
0000
0023
0000
,
0000
0000
0130
1000
0100
0010
0001
0010
,
0100
1000
0002
0000
0000
0000
2003
0000
,
0000
0000
3010
0100
0010
1000
0100
1000
,
0001
0100
0002
0000
0000
0000
2003
0000
,
0000
0000
3010
0100
0010
0100
0010
0000
,
1000
0100
0020
0000
0000
0000
0032
0000
,
0000
0000
1003
0100
1000
0100
1000
0000
,
0001
0100
0020
0000
0000
0000
2030
0000
,
0000
0000
3001
0010
0100
0010
0001
0000
,
0010
0001
1000
0010
0100
0010
1000
0000
,
0001
0000
1000
0100
0010
0100
1000
0001
,
0010
0001
1000
0100
0010
0001
1000
0100
,
0010
0001
1001
0000
0010
0100
0010
1000
,
0010
0100
0001
0000
,
0000
0000
0000
0000
1000
0100
1000
0010
,
1000
0001
1000
0010
,
0101
0000
0000
0000
0010
0001
0010
0100
,
0010
0100
1000
0000
,
0000
0000
1000
0001
,
0100
0000
0010
0000
0010
1000
0001
0100
,
1000
0000
0001
1000
,
1001
0100
0010
0110
,
1000
0100
0110
0001
,
0100
0110
1000
0100
,
1000
0010
0100
0001
,
0010
0000
0000
0001
0000
0000
1000
0000
1000
0100
0000
0000
,
0010
0000
0010
0001
0000
0000
1000
0000
0000
0001
0000
0000
,
0100
0010
2001
0001
,
0010
0010
0100
0100
,
0001
0000
3001
0000
0100
0110
0010
0110
,
1000
0000
1000
0100
0000
0100
0010
0000
0010
0001
0000
0000
,
2002
0000
0000
3003
,
0001
1000
0010
0100
1000
0100
0001
0010
,
0001
0100
0001
0010
0100
1000
0100
0010
,
0100
1000
0100
1000
0001
0010
0001
0010
,
0001
0100
0010
1000
0001
0010
0100
1000
,
0100
0010
0100
1000
0010
0100
1000
0100
,
0010
0100
0010
0100
0001
0010
0001
0010
,
0100
1000
0100
1000
0001
0100
0010
1000
,
0001
0011
1000
1100
,
0001
0100
1000
0100
0001
0010
0100
1000
,
0010
1000
0010
1000
0001
0100
0001
0100
,
0010
1000
0100
1000
0010
0100
0001
0100
,
0001
0010
0001
0100
0010
1000
0010
0100
,
0001
0010
0100
1000
0010
0100
1000
0000
,
0010
1000
0010
1000
0010
0100
0010
0100
,
1000
0100
1000
0100
0001
1000
0001
1000
,
0001
0011
0100
1100
,
1000
0010
0100
0010
1000
0001
0100
0001
,
2000
0100
0001
0100
,
3002
0010
1003
0011
,
1200
0010
1000
0310
,
0120
0001
0100
0031
,
1002
0100
0013
1001
,
2001
0010
0100
3001
,
1100
0000
0011
0000
,
1000
0100
0001
0100
1000
0010
0001
0010
,
1000
0010
1000
0000
0001
0100
0001
0100
,
0010
1000
0010
0000
0100
0001
0100
0001
,
1000
0100
0010
0001
1000
0010
0100
0001
,
0010
0001
0100
0010
1000
0010
1000
0100
,
0010
0001
0010
0001
0010
1000
0010
1000
,
0010
0001
1000
0100
1000
0010
0100
0001
,
1000
0000
1000
0001
0000
0001
0100
0000
0100
0010
0000
0010
,
1000
0001
1000
0010
0100
0001
0100
0010
,
1001
0000
0000
0000
;

//---------------dance-single - ----------------
#NOTES:
     dance-single:
     :
     Hard:
     17:
     0.814013,0.917173,0.460230,0.160715,0.555198,780.000000,717.000000,63.000000,22.000000,0.000000,0.000000,0.814013,0.917173,0.460230,0.160715,0.555198,780.000000,717.000000,63.000000,22.000000,0.000000,0.000000:
// measure 0
0000
0000
0000
0000
,  // measure 1
0000
0000
0000
0000
,  // measure 2
0000
0000
0000
0000
,  // measure 3
0000
0000
0000
0000
,  // measure 4
1020
0130
0021
0130
,  // measure 5
2100
3001
0012
1003
,  // measure 6
1200
0310
0102
1003
,  // measure 7
0011
0110
1100
1001
,  // measure 8
0220
0330
0000
0000
0000
0000
0000
0000
0000
0000
0000
0000
0000
0000
0000
0000
0001
0000
0000
0000
0000
0000
0000
0000
0100
0000
0000
0000
0000
0000
0000
0000
0010
0000
0000
0000
0000
0000
0000
0000
1000
0000
0000
0000
0000
0000
0000
0000
0001
0000
0000
0000
0000
0000
0000
0000
0100
0000
0000
0000
0000
0000
0000
0000
,  // measure 9
1000
0000
0100
0000
0001
0000
1000
0000
0100
0000
0010
0000
0001
1000
0001
0000
,  // measure 10
0010
0100
1000
0001
0100
0010
1000
0010
,  // measure 11
0001
0000
0010
0000
1000
0000
0100
0000
1000
0000
0001
0000
0010
0100
0010
0000
,  // measure 12
0110
0000
1001
0001
0010
0100
0010
0001
,  // measure 13
1000
0000
0010
0000
0100
0000
0010
0000
1000
0000
0001
0000
1000
0010
1000
0000
,  // measure 14
0001
0100
0010
1000
0010
0100
0001
0010
,  // measure 15
0001
1000
0100
0001
0100
0010
0100
1000
,  // measure 16
0100
0010
0001
1000
0001
0100
0101
0000
,  // measure 17
0010
0000
0100
0000
1000
0000
0100
0000
0010
0000
1000
0000
0001
0100
1000
0000
,  // measure 18
0100
0001
0010
0001
1000
0010
1001
0000
,  // measure 19
0100
0000
0010
0000
1000
0000
0010
0000
0100
0000
1000
0000
0100
0001
0010
0000
,  // measure 20
0011
0000
1100
1000
0010
0100
0001
0000
,  // measure 21
1010
0000
0000
0000
0001
0000
0100
0000
0010
0000
1000
0000
0001
0010
0100
0000
,  // measure 22
1000
0010
1000
0100
1000
0010
0100
0001
,  // measure 23
0100
0010
1000
0001
1000
0001
0100
0010
,  // measure 24
0110
0000
0000
0000
1000
0010
1000
0010
1000
0000
0001
0010
0001
0010
0001
0000
,  // measure 25
1000
0100
1000
0100
1000
0000
0001
0100
0001
0100
0001
0000
1000
0000
0100
0000
,  // measure 26
0010
0000
0001
0000
1000
0010
1000
0010
1000
0000
0001
0100
0001
0100
0001
0000
,  // measure 27
1000
1000
0001
0010
0100
1000
0001
0100
,  // measure 28
0110
0000
0000
0000
1000
0100
1000
0100
1000
0000
0001
0100
0001
0100
0001
0000
,  // measure 29
1000
0010
1000
0010
1000
0000
0001
0010
0001
0010
0001
0000
1000
0000
0100
0000
,  // measure 30
0010
0000
0001
0000
0100
0001
0100
0001
0100
0000
0010
1000
0010
1000
0010
0000
,  // measure 31
1000
1000
0001
0100
0010
1000
0010
0100
,  // measure 32
0110
0000
0000
0000
1000
0100
1000
0100
1000
0000
0001
0100
0001
0100
0001
0000
,  // measure 33
1000
0010
1000
0010
1000
0000
0001
0010
0001
0010
0001
0000
1000
0000
0100
0000
,  // measure 34
1000
0000
0100
0000
0010
0001
0010
0001
0010
0000
0100
1000
0100
1000
0100
0000
,  // measure 35
1000
0100
0010
0001
1000
0001
0010
0100
,  // measure 36
0110
0000
0000
0000
0001
0100
0001
0100
0001
0000
1000
0100
1000
0100
1000
0000
,  // measure 37
0001
0010
0001
0010
0001
0000
1000
0010
1000
0010
1000
0000
0001
0000
0010
0000
,  // measure 38
0100
0000
1000
0000
0001
0010
0100
0010
0001
0000
1000
0100
0010
0100
1000
0000
,  // measure 39
0001
0000
0001
0000
1000
0100
1000
0000
0001
0010
0001
0000
1000
0100
0010
0100
,  // measure 40
0010
0001
1000
0100
0010
0000
0000
0000
0001
0000
0100
0000
0010
0000
0100
0000
,  // measure 41
0001
1100
0011
0000
,  // measure 42
0000
0000
0000
0000
1000
0010
0100
0010
,  // measure 43
1000
0101
0011
0110
,  // measure 44
1100
0000
0000
0000
0001
1000
0010
1000
,  // measure 45
0001
1100
0011
0000
,  // measure 46
0000
0000
0110
1001
,  // measure 47
0110
0000
1010
0000
0001
0010
0100
1000
,  // measure 48
1100
0000
1100
0101
,  // measure 49
0110
1010
0011
1001
,  // measure 50
1010
0101
0011
1100
,  // measure 51
0101
0000
0000
0110
0000
0000
0001
0000
0001
1000
0000
1000
,  // measure 52
0010
0000
0010
0100
0000
0100
0001
0000
0001
0010
0000
0010
,  // measure 53
0100
0000
0100
1000
0000
1000
0001
0100
1000
0100
0010
0100
,  // measure 54
0001
0010
0100
1000
0100
0010
0001
1000
0001
0010
0100
0010
,  // measure 55
0001
0100
0001
1000
0100
1000
0002
0000
0000
1000
0000
0000
,  // measure 56
0010
1000
0100
1000
,  // measure 57
0010
0000
0000
0000
0000
0000
1003
0000
0000
0000
0010
0000
0110
0000
0000
1001
0000
0000
0011
0000
0000
1100
0000
0000
,  // measure 58
1000
0010
1000
0001
0100
0001
2000
0000
0001
3010
0100
1000
,  // measure 59
2002
0000
0000
3003
,  // measure 60
0001
0010
0001
0010
0100
1000
0100
1000
0001
0010
0100
1000
0001
0000
0000
0000
,  // measure 61
1000
0000
0100
0000
0010
0000
0100
0000
1000
0001
0100
0000
0010
0000
1000
0000
,  // measure 62
0001
0000
0010
0100
0010
0000
0001
0000
1000
0000
0100
0000
0010
0000
0100
0000
,  // measure 63
1000
0000
0001
0010
0001
0000
1000
0000
0001
0010
0001
0000
1000
0000
0100
0000
,  // measure 64
0010
0000
0001
1000
0001
0000
0100
0000
0010
0100
0010
0100
0001
0000
1000
0000
,  // measure 65
0001
0010
1000
0010
0001
0010
1000
0010
,  // measure 66
0001
0100
1000
0100
0001
0100
1000
0100
,  // measure 67
0001
0000
1000
0010
1000
0000
0001
0100
0001
0000
1000
0010
1000
0000
0001
0100
,  // measure 68
0001
0010
0100
1000
0001
0010
0110
0000
,  // measure 69
1000
0000
0001
0000
0100
0000
0001
0000
1000
0010
0100
0000
0001
0000
0010
0000
,  // measure 70
0100
0000
1000
0100
1000
0000
0001
0000
0100
0010
0100
0000
0001
0000
1000
0000
,  // measure 71
0001
0000
0010
0000
0100
0000
0010
0000
0001
1000
0010
0000
0100
0000
0001
0000
,  // measure 72
1000
0000
0001
0100
0001
0000
1000
0000
0001
0010
0001
0010
0100
0000
0000
0000
,  // measure 73
1000
0100
1000
0100
0010
0100
0010
0100
,  // measure 74
0010
0001
0010
0001
1000
0001
1000
0001
,  // measure 75
1000
0010
0100
0010
1000
0001
0100
0001
,  // measure 76
1000
0100
1000
0001
0100
0010
1000
0010
0100
0001
0010
0001
1000
0100
0010
0001
,  // measure 77
2000
0001
0100
3001
,  // measure 78
0020
0100
1030
1001
,  // measure 79
1002
0010
1000
0010
,  // measure 80
0203
1000
0310
0011
,  // measure 81
1002
1000
0103
0110
,  // measure 82
2001
0001
3010
0110
,  // measure 83
2002
3003
0220
0330
,  // measure 84
0001
0010
0001
0000
1000
0100
1000
0000
0001
0010
0001
0000
1000
0100
1000
0000
,  // measure 85
0001
0100
0001
0100
0001
0000
1000
0100
1000
0100
1000
0000
0010
0100
0010
0000
,  // measure 86
1000
0010
1000
0010
1000
0000
0001
0010
0001
0010
0001
0000
0010
0100
0010
0000
,  // measure 87
0001
0010
0100
1000
0001
1000
0010
0100
,  // measure 88
0001
0000
0010
0000
1000
0000
0010
0000
0001
0100
0001
0000
1000
0100
1000
0000
,  // measure 89
0010
1000
0010
0100
0001
0100
0010
1000
,  // measure 90
0001
1000
0100
0010
0100
0001
1000
0010
,  // measure 91
0010
0000
0000
0010
0001
0000
0000
0001
1000
0000
0000
1000
0100
0000
0000
0100
,  // measure 92
1000
0100
0001
0100
1000
0001
0100
1000
0100
0001
0010
0100
,  // measure 93
1001
0000
0000
0000
;

//---------------dance-single - LEGENDARY----------------
#NOTES:
     dance-single:
     LEGENDARY:
     Challenge:
     18:
     0.894370,0.985112,0.387178,0.168021,0.781661,857.000000,804.000000,53.000000,23.000000,0.000000,0.000000,0.894370,0.985112,0.387178,0.168021,0.781661,857.000000,804.000000,53.000000,23.000000,0.000000,0.000000:
0000
0000
0000
0000
,
0000
0000
0000
0000
,
0000
0000
0000
0000
,
0000
0000
0000
0000
,
1002
0103
2010
3100
,
0012
1003
2010
3001
,
0210
0301
0120
1030
,
1100
0011
0110
1001
,
0220
0330
0000
0000
0000
0000
0000
0000
0001
0000
0000
0000
1000
0000
0000
0000
0010
0000
0000
0000
0100
0000
0000
0000
0001
0000
0010
0000
0100
0000
0000
0000
,
1000
0000
0001
0000
0100
0000
0010
0000
1000
0000
0100
0000
1000
0010
0100
0000
,
0001
0000
0010
0000
0100
0000
1000
0000
0001
0000
0100
0000
0010
1000
0001
0000
,
0100
0000
0010
0000
1000
0000
0001
0000
0010
0000
0100
0000
1000
0001
1000
0001
,
0100
0000
0010
0000
0100
0000
0001
0000
0010
0000
0001
0000
1000
0010
0100
0000
,
0010
0000
1000
0000
0001
0000
0010
0000
0100
0000
0010
0000
0001
1000
0010
1000
,
0001
0000
0100
0000
0010
0000
1000
0000
0001
0000
0010
0000
0100
1000
0001
0000
,
0100
0010
1000
0001
0000
1001
0100
0010
,
0100
0000
0001
0000
0010
0000
1000
0000
0010
0000
0001
0000
0010
0001
1000
0000
,
0100
0000
1000
0000
0010
0000
0100
0000
1000
0000
0100
0000
0001
1000
0010
0000
,
0100
0000
0001
0000
0010
0000
0001
0000
1000
0000
0100
0000
0010
1000
0010
0000
,
0100
0000
0001
0000
0100
0000
0010
0000
1000
0000
0001
0000
0100
1000
0001
0000
,
2000
0000
0000
0000
3010
0000
0100
0000
0001
0000
0010
0000
0001
1000
0100
0000
,
1000
0000
0010
0000
1000
0000
0100
0000
0010
0000
0001
0000
0100
0010
0100
0010
,
1000
0001
0010
0001
1000
0010
0100
0001
,
1000
0000
0100
0000
1000
0001
0010
0000
0100
0000
0001
0000
0100
1000
0010
0000
,
0100
0000
0001
0000
0010
0001
1000
0001
0010
0000
0001
1000
0100
1000
0001
0000
,
0100
0010
1000
0010
0100
0000
0001
0010
0100
0010
0001
0000
1000
0000
0010
0000
,
0100
0000
0010
0000
1000
0001
0100
0001
1000
0000
0010
0100
0001
0100
0010
0000
,
1000
0000
0001
0000
1000
0010
1000
0010
0100
0000
0001
0000
0010
0001
0010
0001
,
1000
0000
0100
0000
1000
0010
0100
0010
1000
0000
0001
0010
0100
0010
0001
0000
,
1000
0100
0010
0100
1000
0000
0001
0100
0010
0100
0001
0000
1000
0000
0010
0000
,
0100
0000
0001
0000
1000
0001
0010
0001
1000
0000
0001
0100
0010
0100
0001
0000
,
1000
0000
0010
0000
1000
0001
1000
0001
0100
0000
0010
0000
0100
0010
0100
0010
,
1000
0000
0001
0000
0010
0100
1000
0100
0010
0000
0001
0100
0010
0100
0001
0000
,
1000
0010
0100
0010
1000
0000
0001
1000
0100
1000
0001
0000
0100
0000
0010
0000
,
1000
0000
0001
0000
0100
0010
0100
0001
0100
0000
0010
1000
0010
0100
0010
0000
,
1000
0000
0001
0000
1000
0100
0010
0100
1000
0000
0001
0000
0100
0010
1000
0010
,
0100
0000
0001
0000
0010
0001
1000
0001
0010
0000
0001
1000
0100
1000
0001
0000
,
0100
0010
0100
0010
0100
0000
0001
1000
0001
1000
0001
0000
0100
0000
0010
0000
,
0010
0000
0010
0000
1000
0010
1000
0100
1000
0000
0001
0010
0001
0100
0001
0000
,
1000
0000
0010
0000
0100
0001
1000
0010
1000
0100
0010
0001
1000
0010
0100
0010
,
1000
0000
0001
0000
0010
0000
1000
0000
0020
0030
0000
0000
0000
0000
0000
0000
0100
0000
0000
0000
1000
0000
0000
0000
0001
0000
0000
0000
0100
0000
0000
0000
,
0110
1001
1010
0000
,
0000
0000
0000
0000
0100
0001
0010
0001
,
1000
0101
1010
0110
,
0011
0000
0000
0000
1000
0001
0100
0001
,
1000
0010
0110
0000
1001
0000
0000
0000
,
0000
0000
0011
1100
,
0110
0000
1001
0000
0100
0010
1000
0001
,
1001
0000
0000
0000
0100
0010
0100
0010
0100
0000
0000
0000
1010
0000
0000
0000
,
1100
0011
1001
1100
,
1010
0110
1001
0110
,
0101
0000
0000
1010
0000
0000
0001
0000
0001
1000
0000
1000
,
0010
0000
0010
0100
0000
0100
1000
0000
1000
0001
0000
0001
,
0010
0000
0010
0100
0000
0100
0001
1000
0100
1000
0010
0100
,
0001
0010
0001
0100
0010
1000
0100
1000
0001
0100
0010
1000
,
0010
0100
0001
0100
0010
1000
0020
0000
0000
1000
0000
0000
,
0100
0000
0000
1030
0000
0010
0210
0000
0000
0001
0000
0000
,
0010
0000
0000
0000
0000
0000
0301
0000
0000
0000
0100
0000
0110
0000
0000
1010
0000
0000
0101
0000
0000
0011
0000
0000
,
1000
0010
0100
0010
1000
0001
0010
0001
0100
0010
1000
0100
,
0020
0000
0100
0100
0100
0100
0130
1000
,
0001
1000
0100
1000
0001
0100
0010
0100
0010
1000
0001
0100
0020
0000
0000
0000
,
1030
0000
0100
0000
0001
0000
0100
0000
1000
0010
0100
0000
0001
0000
0010
0000
,
0001
0000
0100
0010
0001
0000
0010
0000
1000
0100
1000
0001
0100
0000
0010
0000
,
0100
0000
0001
1000
0001
0000
0100
0000
0010
1000
0010
0000
0100
0000
0001
0000
,
0010
0000
0001
1000
0001
0000
0100
0010
0100
0010
1000
0000
0001
0000
0100
0000
,
0010
1000
0010
0001
0100
1000
0100
0001
,
0010
1000
0100
0001
0010
0001
0100
1000
,
0100
0000
0001
0010
0001
0000
0100
0010
0100
0000
0010
1000
0010
0000
1000
0100
,
1000
0010
1000
0010
0100
0000
0001
0000
0010
0001
0010
0001
1000
0000
0100
0000
,
1000
0000
0010
0100
0010
0000
1000
0000
0001
0010
0001
0000
0100
0000
0010
0000
,
1000
0000
0001
1000
0001
0000
0100
0000
0010
1000
0001
0100
0010
0000
1000
0000
,
0001
0000
0010
0001
1000
0000
0010
0000
1000
0100
0010
0000
0001
0000
0100
0010
,
1000
0000
0001
1000
0001
0000
0100
0010
0100
0000
0001
0000
1000
0000
0001
0000
,
0100
0010
0100
0001
0100
0010
0100
0001
0100
0010
0100
0001
0100
0000
0100
0000
,
0010
1000
0010
0100
0010
1000
0010
0100
0010
1000
0010
0100
0010
0000
0010
0000
,
0100
0000
0001
1000
0010
0000
0100
0001
0010
0000
0001
1000
0100
0000
1000
0010
,
0100
0001
0010
0001
1000
0100
0010
0100
1000
0001
0010
0100
1000
0010
0100
0001
,
0200
0010
0001
1300
,
1020
0130
1001
0110
,
0102
0010
1000
0013
,
2100
3010
0101
1010
,
0120
0000
0000
0000
1000
0000
0000
0000
0130
0000
0000
0000
0001
0000
1000
0010
,
2000
0100
0001
3010
,
0012
0103
2010
3100
,
0001
0100
0010
1000
0010
0100
0001
0010
0100
1000
0010
0100
0002
0000
0000
0000
,
1003
0010
1000
0010
1000
0000
0001
0100
0001
0100
0001
0000
0010
0100
0010
0000
,
0001
1000
0010
1000
0001
0000
0100
0010
1000
0010
0100
0000
0001
0000
1000
0000
,
0010
1000
0001
0100
0010
1000
0100
1000
,
0001
0000
0010
0001
1000
0000
0010
1000
0001
0100
0001
0100
0010
0000
1000
0000
,
0100
0000
1000
0000
0100
0000
0010
0000
0001
0000
0100
0010
0001
0000
0001
0010
,
0100
0000
0001
0000
1000
0000
0001
0000
0100
0000
1000
0100
0010
0000
0100
0000
,
0001
0000
0010
0001
1000
0000
0010
0100
0001
0000
1000
0010
0100
0000
0010
1000
,
0001
0100
1000
0100
0001
0010
1000
0010
0001
0100
1000
0001
,
0110
0000
0000
0000
;
