#TITLE:アモ;
#SUBTITLE:;
#ARTIST:八月二雪;
#TITLETRANSLIT:Amo;
#SUBTITLETRANSLIT:;
#ARTISTTRANSLIT:Hachigatsu Niyuki;
#GENRE:;
#CREDIT:;
#BANNER:Amo_banner.png;
#BACKGROUND:Amo.png;
#LYRICSPATH:;
#CDTITLE:;
#MUSIC:Amo.ogg;
#OFFSET:1.068000;
#SAMPLESTART:74.711998;
#SAMPLELENGTH:12.000000;
#LASTBEATHINT:245.500000;
#SELECTABLE:YES;
#BPMS:0.000000=95.000000
,51.000000=190.000000
,65.000000=95.000000
,66.000000=190.000000
,96.000000=95.000000
,97.000000=190.000000
,113.000000=95.000000
,149.000000=190.000000
,213.000000=95.000000
;
#STOPS:50.000000=0.632000
;
#BGCHANGES:;
#KEYSOUNDS:;
#ATTACKS:;

//---------------dance-single - ----------------
#NOTES:
     dance-single:
     :
     Easy:
     6:
     0.176673,0.202522,0.083001,0.182601,0.000000,149.000000,139.000000,10.000000,22.000000,0.000000,0.000000,0.176673,0.202522,0.083001,0.182601,0.000000,149.000000,139.000000,10.000000,22.000000,0.000000,0.000000:
0000
0000
0000
0000
,
0000
0000
0000
0000
,
0000
0000
0000
0000
,
0000
0000
0000
0000
,
0000
0000
0000
0000
,
1000
0000
0100
1000
,
0001
0000
0010
0001
,
0100
0000
0010
0000
,
2002
0000
0000
3003
0000
0000
0000
0000
,
1000
0010
1000
0000
,
0001
0010
0001
0000
,
1000
0001
0010
0100
,
1000
0000
0110
2000
,
0000
3001
0000
0010
,
0000
0001
0000
0100
,
0000
0001
0000
1000
,
0000
0020
0130
0000
,
0001
0000
0010
0000
,
0100
0000
1000
0000
,
0010
0000
0100
0000
,
0001
0000
0000
0000
2002
0000
0000
3003
,
0000
0000
0100
0000
,
0010
0000
0100
0000
,
0001
0000
0010
0000
,
0200
1300
0000
0010
,
0000
1000
0000
0001
,
0000
0100
0000
0001
,
0000
1000
0000
0100
,
0000
0020
0000
0031
,
1000
0010
0000
0100
,
0010
2000
0000
3100
,
0010
0002
0000
1003
,
0010
0110
0000
1000
,
0000
0001
0000
0010
,
0000
0200
0000
0300
,
0000
1000
0001
1000
,
0000
0010
0010
0220
,
0330
1000
0000
0100
,
1000
0001
0000
0010
,
0001
1000
0000
0010
,
0100
0001
0000
1001
,
0000
0100
0000
0010
,
0100
0001
0000
0010
,
0100
1000
0000
0001
,
1000
0020
0000
0130
,
0000
0001
0010
0001
,
0000
1000
0100
1000
,
0000
0001
0100
0001
,
0000
1000
0010
1000
,
0000
1001
0000
0010
,
0000
0100
0000
0001
,
0000
0011
0000
1000
,
0000
0010
0100
0010
,
0100
0002
0003
1000
,
0010
0200
0300
0001
,
0010
0200
0300
1000
,
0010
0200
0000
0310
,
1000
0000
0000
0000
2002
0000
0000
0000
0000
3003
0000
0000
0000
0000
0000
0000
,
0100
0010
0000
1000
,
0001
0010
0000
0001
,
0000
2200
0000
0000
,
3300
0000
0000
0000
;

//---------------dance-single - ----------------
#NOTES:
     dance-single:
     :
     Medium:
     12:
     0.407889,0.431240,0.190901,0.298802,0.062250,344.000000,321.000000,23.000000,36.000000,0.000000,0.000000,0.407889,0.431240,0.190901,0.298802,0.062250,344.000000,321.000000,23.000000,36.000000,0.000000,0.000000:
// measure 0
0000
0000
0000
0000
,  // measure 1
0000
0000
0000
0000
,  // measure 2
0000
0000
0000
0000
,  // measure 3
0000
0000
0100
0000
0010
0000
0100
0000
0001
0000
0000
0010
0000
0000
0100
0000
,  // measure 4
2000
0000
0000
0000
0000
0000
3010
0000
0100
0000
0000
0001
0010
0000
0000
0000
,  // measure 5
0100
1000
0100
0010
0001
0100
0010
0100
,  // measure 6
0001
0000
0010
0000
0100
0000
1000
0000
0010
0000
0000
0100
0001
0000
0000
0000
,  // measure 7
0022
0033
2200
3300
,  // measure 8
0220
0000
0000
0330
,  // measure 9
1000
0100
0010
0100
1000
0100
0010
0000
,  // measure 10
0001
0100
0010
0100
0001
0100
0010
0000
,  // measure 11
1000
0001
0010
0100
1000
0001
0100
0000
,  // measure 12
0001
1000
0100
0010
0001
0000
0220
0000
,  // measure 13
0330
0000
1000
0000
0010
1000
0001
0000
,  // measure 14
0010
0001
0000
1000
0001
0000
1001
0000
,  // measure 15
0100
0000
0010
0100
0001
0000
0010
0100
,  // measure 16
1000
0000
0000
0000
0001
0010
0200
0000
1300
0000
0000
0000
0010
0000
0100
0000
,  // measure 17
0001
0100
0010
0000
1000
0000
0100
0010
,  // measure 18
0001
0010
0100
0000
1100
0000
0001
0000
,  // measure 19
0011
0000
1000
0000
0010
0100
0010
0100
,  // measure 20
0002
0003
1001
0100
,  // measure 21
0010
1000
0100
0000
0010
0000
0001
1000
,  // measure 22
0000
0001
1000
0000
0010
0000
1000
0001
,  // measure 23
0100
0000
0010
0000
1000
0001
0010
0000
,  // measure 24
0001
1000
0020
0000
0130
0000
0000
0000
0001
0000
0010
0000
0001
0000
1000
0000
,  // measure 25
0001
0000
1000
0000
0010
1000
0010
0100
,  // measure 26
0010
1010
0100
0011
,  // measure 27
0100
0000
1000
0001
0010
0001
0200
0000
,  // measure 28
0000
0000
0310
0000
1000
0100
0020
0000
,  // measure 29
0130
0000
1000
0000
0001
0000
0000
0100
0000
0010
0000
0100
0002
0000
0000
0000
,  // measure 30
0013
0000
0000
0000
1001
0000
0000
0010
0000
0000
0100
0000
0001
0000
1000
0000
,  // measure 31
0200
0000
0310
0001
1000
0010
0100
0001
,  // measure 32
1000
2020
3030
0022
,  // measure 33
0033
0220
0330
1000
,  // measure 34
0100
0011
0100
0001
,  // measure 35
1000
0001
0100
0000
0010
1000
0001
0000
,  // measure 36
0010
0000
0001
0000
1000
0000
0001
1000
0001
0000
0100
0000
0010
0100
0010
0000
,  // measure 37
0200
0000
0301
0000
0010
0001
1000
0001
,  // measure 38
0010
0000
0100
1000
0001
1000
0100
0000
,  // measure 39
0010
0000
0001
0100
0010
0100
0001
0000
,  // measure 40
1000
0000
0100
0010
0100
1000
0100
0000
,  // measure 41
0010
0000
0001
0000
0100
0010
0100
0010
,  // measure 42
1000
0000
0001
0000
0010
0100
0010
0100
,  // measure 43
1000
0000
0010
0100
0001
0000
0010
0100
,  // measure 44
1000
0000
0001
0100
1000
0100
0001
0000
,  // measure 45
1001
0000
0010
0100
1000
0010
0100
0001
,  // measure 46
0010
0000
0001
0100
0010
1000
0001
0010
,  // measure 47
0100
0000
1000
0010
0100
0001
0010
0100
,  // measure 48
1000
0000
0010
0100
0010
0000
1000
0100
,  // measure 49
1000
2010
0001
3001
,  // measure 50
0010
0012
1000
1003
,  // measure 51
0100
0000
0010
0001
1000
0000
0010
1000
,  // measure 52
0001
0000
0100
0001
0010
0001
1000
0010
,  // measure 53
0100
0000
2010
0000
0000
3001
0020
0000
,  // measure 54
0031
0100
0020
0000
1030
0000
1100
0000
,  // measure 55
0101
0000
0020
0100
0130
0000
2000
0100
,  // measure 56
3100
0000
0000
0000
0010
0000
0000
0001
0000
0000
1000
0000
0010
0000
0100
0000
,  // measure 57
0001
0010
0200
0000
0000
0000
2300
0000
,  // measure 58
3010
0100
0002
0000
0000
0000
0013
0000
,  // measure 59
0110
0000
0000
0000
2100
0000
0000
3010
0000
0000
0100
0000
0001
0000
0000
0010
,  // measure 60
0000
0000
0100
2000
0002
0000
0000
0000
0000
0000
0000
0000
0000
0000
0000
0000
,  // measure 61
0000
3003
0000
0000
0000
0000
0000
0000
;

//---------------dance-single - ----------------
#NOTES:
     dance-single:
     :
     Hard:
     15:
     0.631991,0.862480,0.406703,0.332003,0.473104,533.000000,484.000000,49.000000,40.000000,0.000000,0.000000,0.631991,0.862480,0.406703,0.332003,0.473104,533.000000,484.000000,49.000000,40.000000,0.000000,0.000000:
// measure 0
0000
0000
0000
0000
,  // measure 1
0000
0000
0000
0000
,  // measure 2
0000
0000
0000
0000
,  // measure 3
1000
0000
0010
0000
0100
0000
0110
0000
0001
0000
0010
0100
0000
1000
0010
0100
,  // measure 4
0020
0000
0000
0000
1030
0000
0001
0000
1000
0000
0100
0010
0002
0000
0000
0000
,  // measure 5
0103
0010
1000
1100
0001
0100
0010
1010
,  // measure 6
1000
0000
0001
0000
0010
0000
1000
0000
0001
0000
0100
1000
0010
0000
0100
0000
,  // measure 7
0102
0000
0000
0000
0013
0000
0100
0000
2100
0000
0000
0010
0000
0000
3010
0000
,  // measure 8
0220
0330
2002
3003
,  // measure 9
0010
0100
0001
0000
0010
0100
1000
0000
0001
0100
1000
0000
1000
0100
0001
0000
,  // measure 10
1000
0100
0010
0000
0001
0100
0010
0000
1000
0010
0001
0000
0001
0010
1000
0000
,  // measure 11
0001
0100
0001
0100
0010
1000
0010
1000
0001
0010
0100
1000
0010
0100
0001
0000
,  // measure 12
1000
0000
0100
0000
0010
0000
0001
0000
0100
0001
0100
0001
1000
0010
1000
0010
0200
0300
0000
0000
0000
0000
0000
0000
2200
0000
0000
0000
0000
0000
0000
0000
,  // measure 13
3300
0000
0001
0010
0001
0010
0011
0000
,  // measure 14
1000
1100
0000
0010
0110
0000
1000
1000
,  // measure 15
1000
0000
1000
0000
0001
0100
0001
0100
0010
0100
0010
0000
1000
0000
0000
0000
,  // measure 16
0001
0000
0000
0010
0000
0000
0001
0100
1000
0001
0010
1000
0200
0000
0000
0000
0000
0000
0010
0000
0000
0310
0000
0000
,  // measure 17
0001
1000
0100
0000
0010
0000
0000
0000
1001
0000
0001
0000
0100
0000
0001
0000
,  // measure 18
1000
0010
0100
0000
0001
0010
0100
0000
2100
0000
0000
0000
3001
0000
0010
0000
,  // measure 19
0012
0000
0000
0000
0103
0010
0100
0000
0001
0000
0001
0000
1000
0000
1000
0000
,  // measure 20
0010
0100
0001
1000
0100
0000
0000
0000
0022
0000
0000
0000
0033
0000
0000
0000
,  // measure 21
1000
0100
1000
0100
1100
0000
0001
0011
,  // measure 22
0000
0100
0110
0000
0001
0001
0001
0001
,  // measure 23
1000
0010
1000
0010
0100
0010
0100
0000
0001
0000
0000
0000
1000
0000
0100
0000
,  // measure 24
1000
0000
0010
0000
0001
0000
1000
0000
0100
0000
0001
0000
0020
0000
0000
0000
0000
0000
0000
0000
0000
0000
0000
0000
0100
0000
0000
0000
0000
0000
0130
0000
0000
0000
0000
0000
1000
0000
0000
0001
0000
0000
0010
0000
0000
0000
0000
0000
,  // measure 25
0100
0000
0000
0000
1001
0000
1000
0000
0010
0000
1000
0000
0001
0100
0010
0000
,  // measure 26
1000
0100
0010
0000
0012
0000
0000
0000
1003
0000
0100
0000
2100
0000
0000
0000
,  // measure 27
3010
0100
0010
0000
1000
0000
1000
0000
0001
0000
0001
0000
0100
0010
1000
0001
,  // measure 28
0010
0000
0000
0000
0020
0000
0100
0100
0030
0001
0001
0002
2000
0000
0003
0000
,  // measure 29
3020
0000
0130
0000
0110
0000
0001
1000
0000
0100
0010
0001
2000
0000
0010
0000
,  // measure 30
3001
0000
0010
0000
0101
0000
0000
0110
0000
0000
1000
0001
0010
0000
0100
0000
,  // measure 31
1000
0000
0100
0000
0010
0000
0000
0011
0000
0000
0001
0100
0010
0000
1000
0000
,  // measure 32
0100
0000
0010
0000
0012
0000
0000
0000
1003
0000
0010
1000
0200
0000
0000
0000
,  // measure 33
0310
0000
0001
0010
0100
0000
1000
0010
0000
0000
0010
0100
0001
0000
0010
0100
,  // measure 34
1000
0001
0110
0000
1000
0000
0001
0100
,  // measure 35
0010
0000
0100
0001
0010
0000
0100
0000
1000
0000
0010
0000
0100
0000
0001
0000
,  // measure 36
0010
0000
0000
0000
0001
0000
1000
0000
0100
0000
0000
0000
0010
0000
0100
0000
1000
0000
0000
0001
0100
0000
0010
0000
0100
0000
0001
0000
1000
0000
0100
0000
,  // measure 37
0010
0000
0001
0000
1001
0000
0000
0000
0100
0000
0010
0000
0100
0000
0001
0010
,  // measure 38
0100
0000
1000
0000
0010
0100
0001
0000
0010
0000
0100
0000
1000
0000
0010
0000
,  // measure 39
0110
0000
0000
0000
1000
0000
0100
0000
0010
0000
0001
0000
0100
0000
0001
0010
,  // measure 40
0100
0000
1000
0000
0010
0100
0000
0001
0010
0000
0001
0000
1000
0100
1000
0100
,  // measure 41
0010
0000
0000
0000
1001
0000
0000
0000
0010
0000
0100
0000
0001
0000
1000
0010
,  // measure 42
0100
0000
0001
0000
0010
0000
0100
0000
0010
0000
0001
0000
1000
0000
0010
0100
,  // measure 43
0010
0000
1000
0000
0001
0000
0010
0000
1000
0000
0010
0000
0001
0000
0100
0010
,  // measure 44
1000
0000
0001
0000
1000
0000
0100
0000
0001
0000
0100
0000
1000
0001
0010
0001
,  // measure 45
1000
0000
0000
0000
0110
0000
0000
0000
0001
0000
0010
0000
0001
0000
1000
0010
,  // measure 46
0100
0000
0010
0000
1000
0000
0100
0000
0010
0000
0001
0000
0100
0000
0001
0010
,  // measure 47
0100
0000
1000
0000
0020
0000
0000
0000
0130
0000
0001
0000
1000
0100
0010
0000
,  // measure 48
0001
0000
0100
0000
0001
0010
0000
0001
1000
0000
0010
0000
0100
0010
0100
0010
,  // measure 49
1000
0000
0000
0000
0101
0000
0000
0000
0010
0000
0100
0000
0001
0010
0100
0000
,  // measure 50
1000
0000
0000
0000
1010
0000
0000
0000
0100
0000
0001
0000
1000
0100
0010
0000
,  // measure 51
0001
0000
0000
0000
1001
0000
0000
0000
0010
0000
0001
0000
1000
0000
0100
0010
,  // measure 52
0100
0000
1000
0000
0010
0000
0010
0000
0100
0000
0100
0000
0001
0010
0100
1000
,  // measure 53
0010
0000
0000
0000
0120
0000
0000
1000
0000
0000
0130
0000
0102
0000
0000
0000
,  // measure 54
0013
0000
0100
0000
2100
0000
0000
0001
0000
0000
3100
0000
1010
0000
0000
0000
,  // measure 55
0101
0000
0000
0000
0012
0000
0000
1000
0000
0000
0013
0000
0210
0000
0000
1000
,  // measure 56
0000
0000
0310
0000
0120
0000
0000
0001
0000
0000
0130
0000
1000
0010
0100
0000
,  // measure 57
0001
0010
0100
1000
2001
0000
0000
0010
0000
0000
3001
0000
0201
0000
0000
0000
,  // measure 58
0310
0000
1000
0000
1002
0000
0000
0010
0000
0000
1003
0000
1100
0000
0000
0000
,  // measure 59
0110
0000
0000
0000
0021
0000
0000
1000
0000
0000
0031
0000
0201
0000
0000
1000
,  // measure 60
0000
0000
0301
0020
2000
0000
0000
0000
0000
0000
0000
0000
0000
0000
0000
0000
,  // measure 61
0000
3030
0000
0000
0000
0000
0000
0000
;
