#TITLE:アキネイション;
#SUBTITLE:;
#ARTIST:ビートまりお(COOL&CREATE);
#TITLETRANSLIT:Aki nation;
#SUBTITLETRANSLIT:;
#ARTISTTRANSLIT:beatMARIO(COOL&CREATE);
#GENRE:;
#CREDIT:;
#BANNER:Aki_nation_banner.png;
#BACKGROUND:Aki_nation.png;
#LYRICSPATH:;
#CDTITLE:;
#MUSIC:Aki nation.ogg;
#OFFSET:-0.481000;
#SAMPLESTART:10.850000;
#SAMPLELENGTH:10.380000;
#LASTBEATHINT:333.000000;
#SELECTABLE:YES;
#BPMS:0.000000=185.000000
;
#STOPS:
;
#BGCHANGES:;
#KEYSOUNDS:;
#ATTACKS:;

//---------------dance-single - ----------------
#NOTES:
     dance-single:
     :
     Easy:
     7:
     0.314761,0.367221,0.194671,0.256612,0.000000,249.000000,227.000000,22.000000,29.000000,0.000000,0.000000,0.314761,0.367221,0.194671,0.256612,0.000000,249.000000,227.000000,22.000000,29.000000,0.000000,0.000000:
0000
0000
0000
0000
,
0000
0000
0000
0000
,
0000
0000
0000
0000
,
0000
0000
0000
0000
,
0001
0000
1000
0000
,
0001
0000
1000
0000
,
0001
0010
0100
1000
,
2002
0000
0000
3003
0000
0000
0000
0000
,
0001
0010
0100
0010
,
0001
1000
0010
0000
,
0100
0010
1000
0010
,
0100
0001
2002
3003
,
0010
0100
0001
1000
,
0001
0010
0100
0000
,
1000
0100
0010
0100
,
1000
0001
2002
3003
,
0100
0000
0010
0100
,
0001
0000
0010
0001
,
1000
0000
0010
1000
,
0100
1000
0002
0003
,
0010
0000
0001
1000
,
0010
0000
0100
0010
,
1000
0000
0001
0000
,
0220
0000
0330
0000
,
1000
0000
0010
1000
,
0100
0000
0010
0001
,
1000
0000
0001
0000
,
0100
0010
0220
0330
,
0001
0000
0010
0001
,
1000
0000
0010
1000
,
0001
0000
0100
0010
,
0220
0000
0330
0000
,
1000
0000
0100
0000
,
1000
0100
1100
0000
,
0001
0010
0100
0010
,
0002
0000
0103
0000
,
0001
0000
0010
0000
,
0001
0010
0011
0000
,
1000
0000
0001
1000
,
0001
0100
0100
0000
,
0110
0000
0001
0010
,
0100
0000
1000
0100
,
0010
0000
0001
0000
,
1000
0001
2002
3003
,
0100
0010
0100
0001
,
0010
0001
1000
0000
,
0001
0010
0100
1000
,
2002
0000
3003
0000
,
0100
0001
1000
0000
,
0100
1000
0001
0000
,
0010
0001
1000
0000
,
0010
1000
0001
0000
,
0011
0000
1000
0000
,
0100
1000
0001
0000
,
0100
0010
1000
0001
,
2002
0000
3003
0000
,
1000
0010
0100
0010
,
1000
0100
0010
0000
,
0001
0100
0010
0100
,
0001
0010
0100
0000
,
1100
0000
0001
0100
,
0001
0000
1000
0010
,
1000
0000
0001
0000
,
0220
0000
0330
0000
,
0001
0100
0010
0100
,
0001
1000
0100
0000
,
1000
0010
0100
0010
,
1000
0001
2002
3003
,
0010
1000
0100
0010
,
0001
1000
0001
0000
,
0100
0001
0010
0100
,
1000
0000
0101
0000
,
1000
0001
0100
0001
,
1000
0001
0010
0000
,
0001
1000
0001
0010
,
0001
0100
0220
0330
,
1000
0001
0010
0001
,
1000
0010
0100
0001
,
0011
0000
1100
0000
,
1001
0000
0100
0100
,
0020
0000
0000
0030
,
1000
0001
2002
0000
,
0000
0000
0000
0000
,
3003
0000
0000
0000
;

//---------------dance-single - ----------------
#NOTES:
     dance-single:
     :
     Medium:
     12:
     0.549883,0.587553,0.362797,0.371645,0.053092,435.000000,394.000000,41.000000,42.000000,0.000000,0.000000,0.549883,0.587553,0.362797,0.371645,0.053092,435.000000,394.000000,41.000000,42.000000,0.000000,0.000000:
0000
0000
0000
0000
,
0000
0000
0000
0000
,
0000
0000
0000
0000
,
0000
0000
0000
0000
,
0010
1000
0100
0000
0010
0001
0100
0000
,
0001
0010
0100
1000
0001
0000
1001
0000
,
1010
0000
0011
0000
,
1000
0001
0100
0001
1000
0000
0110
0000
,
0001
0010
0001
0000
1000
0100
1000
0000
,
0001
0010
0100
1000
0010
0000
0100
0000
,
0001
1000
0001
0000
1000
0100
1000
0000
,
0010
0000
0000
0100
0010
0000
0000
0000
2002
0000
0000
0000
3003
0000
0000
0000
,
0100
0001
0100
0000
0010
1000
0010
0000
,
1000
0100
0010
0001
0100
0000
0010
0000
,
1010
0000
0011
0000
,
1000
0001
0010
0001
1000
0000
1001
0000
,
0200
0000
0310
0000
0010
1000
0100
0010
,
0000
0001
0010
0100
1000
0000
0001
0000
,
0100
0000
0000
0010
0000
0000
0100
0000
0001
0000
0010
0000
0100
0000
0000
0000
,
1000
0010
2020
3030
,
0100
0000
0001
0000
0010
0001
0100
0001
,
0000
1000
0010
0000
1000
0000
0100
0000
,
1100
0000
0001
0000
0100
0010
1000
0001
,
0200
0000
0000
0300
,
0002
0000
0013
0000
0001
0010
0100
0010
,
0000
0001
1000
0000
0010
0000
1000
0100
,
1000
0000
0000
0001
0000
0000
0100
0000
0001
0000
0010
0000
0100
0000
0000
0000
,
0010
0001
2002
3003
,
0020
0000
0130
0000
0010
1000
0100
0010
,
0001
0000
0100
0000
0001
0010
0100
0000
,
1000
0000
0001
0000
1000
0010
0100
0000
,
0202
0000
0000
0303
,
1010
0000
0001
0000
1000
0010
0100
0000
,
0011
1001
2200
3300
,
0001
0000
0101
0000
0100
0010
0100
0000
,
0001
0010
0100
0010
0002
0000
1003
0000
,
0101
0000
0010
0000
0100
0001
1000
0000
,
1100
1001
0202
0303
,
0010
0100
0010
0000
1000
0100
1000
0001
,
0100
0010
0220
0330
,
0001
0000
0011
0000
1000
0100
0010
0000
,
0100
1000
0100
0010
0200
0000
1300
0000
,
0001
0100
0010
0000
0010
0100
0001
0000
,
0010
0001
0100
0001
0020
0000
0130
0000
,
1000
0100
0001
0000
0001
0100
1000
0000
,
0001
0010
1000
0000
1000
0010
0001
0000
,
0200
0320
2030
3001
,
2002
0000
0000
3003
,
0100
0001
0010
0100
1000
0010
1000
0000
,
0001
0100
0001
1000
0100
0010
0001
0000
,
0100
0010
0100
0001
1000
0100
1000
0000
,
0001
0000
0000
0100
0001
0000
0000
0000
0022
0000
0000
0000
0033
0000
0000
0000
,
2000
0000
3100
0000
0010
0100
1000
0001
,
0100
0010
0220
0330
,
0001
0100
1000
0000
1000
0100
0001
0000
,
2002
0000
3003
0000
,
1000
0010
0100
0001
0010
0100
1000
0000
,
0010
0100
0001
1000
0100
0010
0001
0000
,
0100
0010
0100
0000
0001
0010
0001
0000
,
1000
0000
0000
0001
1000
0000
0000
0000
2200
0000
0000
0000
3300
0000
0000
0000
,
0020
0000
0130
0000
0001
0100
0010
0000
,
1000
0100
0010
0000
0010
0100
1000
0001
,
0100
0000
0000
0010
0100
0000
0000
0000
0001
0000
1000
0000
0001
0000
0000
0000
,
0010
0000
0000
0100
0000
0000
0010
0000
0001
0000
0000
0000
1001
0000
0000
0000
,
0100
0010
0100
0000
0001
0100
0001
0000
,
1000
0100
0010
0100
1000
0000
1001
0000
,
0010
1000
0010
0000
0100
0001
0100
0000
,
0001
0000
0000
0010
0001
0000
0000
0000
2002
0000
0000
0000
3003
0000
0000
0000
,
0100
0010
0100
0000
0010
1000
0010
0000
,
1000
0000
0100
0000
1000
0000
0000
0000
0001
0000
0000
0100
0001
0000
0000
0000
,
0011
0000
1010
0000
,
0001
1000
0100
0010
0001
0100
0010
0000
,
1000
0010
0100
0000
0001
0010
0100
0000
,
1000
0000
0001
0000
0010
0000
0001
0000
1000
0000
0000
0010
0100
0000
0000
0000
,
0001
0010
0001
0000
1000
0100
1000
0000
,
0010
0000
0000
1000
0001
0000
0010
0000
0100
0000
0000
0000
0110
0000
0000
0000
,
1000
0100
1000
0100
0001
0100
1000
0000
,
0001
0010
0001
0010
1000
0010
0001
0000
,
1001
0000
0110
0000
,
1100
0001
0011
1000
,
2002
0000
0000
3003
,
0100
0000
0000
0110
0000
0000
0001
0000
2002
0000
0000
0000
0000
0000
0000
0000
,
0000
0000
0000
0000
,
3003
0000
0000
0000
;

//---------------dance-single - ----------------
#NOTES:
     dance-single:
     :
     Hard:
     16:
     0.825457,0.991496,0.398191,0.247763,0.460132,653.000000,608.000000,45.000000,28.000000,0.000000,0.000000,0.825457,0.991496,0.398191,0.247763,0.460132,653.000000,608.000000,45.000000,28.000000,0.000000,0.000000:
// measure 0
0000
0000
0000
0000
,  // measure 1
0000
0000
0000
0000
,  // measure 2
0000
0000
0000
0000
,  // measure 3
0000
0000
0000
0000
,  // measure 4
1000
0100
0001
0100
1000
0001
0100
0000
,  // measure 5
0001
0100
1000
0100
0001
1000
0100
0000
,  // measure 6
1000
0000
0001
0010
0001
0000
0000
0000
1000
0000
0100
0010
0100
0000
0000
0000
,  // measure 7
1100
0101
0220
0330
,  // measure 8
0001
0000
1000
0010
1000
0000
0001
0000
1000
0000
0001
0010
0001
0000
1000
0000
,  // measure 9
0001
0000
1000
0100
1000
0000
0001
0000
0100
0000
0000
0010
0100
0000
0001
0000
,  // measure 10
1000
0000
0010
1000
0010
0000
1000
0000
0001
0000
0010
0001
0010
0000
0001
0000
,  // measure 11
1000
0000
0000
0001
0010
0000
0100
0000
1000
0000
0000
0000
1001
0000
0000
0000
,  // measure 12
0100
0000
0001
0010
0001
0000
0100
0000
0010
0000
1000
0100
1000
0000
0010
0000
,  // measure 13
0100
0000
0001
0010
0001
0000
1000
0000
0010
0000
0000
1000
0100
0000
0010
0000
,  // measure 14
0001
0000
0000
0000
1000
0000
0010
0000
0001
0000
0010
1000
0010
0000
0100
0000
,  // measure 15
0001
0000
0010
0100
1000
0000
0001
0000
0100
0000
0000
0000
0110
0000
0000
0000
,  // measure 16
2000
0000
0000
0000
3100
0000
0010
0100
1000
0000
0001
0000
0100
0000
0010
0000
,  // measure 17
0000
0000
0010
0000
1000
0000
0001
0000
0010
0000
0000
0000
0010
0000
0001
0100
,  // measure 18
0010
0000
0000
1000
0000
0000
0001
0000
0010
0000
0100
0000
1000
0000
0100
0000
,  // measure 19
0010
0000
0100
1000
0001
0000
0100
0000
0010
0000
0000
0000
1001
0000
0000
0000
,  // measure 20
0200
0000
0000
0000
0301
0000
0010
0001
1000
0000
0010
0000
1000
0000
0001
0000
,  // measure 21
0000
0001
0100
0010
2000
0000
3100
0000
,  // measure 22
0011
0000
0100
1000
0010
1000
0010
0001
,  // measure 23
0020
0000
0000
0000
0000
0000
0000
0000
0130
0000
0000
0001
0100
0000
0000
0000
,  // measure 24
1010
0000
0000
0000
0100
0000
0001
1000
0100
0000
0010
0000
0001
0000
1000
0000
,  // measure 25
0000
0000
1000
0000
0001
0000
0010
0000
0100
0000
0000
0000
0010
0000
0001
1000
,  // measure 26
0010
0000
0000
0100
0000
0000
0010
0000
1000
0000
0100
0010
0001
0000
1000
0000
,  // measure 27
0001
0000
0010
0100
1000
0000
0001
0000
0100
0000
0000
0000
0110
0000
0000
0000
,  // measure 28
0002
0000
0000
0000
0013
0000
0100
1000
0001
0000
0100
0000
0010
0000
1000
0000
,  // measure 29
0100
0010
0011
0000
1000
0010
1010
0000
,  // measure 30
0001
0100
1000
0100
0001
0010
1000
0010
,  // measure 31
0001
0100
0001
0000
1000
0010
1000
0000
0010
0000
0100
0010
1000
0000
0001
0000
,  // measure 32
1001
0000
0000
0000
1001
0000
0000
1000
0001
0000
1000
0000
1000
0000
0001
0000
,  // measure 33
1001
1000
1001
0001
2002
0000
3003
0000
,  // measure 34
0110
0000
0000
0000
0010
0000
0000
1000
0001
0000
0010
0100
1000
0000
0010
0000
,  // measure 35
1000
0000
0100
0010
0001
0000
1000
0000
0010
0000
0100
0001
1000
0000
0010
0000
,  // measure 36
0110
0000
0000
0000
0110
0000
0000
0100
0010
0000
0100
0000
0010
0000
0100
0000
,  // measure 37
0110
0010
0110
0100
0220
0000
0330
0000
,  // measure 38
1000
0000
0001
0000
0010
0000
0000
0100
1000
0000
0010
0000
0100
0000
0001
0000
,  // measure 39
0010
0000
0100
1000
0100
0000
1000
0000
0002
0000
0100
0000
0103
0000
0000
0000
,  // measure 40
0011
0000
0000
0000
0011
0000
0000
0001
1000
0000
0010
0000
1010
0000
1000
0000
,  // measure 41
0010
1000
0000
0010
1010
0000
0011
0000
,  // measure 42
0100
0000
0010
0000
1000
0000
0000
0001
1000
0000
0100
0000
0010
0000
0001
0000
,  // measure 43
0100
0000
0001
0010
0100
0000
1000
0000
0001
0000
1000
0000
0110
0000
0000
0000
,  // measure 44
1000
0010
0001
1000
0001
0010
1000
0001
,  // measure 45
0100
1000
0010
0001
0100
0010
1001
0000
,  // measure 46
0100
0000
0000
0100
1000
0000
0000
1000
0010
0000
0000
0010
0001
0000
0000
0000
,  // measure 47
2002
0000
3003
0000
0000
0010
0010
0000
,  // measure 48
1000
0000
0001
0000
0010
0100
0010
0100
1000
0000
0001
0000
0100
0000
0000
0000
,  // measure 49
0010
0000
1000
0000
0001
0010
0001
0010
0100
0000
1000
0000
0010
0000
0000
0000
,  // measure 50
1000
0000
0001
0000
0010
0001
1000
0000
0001
0000
0100
0000
0001
1000
0100
0000
,  // measure 51
0010
0000
0000
0001
1000
0000
0010
0000
0100
0000
0001
0000
1001
0000
0000
0000
,  // measure 52
0200
0000
0000
0000
0301
0000
0010
0100
1000
0000
0010
1000
0100
0000
0010
0000
,  // measure 53
0001
0000
1000
0100
1000
0000
0010
0000
0100
0000
0000
0000
0101
0000
0000
0000
,  // measure 54
0020
1030
0002
0013
2000
3100
0020
0031
,  // measure 55
1000
0000
0000
0001
0000
0000
0100
0000
0220
0000
0000
0000
0330
0000
0000
0000
,  // measure 56
0001
0000
0100
0000
0010
1000
0010
1000
0001
0000
0010
0000
0011
0000
0000
0000
,  // measure 57
1000
0000
0001
0000
0010
0100
0010
0100
1000
0000
0010
0000
1010
0000
0000
0000
,  // measure 58
0100
0000
0001
0000
0010
0001
1000
0000
0010
0000
1000
0000
0001
0100
0010
0000
,  // measure 59
1000
0000
0000
0011
0000
0000
0100
0000
0001
0000
0010
0100
1000
0000
0010
0000
,  // measure 60
0200
0000
0000
0000
0301
0000
1000
0010
0100
0000
0001
0010
0100
0000
1000
0000
,  // measure 61
0001
0000
0100
0010
0100
0000
0001
0000
1000
0000
0000
0000
0010
0000
1000
0100
,  // measure 62
0010
0000
0000
1100
0000
0000
0001
0000
0100
0000
0010
0000
0100
0000
0001
0000
,  // measure 63
1000
0000
0000
1100
0000
0000
0001
0000
2002
0000
0000
0000
3003
0000
0000
0000
,  // measure 64
0100
0000
0001
0010
0100
0000
1000
0000
0010
0000
1000
0100
0010
0000
0001
0000
,  // measure 65
0100
0000
0001
0010
0100
0000
1000
0000
0001
0000
0000
1000
0100
0000
0010
0000
,  // measure 66
0001
0000
1000
0100
1000
0000
0001
0000
1000
0000
0001
0010
0001
0000
1000
0000
,  // measure 67
0010
0000
0000
0100
0001
0000
0010
0000
0100
0000
0000
0000
1001
0000
0000
0000
,  // measure 68
0100
0000
0001
1000
0100
0000
1000
0000
0001
0000
1000
0001
0100
0000
0010
0000
,  // measure 69
1000
0000
0100
0010
0001
0000
1000
0000
0001
0000
0000
0010
0100
0000
1000
0000
,  // measure 70
0001
0000
0010
0001
0010
0000
0100
0000
1000
0000
0010
0100
0010
0000
1000
0000
,  // measure 71
0001
0000
1000
0100
0010
0000
0001
0000
2002
0000
0000
0000
3003
0000
0000
0000
,  // measure 72
0010
0000
0100
1000
0100
0000
0010
0000
0001
0000
1000
0010
1000
0000
0001
0000
,  // measure 73
0100
0000
0001
0010
0001
0000
1000
0000
0001
0000
0000
0010
0100
0000
1000
0000
,  // measure 74
0001
0000
0100
0010
0100
0000
0001
0000
1000
0000
0001
0010
0001
0000
1000
0000
,  // measure 75
0010
0000
0000
0100
0010
0000
1000
0000
0001
0000
0000
0000
0011
0000
0000
0000
,  // measure 76
0100
0000
0001
1000
0010
0000
0100
0000
0001
0000
1000
0100
0010
0000
0001
0000
,  // measure 77
1000
0000
0010
0100
0001
0000
0010
0000
0001
0000
0000
1000
0010
0000
1000
0000
,  // measure 78
0001
0000
1100
0000
0001
0010
1000
0010
,  // measure 79
0001
0000
1000
0000
0001
0000
1000
0000
0010
0000
0100
0001
0010
0000
0100
0000
,  // measure 80
1000
0001
1000
0001
1000
0001
1000
0001
0100
0010
0100
0010
0100
0010
0100
0010
,  // measure 81
0100
0000
0000
1001
0000
0000
0010
0000
2002
0000
0000
0000
0000
0000
0000
0000
,  // measure 82
0000
0000
0000
0000
,  // measure 83
3003
0000
0000
0000
;
