#TITLE:朱と碧のランページ;
#SUBTITLE:;
#ARTIST:NU-KO;
#TITLETRANSLIT:Aka to ao no rampage;
#SUBTITLETRANSLIT:;
#ARTISTTRANSLIT:;
#GENRE:ANIMA SONG;
#CREDIT:;
#BANNER:Aka to ao no rampage_banner.png;
#BACKGROUND:Aka to ao no rampage.png;
#LYRICSPATH:;
#CDTITLE:;
#MUSIC:Aka to ao no rampage.ogg;
#OFFSET:-0.300000;
#SAMPLESTART:52.200001;
#SAMPLELENGTH:16.799999;
#LASTBEATHINT:348.000000;
#SELECTABLE:YES;
#BPMS:0.000000=178.000000
,268.000000=89.000000
,284.000000=178.000000
;
#STOPS:
;
#BGCHANGES:;
#KEYSOUNDS:;
#ATTACKS:;

//---------------dance-single - ----------------
#NOTES:
     dance-single:
     :
     Easy:
     7:
     0.265651,0.335809,0.087043,0.205739,0.000000,235.000000,224.000000,11.000000,26.000000,0.000000,0.000000,0.265651,0.335809,0.087043,0.205739,0.000000,235.000000,224.000000,11.000000,26.000000,0.000000,0.000000:
0000
0000
0000
0000
,
0000
0000
0000
0000
,
0000
0000
0000
0000
,
1000
0000
0000
0001
0000
0000
1000
0000
,
0000
0010
0000
0000
0100
0000
0010
0000
,
0100
0000
0000
0001
0000
0000
1000
0000
,
0000
0010
0000
0000
1000
0000
0000
0000
,
0200
0000
0000
0300
,
2000
0000
3010
0000
,
0002
0000
0000
0000
,
0013
0000
0000
0000
,
0100
0000
0010
0000
,
1000
0000
0001
0000
,
0010
0000
0001
0000
,
2002
0000
3003
0000
,
0010
1000
0010
1000
,
0001
0100
0001
0100
,
0002
0000
0013
0000
,
2000
0000
3010
0000
,
0100
0000
0001
0010
,
0001
0000
1000
0100
,
1000
0000
0000
0010
0000
0000
0100
0000
,
0220
0000
0330
0000
,
0001
0100
0010
0100
,
0001
0000
0100
0010
,
1000
0100
0010
0100
,
1000
0000
0001
0000
,
0100
0010
1000
0001
,
2000
0000
3100
0000
,
0010
0000
0000
0001
0000
0100
0000
2000
,
0000
0000
3100
0000
,
0010
0100
0001
0010
,
0001
0000
1000
0010
,
0200
0000
0301
0010
,
0001
0000
1010
0000
,
0100
0001
0010
0001
,
1000
0100
1000
0010
,
0100
0000
0000
0010
0000
0000
0100
0000
,
0000
0010
0000
0000
0000
0000
0000
0000
,
1000
0001
0010
0001
,
0100
0010
0001
0000
,
0010
1000
0100
0001
,
0020
0000
0030
0000
,
1000
0100
1000
0000
,
0001
0100
0001
0000
,
0100
0010
0100
0000
,
0220
0330
0000
0000
,
0010
1000
0010
0100
,
0001
0010
1000
0000
,
0010
0001
0010
1000
,
0100
0000
0110
0000
,
0001
0010
0001
0000
,
1000
0100
1000
0000
,
0010
1000
0001
0100
,
0220
0000
0330
0000
,
0001
0000
0000
1000
0000
0000
0000
0010
,
0000
0100
0000
0010
0000
0000
0000
0000
,
0100
0000
0000
1000
0000
0001
0000
2002
,
0000
0000
0000
3003
,
0010
0100
0010
1000
,
0010
0100
0010
0000
,
0100
0001
0100
0010
,
0100
0001
0100
0000
,
0001
0010
0100
1000
,
0010
0100
0001
0010
,
0100
0000
0000
0001
0000
0000
1000
0000
,
0000
0010
0000
0000
0000
0000
0000
0000
,
0200
0000
0000
0300
0002
0000
0000
0003
,
0020
0000
0000
0030
2000
0000
0000
3000
,
0001
0001
1000
1000
,
0010
0010
0100
0110
,
1000
0010
0100
0001
,
0010
0000
1001
0000
,
0010
1000
0100
1000
,
0001
0000
0101
0000
,
0010
1000
0100
0000
,
0010
0001
0100
0000
,
0010
1000
0100
0010
,
0220
0000
0330
0000
,
1000
0000
0000
0001
0000
0000
0000
0100
,
0000
0010
0000
0100
0000
0000
0000
0000
,
0010
0000
0000
1000
0000
0001
0000
0200
,
0000
0000
0000
0300
,
0010
0000
0000
1000
0000
0000
0100
0000
,
0000
1000
0000
0000
0001
0000
0000
0010
;

//---------------dance-single - ----------------
#NOTES:
     dance-single:
     :
     Medium:
     11:
     0.491738,0.654011,0.237391,0.284869,0.059348,435.000000,405.000000,30.000000,36.000000,0.000000,0.000000,0.491738,0.654011,0.237391,0.284869,0.059348,435.000000,405.000000,30.000000,36.000000,0.000000,0.000000:
0000
0000
0000
0000
,
0000
0000
0000
0000
,
0000
0000
0000
0000
,
0010
0001
0000
1000
0100
0000
1000
0010
,
0000
0100
0001
0000
1000
0000
1001
0000
,
0010
0100
0000
0001
1000
0000
0100
0010
,
0000
0001
1000
0000
0001
0100
0010
0000
,
2000
0000
0000
0000
3010
0100
0001
0100
,
0010
1000
0001
0010
,
1001
0000
0100
0020
0000
0000
0000
0000
,
1030
0000
0000
0000
0100
0010
1000
0010
,
0100
0000
0001
0000
0010
0001
1000
0001
,
0010
0000
0000
0001
0000
0000
1000
0000
,
0010
0000
0100
0010
0000
0010
0100
0000
,
0220
0000
0330
0000
,
0100
0000
0010
0000
1000
0100
0010
0001
,
0100
0000
0010
0000
1000
0001
1000
0000
,
0001
0000
0010
0200
0000
0000
0000
0000
,
0310
0000
0001
0000
1000
0010
0100
0001
,
0010
0000
0001
0000
1000
0100
0010
0000
,
0100
0000
1000
0001
0000
0100
0010
0000
,
1000
0000
0010
1000
0000
0001
0100
0000
,
0001
0010
0100
1000
0010
0100
0001
0000
,
0010
0000
0001
1000
0000
1000
0010
0000
,
0100
0000
0010
1000
0001
0100
0010
0000
,
1000
0000
0010
0100
0000
0100
0010
0000
,
1000
0001
0010
0100
0010
0001
1000
0000
,
0010
0000
0100
0001
0000
0001
1000
0000
,
0020
0000
0000
0100
0130
0000
0000
0000
,
0100
0001
0010
1000
0000
0001
0000
0220
,
0000
0330
0000
0000
0100
0010
0100
0000
,
1000
0000
0001
0100
0000
0010
1000
0000
,
0002
0000
0000
0000
0013
0100
1000
0000
,
0010
0000
0100
0001
0000
1000
0010
0000
,
0100
0001
1000
0010
0100
0000
0001
0000
,
0010
0001
1000
0001
0000
1000
0010
0100
,
0000
0010
0100
0001
1000
0000
0001
0000
,
1010
0000
0000
0101
0000
0000
1001
0000
,
0000
0110
0000
0000
0020
0000
0031
0000
,
1000
0000
1001
0000
0010
0100
0010
0000
,
1000
0000
0000
0001
0000
0000
0010
0000
0200
0000
0000
0000
1300
0000
0000
0000
,
0010
0000
0000
0000
0100
0000
0000
0000
0010
0000
0000
1000
0000
0000
0100
0000
,
2000
0000
3001
0010
,
0001
0000
0000
0100
0000
0000
0010
0000
2000
0000
0000
0000
3100
0000
0000
0000
,
1000
0000
0000
0010
0000
0000
0100
0000
0002
0000
0000
0000
0013
0000
0000
0000
,
0001
0000
0000
0100
0000
0000
1000
0000
0100
0000
0000
0000
0010
0000
0000
0000
,
0220
0330
1000
0010
,
0100
0000
0000
0000
0101
0000
0000
0000
0001
0000
0000
1000
0000
0000
0010
0000
,
1000
0000
0000
0001
0000
0000
0100
0000
0020
0000
0000
0000
1030
0000
0001
0000
,
0010
0000
1010
0000
0100
0001
1000
0010
,
0200
0000
0301
0010
0200
0000
1300
0000
,
1000
0000
0000
0010
0000
0000
0100
0000
0001
0000
0100
0000
0001
0000
0010
0000
,
0000
0001
1000
0100
0010
0100
0000
1000
,
0001
0000
0000
1000
0000
0000
0001
0000
0100
0000
0000
0000
0010
0000
0000
0000
,
0220
0000
0330
0000
,
0001
0001
0000
1000
0000
1010
0000
0100
,
0000
0010
0000
0101
0000
1000
1000
0000
,
0010
0100
0001
1000
0000
0100
0000
0220
,
0000
0000
0000
0330
,
0001
0010
0100
0010
0001
0000
1000
0000
,
0010
0100
1000
0100
0010
0000
1000
0000
,
0010
0100
0010
0100
0001
1000
0001
1000
,
0001
0000
0100
0000
0010
1000
0100
0000
,
1000
0100
0010
0001
0000
1000
0010
0100
,
0000
0001
0010
0100
2000
0000
3001
0000
,
0110
0000
0000
1001
0000
0000
0101
0000
,
0000
1010
0000
0000
0100
0000
0100
0000
,
0001
0010
0100
1000
0002
0000
0013
0000
,
0100
1000
0010
0100
2002
0000
3003
0000
,
0010
0000
0100
0000
0010
0100
0010
0000
1000
0000
0001
0000
1000
0001
1000
0000
,
0001
0010
0100
1000
1001
0000
0010
0100
,
0001
0000
1000
0000
0100
0000
0000
0000
1000
0000
0000
0010
0000
0000
0100
0000
,
0001
0000
0000
0010
0000
0000
0100
0000
2000
0000
0000
0000
3010
0000
0100
0000
,
0001
0000
1001
0000
0010
0100
0000
0100
,
0020
0000
1030
0100
0020
0000
0031
0000
,
0001
0000
0000
1000
0000
0000
0100
0000
1000
0000
0010
0000
0000
0000
0110
0000
,
0000
0100
0001
0010
0100
1000
0000
0001
,
0100
0000
0000
0010
0000
0000
0100
0000
0001
0000
0000
0000
1000
0000
0000
0000
,
2002
0000
3003
0000
,
0010
0010
0100
0010
0000
1010
0000
0100
,
0000
0011
0000
1100
0000
0100
0100
0000
,
1000
0001
0100
0010
0000
1000
0000
0202
,
0000
0000
0303
0000
,
0010
1000
0100
1000
0001
0010
0100
0000
,
1000
0001
0000
0001
0010
0100
0000
2002
,
0000
0000
0000
0000
,
0000
0000
0000
0000
,
3003
0000
0000
0000
;

//---------------dance-single - ----------------
#NOTES:
     dance-single:
     :
     Hard:
     15:
     0.746085,0.929384,0.458955,0.205739,0.280912,660.000000,602.000000,58.000000,26.000000,0.000000,0.000000,0.746085,0.929384,0.458955,0.205739,0.280912,660.000000,602.000000,58.000000,26.000000,0.000000,0.000000:
// measure 0
0000
0000
0000
0000
,  // measure 1
0000
0000
0000
0000
,  // measure 2
0000
0000
0000
0000
,  // measure 3
1000
0010
0100
0001
0010
0100
1000
0010
,  // measure 4
0100
0001
0010
0100
1000
0000
0101
0000
,  // measure 5
0010
1000
0100
0010
0001
0100
0010
1000
,  // measure 6
0100
1000
0010
0001
0100
0010
1000
0001
,  // measure 7
0200
0000
0010
0000
0310
1000
0001
0010
,  // measure 8
0002
0103
2010
3100
,  // measure 9
0110
0000
1000
0002
0000
0000
0010
0000
,  // measure 10
1003
0010
0100
0010
1000
0100
0001
0100
,  // measure 11
0010
0000
0001
0010
0000
0001
1000
0100
,  // measure 12
1000
0000
0010
1000
0000
0010
0100
0001
,  // measure 13
0010
0001
0100
1000
0100
0010
0001
0010
,  // measure 14
1000
0000
0001
0000
1000
0000
0001
0000
0100
0010
0100
0010
0100
0000
0000
0000
,  // measure 15
0001
0010
0100
0010
0001
1000
0100
0010
,  // measure 16
0100
1000
0010
0100
0001
0010
1000
0001
,  // measure 17
0100
1000
0001
1000
0010
0001
1000
0100
,  // measure 18
0001
0010
0100
1000
0001
1000
1001
0000
,  // measure 19
0100
0010
1000
0010
0100
0001
0010
0100
,  // measure 20
1000
0010
1000
0010
0100
0001
0100
0001
,  // measure 21
0010
0001
1000
1001
0000
0110
0000
0001
,  // measure 22
1000
0000
0010
0000
0100
0000
0010
0000
1000
0001
1000
0001
1000
0000
0010
0000
,  // measure 23
0100
0000
0001
0000
0010
0000
0001
1000
0001
0000
0100
0000
0010
0000
1000
0000
,  // measure 24
0001
0000
0010
0000
0001
0000
1000
0010
0100
0000
0010
0000
1000
0000
0001
0000
,  // measure 25
0010
0000
0001
0000
1000
0000
0100
1000
0001
0000
1000
0000
0010
0000
0100
0000
,  // measure 26
0001
0000
0100
0000
0010
0000
1000
0100
1000
0000
0001
0000
0010
0000
0100
0000
,  // measure 27
1000
0000
0001
0000
0100
0000
0001
0010
0001
0000
1000
0000
0010
0000
0100
0000
,  // measure 28
0010
1000
0100
0001
0010
0100
1001
0000
,  // measure 29
0001
0100
1000
0011
0000
1100
0000
0120
,  // measure 30
0000
0100
0130
0001
1000
0010
0100
0010
,  // measure 31
1000
0000
0001
0000
0010
0000
0100
1000
0100
0000
1000
0000
0001
0000
0100
0000
,  // measure 32
0010
0000
1000
0000
0100
0000
0010
0001
0010
0000
0001
0000
0100
0000
0000
0000
,  // measure 33
0120
0000
1030
0001
1000
0010
0100
0010
,  // measure 34
0000
1010
0100
0001
0010
0100
2000
0000
,  // measure 35
3001
0010
0001
0011
0000
1000
0100
1100
,  // measure 36
0000
1000
0001
0000
0110
0000
1001
0000
,  // measure 37
0011
0000
0000
1100
0000
0000
0110
0000
,  // measure 38
0000
0000
2002
0000
0000
0000
3003
0000
0000
0000
0100
0010
0100
0000
0000
0000
,  // measure 39
0010
0000
1000
0000
0001
0000
1000
0100
0000
1000
0010
0000
0100
0000
0001
0000
,  // measure 40
0010
0000
0001
0100
0000
0001
1000
0000
0010
0000
0100
0000
0010
0000
1000
0001
,  // measure 41
1000
0000
0001
0000
0010
0000
0100
0000
1000
0001
0000
1000
0001
0000
0010
0000
,  // measure 42
0200
1000
1000
1300
0001
0010
0011
0000
,  // measure 43
1000
0100
0000
1000
0100
0000
0010
0000
0001
0000
0100
0000
0101
0000
0000
0000
,  // measure 44
0010
1000
0000
0010
1000
0000
0001
0000
0010
0000
0100
0000
1100
0000
0000
0000
,  // measure 45
0010
0001
0100
0010
1000
0001
1000
0100
,  // measure 46
0010
0000
0001
0000
1000
0000
0001
0000
1000
0010
1000
0000
0001
0100
0001
0000
,  // measure 47
0100
0000
0010
0000
1000
0000
0001
0000
0010
0001
0000
1000
0100
0000
1000
0000
,  // measure 48
0001
0010
0000
0001
0100
0000
0010
0000
1000
0000
0000
0001
0000
0000
1000
0001
,  // measure 49
1000
0010
0110
0000
0100
0001
0000
1001
,  // measure 50
1000
0000
0010
0000
0100
0000
0001
0000
1000
0001
1000
0001
2000
0000
0000
0000
,  // measure 51
3010
0000
0100
0000
0001
0000
0010
0000
0001
1000
0000
0100
1000
0000
0010
0000
,  // measure 52
0000
0010
0100
0001
0010
0100
0000
0100
,  // measure 53
1000
0000
0000
0001
0000
0000
1000
0000
0010
0100
0000
0010
0100
0000
0010
0000
,  // measure 54
2000
0001
0001
3001
0010
0000
0110
0000
,  // measure 55
1010
1010
0000
0011
0000
0011
0000
0110
,  // measure 56
0000
1001
0000
0110
0000
0010
0200
0000
,  // measure 57
0301
0010
1000
0010
0000
1100
0000
0022
,  // measure 58
0000
0000
0000
0033
,  // measure 59
1000
0010
0100
0010
1000
0010
0100
0010
,  // measure 60
1000
0001
1000
0010
1000
0001
1000
0010
,  // measure 61
0100
0001
0100
0000
0010
1000
0010
0000
0100
0001
0100
0000
0010
1000
0010
0000
,  // measure 62
1000
0001
1000
0000
0010
0100
0010
0000
1000
0001
1000
0000
0010
0100
0010
0000
,  // measure 63
0100
0001
0010
0011
0000
0100
0010
1010
,  // measure 64
0000
1000
0001
0100
1000
0100
0001
0000
,  // measure 65
0110
0000
0000
1010
0000
0000
0011
0000
,  // measure 66
0000
1001
0000
0000
0010
0000
0010
0000
,  // measure 67
0020
0000
0000
0000
0000
0000
1000
0000
0000
0000
0000
0000
0100
0000
0000
0000
0000
0000
1000
0000
0000
0000
0000
0000
0130
0000
0000
0000
0001
0000
0000
0000
0000
0001
0000
0000
0010
0000
0000
0100
0000
0000
1000
0000
0000
0010
0000
0000
,  // measure 68
0100
0000
0000
0000
0000
0000
0110
0000
0000
0000
0000
0000
1000
0000
0000
0000
0001
0000
0000
0000
0000
1000
0000
0000
0200
0000
0000
0000
0000
0000
0010
0000
0000
0000
0000
0000
2300
0000
0000
0000
0000
0000
0001
0000
0000
0000
0000
0000
,  // measure 69
3010
0100
0010
1000
0001
0010
0100
0000
0010
0100
1000
0001
0100
0010
0100
0000
,  // measure 70
0001
0010
0100
1000
0001
0000
0110
0000
2001
0000
0000
0000
3100
0000
0100
0000
,  // measure 71
0010
0000
0001
0000
1000
0000
0010
0000
0100
0001
0000
1000
0010
0000
0100
0000
,  // measure 72
0010
1000
0000
0001
0100
0000
0010
0000
1000
0000
0000
1001
0000
0000
0010
0100
,  // measure 73
0010
0000
1001
0000
0100
0010
0000
1000
,  // measure 74
0001
0000
0010
0000
0001
0000
1000
0100
1000
0000
0010
0000
0200
0000
0000
0000
,  // measure 75
0301
0000
0010
0000
0001
0000
1000
0000
0010
0100
0010
0000
1000
0000
0001
0000
,  // measure 76
0000
0001
0100
0010
1000
0200
0000
0310
,  // measure 77
0100
0000
0000
1100
0000
0000
0001
0000
1000
0000
0000
0000
0110
0000
0000
0000
,  // measure 78
1000
0000
0001
0000
0010
0000
0100
0000
1000
0001
1000
0001
0020
0000
0000
0000
,  // measure 79
0031
0101
0100
1100
0000
1001
0000
0110
,  // measure 80
0010
0110
0000
1002
0000
0103
0100
0000
,  // measure 81
0010
1000
0001
0101
0000
0011
0000
2100
,  // measure 82
0000
0001
0001
0001
0001
0000
3010
0000
,  // measure 83
0100
0010
1000
0001
0100
0010
1000
0010
,  // measure 84
0001
1000
0100
0001
0010
0100
0000
2002
,  // measure 85
0000
0000
0000
0000
,  // measure 86
0000
0000
0000
0000
,  // measure 87
3003
0000
0000
0000
;
