#TITLE:Ah Hah Yeah;
#SUBTITLE:;
#ARTIST:Masayoshi Iimori;
#TITLETRANSLIT:;
#SUBTITLETRANSLIT:;
#ARTISTTRANSLIT:;
#GENRE:UPTEMPO RAW;
#CREDIT:;
#BANNER:Ah Hah Yeah_banner.png;
#BACKGROUND:Ah Hah Yeah.png;
#LYRICSPATH:;
#CDTITLE:;
#MUSIC:Ah Hah Yeah.ogg;
#OFFSET:-0.570000;
#SAMPLESTART:33.959999;
#SAMPLELENGTH:12.000000;
#SELECTABLE:YES;
#DISPLAYBPM:115.000000:230.000000;
#BPMS:0.000000=115.000000
,64.000000=230.000000
,128.000000=115.000000
,174.000000=57.500000
,175.000000=115.000000
,191.000000=230.000000
;
#STOPS:235.000000=0.130000,
235.500000=0.130000,
236.000000=0.130000,
236.500000=0.130000
;
#BGCHANGES:;
#KEYSOUNDS:;
#ATTACKS:;

//---------------dance-single - ----------------
#NOTES:
     dance-single:
     :
     Easy:
     8:
     0.312733,0.315921,0.065768,0.122140,0.000000,233.000000,226.000000,7.000000,13.000000,0.000000,0.000000,0.312733,0.315921,0.065768,0.122140,0.000000,233.000000,226.000000,7.000000,13.000000,0.000000,0.000000:
0000
0000
0000
0000
,
0000
0000
0000
0000
,
1000
0001
1000
0001
,
0010
0100
0010
0100
,
1000
0010
1000
0010
,
0100
0001
0100
0001
,
0010
0100
0010
0100
,
1000
0001
0100
0010
,
1010
0010
0010
0010
,
0100
0100
0100
0100
,
0001
0001
0001
0001
,
1000
1000
2000
3000
,
0001
0010
0100
1000
,
0001
0010
0100
1000
,
0010
0100
0001
1000
,
0001
0000
0001
0000
0200
0000
0000
0300
,
0010
1000
0000
1000
,
0010
0100
0001
0000
,
0010
0001
0000
0001
,
1000
0100
1000
0000
,
0010
0100
0000
0100
,
0001
1000
0001
0000
,
0010
0100
0000
0100
,
0010
0001
1001
0000
,
0100
0100
0100
0100
,
0010
0010
0010
0010
,
1000
0001
1000
0001
,
0100
0010
0200
0000
,
0301
0010
0100
1000
,
0001
0100
0000
0100
,
0010
0000
1010
0000
,
0001
0000
0101
0000
,
1000
0010
0100
0010
,
1000
0001
0010
0001
,
1000
0100
0010
0001
,
0100
0010
1000
0002
,
0013
0001
1000
0010
,
0100
0001
1000
0100
,
1000
0001
0100
0010
,
2000
0000
3002
0000
,
0103
0100
0100
0100
,
0010
0010
0010
0010
,
1000
1000
1000
1000
,
0001
0001
0002
0103
,
0010
0100
0010
1000
,
0001
1000
0001
0010
,
0100
1000
0001
0100
,
0010
0000
2002
0000
0000
3003
0010
0000
,
0100
1000
0001
0010
,
0001
1000
0000
0010
,
0100
0010
0100
0002
,
0000
0000
0003
1000
,
0100
0000
1000
0001
,
0010
0000
0001
1000
,
0001
0000
0100
0010
,
1000
0001
0010
0100
,
1000
0000
0000
1000
0100
0000
0010
0000
,
0001
0000
0000
0001
0010
0000
0001
0000
,
1000
0000
0000
0001
1000
0000
0020
0000
,
0000
0030
0100
0000
0001
0000
0100
0000
,
0010
1000
0010
2000
,
0000
3001
0010
0100
,
0010
0001
0000
1001
,
0000
0000
0010
0000
0000
0010
0000
0000
,
0010
0000
0100
0000
0000
0100
0000
0000
,
0100
0002
0000
1003
,
0000
0010
0000
0100
,
0000
1001
0000
0000
;

//---------------dance-single - ----------------
#NOTES:
     dance-single:
     :
     Medium:
     12:
     0.528827,0.568657,0.300653,0.093954,0.046977,394.000000,362.000000,32.000000,10.000000,0.000000,0.000000,0.528827,0.568657,0.300653,0.093954,0.046977,394.000000,362.000000,32.000000,10.000000,0.000000,0.000000:
0000
0000
0000
0000
,
0000
0000
0000
0000
,
0100
0010
1000
0001
0010
0100
0010
0000
,
0001
0100
0010
1000
0100
0010
0001
0000
,
1001
1000
0010
0100
0010
1000
0001
0000
,
0010
0100
1000
0001
0010
0100
0010
0000
,
0100
1000
0001
0100
0010
1000
0001
0000
,
0100
0010
1000
0001
0010
0100
1000
0000
,
0011
0011
0101
0101
,
1001
1001
1100
1100
,
1010
1010
0011
0011
,
1001
1001
0110
0110
,
1000
0010
1000
0010
0100
0001
0010
0000
,
0001
0010
0001
0010
0100
1000
0001
0000
,
1000
0001
0010
1000
0010
0001
2000
0000
,
3001
0100
1000
0100
0002
0000
0000
0003
,
1010
0100
0100
0100
,
0001
0000
0001
1000
0001
1000
0001
0000
,
0010
0010
0010
0010
,
0100
0000
1000
0100
0010
0001
1000
0000
,
0010
0100
0010
0100
,
0001
0000
1000
0100
1000
0001
0010
0000
,
0001
1000
0001
0100
,
0010
0000
0100
0010
0100
0010
0100
0000
,
0001
0010
0001
1000
,
0100
0000
1000
0000
0010
1000
0001
0100
,
0010
1000
0100
0010
,
0001
0000
1001
0000
0100
0010
0100
0000
,
0010
1000
0100
1000
,
0001
0000
0010
0010
0000
0100
0100
0000
,
1000
0001
1000
0100
,
0010
0001
0200
0000
,
0310
1000
0010
0000
0100
0001
0010
0000
,
0001
1000
0010
0100
0001
0010
0100
0000
,
1000
0001
0100
0010
1000
0100
0010
0000
,
0100
0010
0001
1000
0010
0100
0210
0000
,
0301
1000
0000
1000
0100
0010
0001
0000
,
1000
0001
0000
0001
1000
0010
0100
0001
,
0010
0000
0000
0010
0000
0000
0010
0000
0100
0000
1000
0000
0100
0000
0010
0000
,
0001
0000
0000
0011
0000
0000
0001
0000
1000
0000
0000
1100
0000
0000
1000
0000
,
0010
0000
0000
0110
0000
0000
0100
0000
0001
0000
0000
0011
0000
0000
0010
0000
,
0100
0000
0000
1100
0000
0000
1000
0000
0010
0000
0000
0110
0000
0000
0100
0000
,
0001
0000
0000
1001
0000
0000
1000
0000
0010
0000
0000
0110
0000
0000
0100
0000
,
0001
0000
0000
1100
0000
0000
0001
0000
0200
0000
0010
0000
0301
0000
1000
0000
,
0010
1000
0001
1000
0100
0000
0010
0100
,
0010
0001
0010
0100
1000
0000
0010
0100
,
0001
1000
0100
0010
0001
0000
1000
0001
,
1000
0001
0220
0000
0000
0330
0001
0000
,
0010
0001
1000
0100
,
0010
0100
1000
0001
,
1000
0010
0100
0001
1000
0010
0200
0000
,
0000
0000
0300
0001
,
0010
0001
1000
0001
0010
0000
0100
0000
,
1000
0001
0100
0001
1000
0000
0010
0000
,
0100
0001
0010
0001
0100
0000
0001
0000
,
1000
0001
0000
1000
0001
0000
0011
0000
,
0001
1000
0100
0010
0100
0000
1000
0000
,
0010
1000
0001
1000
0010
0000
0100
0000
,
0001
1000
0100
0010
0001
0000
1000
1000
,
1000
1000
0001
0000
0100
0000
0001
0000
,
0100
0001
0010
0001
,
1000
0100
0010
0000
0100
0000
1000
0000
,
0001
0000
0200
0000
0310
0000
1000
0001
,
1000
0001
0010
0000
0100
1000
0000
0001
,
0010
0000
0001
0000
1000
0001
0100
0010
,
1000
0020
0100
0100
,
0030
0000
1000
0000
0001
0010
0100
0010
,
0100
1001
0000
0000
;

//---------------dance-single - ----------------
#NOTES:
     dance-single:
     :
     Hard:
     17:
     0.889879,1.105722,0.620097,0.122140,0.638888,663.000000,597.000000,66.000000,13.000000,0.000000,0.000000,0.889879,1.105722,0.620097,0.122140,0.638888,663.000000,597.000000,66.000000,13.000000,0.000000,0.000000:
// measure 0
0000
0000
0000
0000
,  // measure 1
0000
0000
0000
0000
,  // measure 2
1100
0000
0001
0010
0001
0000
1000
0000
0010
0100
0001
0000
1000
0001
0010
0100
,  // measure 3
1000
0000
0000
0000
0100
0000
0010
0000
0001
0000
0000
0000
1000
0000
0000
0000
0001
0100
0001
0100
0010
0000
0000
0000
2000
0000
0000
0000
0000
0000
0000
0000
,  // measure 4
3010
0000
0100
0001
0100
0000
0001
0000
1000
0100
0010
0000
0001
1000
0010
0100
,  // measure 5
0010
0000
1000
0001
0010
0000
0100
0000
1000
0001
0100
0000
0010
0100
0010
0100
,  // measure 6
0001
0000
1000
0100
0010
0000
0100
0000
1000
0001
0010
0000
0001
1000
0100
0010
,  // measure 7
0001
0000
0000
0000
0100
0000
0010
0000
0100
0000
0000
0000
1001
0000
0000
0000
0001
0010
0100
1000
0010
0000
0000
0000
0100
0000
0000
0000
0000
0000
0000
0000
,  // measure 8
0011
0001
0011
0001
0011
0001
0011
0010
,  // measure 9
0110
0100
0110
0100
0110
0100
0110
0100
,  // measure 10
1100
1000
1100
0100
1100
1000
1010
0010
,  // measure 11
0110
0100
0101
0001
1001
1000
1100
0010
,  // measure 12
0011
0010
1010
0010
0011
0010
1010
0010
,  // measure 13
0011
0001
1001
0001
0101
0001
1001
1000
,  // measure 14
0010
0100
0010
0100
0001
1000
0001
1000
0100
1000
0100
1000
0001
0010
0001
0010
,  // measure 15
0001
0100
0001
0100
0010
1000
0010
1000
0100
0000
0010
0000
0100
0000
0000
0000
0010
0000
0010
0000
0010
0000
0010
0000
0000
0000
0000
0000
0110
0000
0000
0000
,  // measure 16
1100
0000
0101
0000
0001
0010
0001
1000
,  // measure 17
0100
0000
0010
0000
0100
0000
1000
0000
0001
1000
0001
0000
0010
0000
0100
0000
,  // measure 18
1000
0010
0100
0010
1000
0100
0001
0100
,  // measure 19
1000
0001
1000
0000
0010
0000
0100
0000
0001
0000
0010
0000
0100
0000
1000
0000
,  // measure 20
0001
0010
0001
1000
0100
0010
0100
1000
,  // measure 21
0010
0000
0100
0000
0001
0000
1000
0000
0001
0010
0100
0000
1000
0000
0010
0000
,  // measure 22
0100
0001
1000
0010
1000
0001
0010
0100
,  // measure 23
0010
0000
0001
0000
1000
0100
0010
0000
0001
0000
0100
0000
0010
0000
0100
0000
,  // measure 24
0010
1000
0010
1000
0001
0100
0001
0100
,  // measure 25
0001
0010
0001
0010
0100
1000
0100
1000
,  // measure 26
0001
0100
0010
1000
0100
0010
0100
1000
,  // measure 27
0010
0000
0000
0000
0110
0000
0000
0000
1000
0001
1000
0001
0010
0000
0000
0000
,  // measure 28
1100
0000
0001
0010
0001
1000
0010
0100
,  // measure 29
0002
0000
1003
0100
0001
0100
1000
0010
,  // measure 30
0200
0302
2003
3010
,  // measure 31
0110
0000
0001
0010
0100
1000
0010
0000
,  // measure 32
0101
0000
0001
0000
1000
0000
0100
0000
0010
0001
1000
0000
0010
0000
0100
0000
,  // measure 33
0001
1000
0000
0010
0100
0000
0001
0000
0010
0100
1000
0000
0010
0000
0100
0000
,  // measure 34
0001
0010
0000
0001
1000
0000
0010
0000
0100
0001
1000
0000
0100
0000
0010
0000
,  // measure 35
0100
1000
0000
0001
0010
0000
0001
0000
0100
0000
0010
0000
0220
0000
0330
0000
,  // measure 36
1000
0010
0000
0100
0001
0000
1000
0000
0001
0010
0100
0010
0001
0000
1000
0000
,  // measure 37
0010
0100
0000
0001
1000
0000
0010
0000
1000
0100
0010
0100
1000
0000
0001
0000
,  // measure 38
0100
0010
0000
1000
0100
0000
1000
0000
0001
0010
0100
1000
0010
0000
0100
0000
,  // measure 39
0001
0000
0010
0001
0000
0010
0001
1000
0010
0000
0100
0010
0000
1000
0100
0000
,  // measure 40
0011
0000
1000
0100
0000
1000
0100
0000
1010
0000
0100
0001
0000
0100
0001
0000
,  // measure 41
0011
0000
1000
0010
0000
1000
0010
0000
0101
0000
1000
0100
0000
1000
0001
0000
,  // measure 42
0110
0000
0001
1000
0000
0001
0100
0000
0110
0000
1000
0100
0000
1000
0010
0000
,  // measure 43
1001
0000
0010
0001
0000
1000
0100
0000
2000
3002
0023
0130
0011
0000
0001
0000
,  // measure 44
0011
0010
0110
0100
1100
1000
1001
0001
,  // measure 45
0101
0000
0100
0000
0110
0000
0010
0000
1010
0000
1000
0000
0001
0010
0100
1000
,  // measure 46
0010
0000
0100
0000
0001
0000
1000
0000
0010
0000
1000
0000
0100
0000
0010
0000
0100
0000
1000
0000
0001
0000
0010
0000
0100
1000
0100
1000
0001
0010
0001
0010
,  // measure 47
0001
1000
0010
0000
0100
0100
0100
0100
0000
0000
0110
0000
1001
0000
0000
0000
,  // measure 48
1010
0011
1010
0110
,  // measure 49
1001
0000
0110
0000
1001
0000
0010
0001
,  // measure 50
0100
0010
1000
0100
0010
0001
2002
0000
,  // measure 51
0000
0000
3003
0110
,  // measure 52
1000
0100
0010
0100
1000
0100
0010
0100
1000
0000
0100
0000
1000
0000
0000
0000
,  // measure 53
0001
0100
0010
0100
0001
0100
0010
0100
0001
0100
0010
0000
0100
0000
0000
0000
,  // measure 54
0001
1000
0001
1000
0010
0100
0010
0100
0010
0000
1000
0000
0001
0000
0000
0000
,  // measure 55
1000
0100
0001
0100
1000
0000
0011
0000
,  // measure 56
1000
0010
0100
0010
1000
0010
0100
0010
1000
0000
0010
0000
0100
0000
0000
0000
,  // measure 57
0001
0100
0010
0100
0001
0100
0010
0100
0001
0000
0100
0000
0010
0000
0000
0000
,  // measure 58
1000
0100
0010
0001
0100
0010
1000
0100
0010
0000
0001
0000
1000
0000
1001
0000
,  // measure 59
1001
0001
0010
0100
0010
0100
1000
0010
,  // measure 60
1000
0000
0010
0000
0100
0000
0001
0000
0100
0000
0001
0000
1000
0100
0010
0000
,  // measure 61
0100
1000
0001
0100
0010
0100
0001
1000
,  // measure 62
0100
0010
0002
0000
1000
1003
0100
0001
,  // measure 63
0100
1000
0010
0000
0100
0110
0000
0010
,  // measure 64
0110
0000
0000
0000
1000
0000
0001
0000
1000
0000
0001
0000
0010
0100
1000
0010
,  // measure 65
0100
0001
0010
0100
1000
0000
0000
0000
0001
0000
0010
0000
0001
0000
0100
0000
,  // measure 66
0001
1000
0100
1000
0010
0001
0010
1000
,  // measure 67
0100
0101
0000
0000
;
