#TITLE:Agony for Glory;
#SUBTITLE:;
#ARTIST:RoughSketch;
#TITLETRANSLIT:;
#SUBTITLETRANSLIT:;
#ARTISTTRANSLIT:;
#GENRE:;
#CREDIT:;
#BANNER:Agony_for_Glory_banner.png;
#BACKGROUND:Agony_for_Glory.png;
#LYRICSPATH:;
#CDTITLE:;
#MUSIC:Agony for Glory.ogg;
#OFFSET:-0.920000;
#SAMPLESTART:80.459999;
#SAMPLELENGTH:12.000000;
#LASTBEATHINT:322.500000;
#SELECTABLE:YES;
#DISPLAYBPM:175.000000;
#BPMS:0.000000=175.000000
,70.000000=87.500000
,70.250000=350.000000
,71.250000=175.000000
,71.750000=87.500000
,72.000000=175.000000
,126.000000=87.500000
,126.250000=350.000000
,127.250000=175.000000
,127.750000=87.500000
,128.000000=175.000000
,230.000000=87.500000
,230.250000=350.000000
,231.250000=175.000000
,231.750000=87.500000
,232.000000=175.000000
,279.000000=350.000000
,281.000000=175.000000
;
#STOPS:
;
#BGCHANGES:;
#KEYSOUNDS:;
#ATTACKS:;

//---------------dance-single - ----------------
#NOTES:
     dance-single:
     :
     Easy:
     6:
     0.181004,0.245432,0.061167,0.122334,0.000000,145.000000,138.000000,7.000000,14.000000,0.000000,0.000000,0.181004,0.245432,0.061167,0.122334,0.000000,145.000000,138.000000,7.000000,14.000000,0.000000,0.000000:
0000
0000
0000
0000
,
0000
0000
0000
0000
,
0000
0000
0000
0000
,
0000
0000
0000
0000
,
1000
0000
0001
0000
,
0010
0000
0001
0000
,
0100
0000
0010
0000
,
2002
0000
3003
0000
,
0010
0000
0001
0000
,
0010
0000
0001
0000
,
1000
0000
0100
0000
,
1000
0000
0010
0000
,
0100
0000
0001
0000
,
1000
0000
0010
0000
,
1000
0000
0001
0000
,
0100
0000
0010
0000
,
0100
0000
0001
0000
,
1000
0000
0000
0000
,
0100
0000
1000
0000
,
0100
0000
1000
0000
,
0001
0000
0100
0000
,
0001
0000
0100
0000
,
0010
0000
0100
0000
,
0001
0000
1000
0000
,
0001
0000
0010
0000
,
2002
0000
3003
0000
,
0100
0000
1000
0000
,
0001
0000
0010
0000
,
0001
0000
1000
0000
,
0100
0000
0010
0000
,
0001
0000
0100
0000
,
0001
0000
1000
0000
,
0010
0000
0100
0000
,
0220
0000
0330
0000
,
0001
0000
0001
0000
,
0001
0000
0000
0000
,
1000
0000
1000
0000
,
1000
0000
0000
0000
,
0010
0000
0100
0000
,
0010
0000
0000
0000
,
1000
0000
0001
0000
,
2002
0000
3003
0000
,
0200
0000
0000
0000
,
0300
0000
0000
0000
,
0001
0000
0010
0000
,
0100
0000
2000
0000
,
3010
0000
0100
0000
,
0010
0000
0000
0000
,
1000
0000
0100
0000
,
0010
0000
0000
0000
,
0001
0000
0100
0000
,
0010
0000
0000
0000
,
1000
0000
0001
0000
,
0011
0000
0000
0000
,
0100
0000
1000
0000
,
0100
0000
0000
0000
,
1000
0000
0010
0000
,
1000
0000
0000
0000
,
0001
0010
0001
0000
,
1000
0000
0010
1000
,
0010
0000
0100
0000
,
0001
0010
0100
0000
,
1000
0000
0010
0000
,
1000
0100
1000
0000
,
0001
0000
0100
0000
,
0001
1000
0100
0000
,
1000
0010
0100
0000
,
0010
1000
0100
0000
,
0010
0000
0001
0000
,
0100
0001
0010
0000
,
0000
0001
0000
1000
,
0000
0001
0010
0100
,
0000
1000
0000
0010
,
0000
0100
0000
0010
,
0000
2002
0000
3003
,
0000
0000
0000
0000
,
0000
0010
0000
0100
,
0000
1000
0000
0001
,
0000
2002
0000
0000
,
0000
0000
0000
0000
,
0000
3003
0000
0000
;

//---------------dance-single - ----------------
#NOTES:
     dance-single:
     :
     Medium:
     11:
     0.429417,0.560988,0.113596,0.279620,0.585455,344.000000,331.000000,13.000000,32.000000,0.000000,0.000000,0.429417,0.560988,0.113596,0.279620,0.585455,344.000000,331.000000,13.000000,32.000000,0.000000,0.000000:
// measure 0
0000
0000
0000
0000
,  // measure 1
0000
0000
0000
0000
,  // measure 2
0000
0000
0000
0000
,  // measure 3
0000
0000
0000
0000
,  // measure 4
1000
0000
0000
0000
0001
0000
0010
0000
0000
0000
0000
0000
,  // measure 5
0001
0000
0000
0000
0100
0000
0010
0000
0000
0000
0000
0000
,  // measure 6
1000
0000
0000
0000
0100
0000
0010
0000
0000
0000
0000
0000
,  // measure 7
2002
0000
0000
3003
0000
0000
0000
0000
,  // measure 8
0110
0000
0000
0000
0000
0000
0001
0000
0010
0000
0100
0000
,  // measure 9
1000
0000
0000
0000
0000
0000
0010
0000
0100
0000
0001
0000
,  // measure 10
1000
0000
0000
0000
0000
0000
0100
0000
0010
0000
0001
0000
,  // measure 11
1000
0000
0001
0000
1000
0000
0200
0000
0000
0000
0000
0000
,  // measure 12
1300
0000
0000
0000
0010
0000
0100
0000
0001
0000
0100
0000
,  // measure 13
0010
0000
0000
0000
1000
0000
0100
0000
1000
0000
0010
0000
,  // measure 14
0100
0000
0000
0000
0001
0000
0010
0000
0000
0000
0001
0000
,  // measure 15
1000
0000
0000
0000
0010
0000
0100
0000
0000
0001
0000
0000
,  // measure 16
0010
0000
0000
0100
0000
0000
1000
0000
0000
0001
0000
1000
,  // measure 17
0100
0000
0000
0000
0010
0000
0000
0000
0220
0330
0000
0000
0000
0000
0000
0000
,  // measure 18
1000
0000
0000
0001
0000
0000
0010
0000
0000
0001
0000
0100
,  // measure 19
0001
0000
0000
1000
0000
0000
0010
0000
0000
1000
0000
0100
,  // measure 20
1000
0001
0100
0010
,  // measure 21
1000
0000
0000
0001
0000
0000
0010
0000
0100
0000
0010
0000
,  // measure 22
0000
0001
1000
0002
0000
0000
0103
0000
0000
0010
0000
1000
,  // measure 23
0100
0000
0000
0010
0000
0000
0001
0000
1000
0000
0000
0000
,  // measure 24
0110
0000
0000
0001
0000
0000
1000
0000
0001
0000
0010
0000
,  // measure 25
0200
0000
2300
0000
,  // measure 26
3010
0000
0000
0100
0000
0000
0001
0000
0000
0010
0000
0001
,  // measure 27
1000
0000
0000
0010
0000
0000
1000
0000
0000
0001
0010
0000
,  // measure 28
0100
1000
0001
0100
,  // measure 29
0010
0000
0000
1000
0000
0000
0100
0000
0000
1000
0001
1000
,  // measure 30
0100
0000
0000
0010
0000
0000
0001
0000
0000
1000
0000
0001
,  // measure 31
0010
0000
0000
0000
0001
0000
0000
0000
0200
0300
0000
0000
0000
0000
0000
0000
,  // measure 32
0010
0000
1000
0000
0100
0000
0010
0000
0001
0000
1000
0000
,  // measure 33
2002
3003
0220
0330
,  // measure 34
1000
0000
0000
0000
0001
0000
0010
0000
0001
0000
0100
0000
,  // measure 35
0010
0000
1000
0000
0100
0000
1000
0000
0000
0000
0000
0000
,  // measure 36
0010
0000
0000
0000
1000
0000
0100
0000
0010
0000
0100
0000
,  // measure 37
1000
0000
0001
0000
0100
0000
0020
0000
0000
0000
0000
0000
,  // measure 38
1030
0000
0000
0000
0001
0000
0010
0000
0001
0000
0100
0000
,  // measure 39
0001
0000
1000
0000
0100
0000
0020
0000
0000
0000
0130
0000
,  // measure 40
1000
0000
0000
0000
0010
0000
0100
0000
0010
0000
1000
0000
,  // measure 41
0001
0000
0100
0000
0010
0000
0100
0000
0001
0000
0010
0000
,  // measure 42
0002
0000
0100
0000
,  // measure 43
1000
0000
1000
0000
,  // measure 44
2003
0000
0010
0000
,  // measure 45
0001
0001
3001
0000
,  // measure 46
0110
0000
0000
0000
0001
0000
0010
0000
0001
0000
1000
0000
,  // measure 47
0100
0000
0000
0000
1000
0000
0010
0000
0100
0000
0010
0000
,  // measure 48
1000
0000
0000
0000
0001
0000
0100
0000
0010
0000
0100
0000
,  // measure 49
0001
0000
0010
0000
0100
0000
2000
0000
0000
3000
0000
0000
,  // measure 50
0110
0000
0000
0000
0001
0000
1000
0000
0010
0000
0100
0000
,  // measure 51
0001
0000
0000
0000
0010
0000
0100
0000
1000
0000
0100
0000
,  // measure 52
0010
0000
0001
0000
1000
0000
0020
0000
0000
0000
0130
0000
,  // measure 53
0001
0000
1000
0000
0100
0000
0020
0000
0000
0000
0000
0000
,  // measure 54
0032
1000
0000
1003
,  // measure 55
0020
0100
0000
0130
,  // measure 56
0001
0000
0000
0010
0000
0000
0001
1000
0001
1000
0000
0000
,  // measure 57
0010
0100
0010
0100
0010
0100
0002
0000
0000
0003
0000
0000
,  // measure 58
0101
0000
0000
1000
0000
0100
0010
0000
0100
0000
1000
0000
,  // measure 59
0001
0000
0000
0100
0000
0010
0100
0000
0001
0000
0010
0000
,  // measure 60
0001
0000
0000
1000
0000
0001
1000
0000
0100
0000
0010
0000
,  // measure 61
0001
0000
1000
0000
0010
0000
0220
0000
0000
0330
0000
0000
,  // measure 62
1000
0000
0000
0001
0000
0010
0100
0000
1000
0000
0100
0000
,  // measure 63
0010
0000
0000
0001
0000
0100
0010
0000
1000
0000
0010
0000
,  // measure 64
0100
0000
0001
0000
0010
0000
0200
0000
0000
0000
0000
0000
,  // measure 65
1300
0000
0010
0000
0100
0000
0020
0000
0000
0000
0000
0000
,  // measure 66
1030
0000
1000
0100
0000
0000
0010
0000
0010
0001
0000
0000
,  // measure 67
0100
0000
0001
1000
0000
0010
1000
0000
0100
0010
0000
0000
,  // measure 68
0001
0000
0000
0100
0000
0000
0010
0000
0100
0001
0000
0000
,  // measure 69
0010
0000
0010
0100
0000
0100
1000
0000
0000
1001
0000
0000
,  // measure 70
0000
0000
0000
0010
0000
0100
0010
0000
0000
1000
0000
0100
,  // measure 71
1000
0000
0000
0001
0000
0100
0001
0000
0000
0010
0000
0001
,  // measure 72
0010
0000
0000
0100
1000
0100
1000
0000
0000
0001
0100
0001
,  // measure 73
0100
0020
0000
0130
,  // measure 74
0000
2002
0000
3003
,  // measure 75
0000
0000
0000
0100
0000
0010
0000
0100
0000
0010
0000
0000
,  // measure 76
0000
0000
0000
1000
0000
0100
0000
1000
0000
0100
0000
0000
,  // measure 77
0000
0000
0000
0010
0000
0001
0000
1000
0000
0001
0000
0000
,  // measure 78
0000
0220
0000
0000
,  // measure 79
0000
0000
0000
0000
,  // measure 80
0000
0330
0000
0000
;

//---------------dance-single - ----------------
#NOTES:
     dance-single:
     :
     Hard:
     14:
     0.659104,0.806420,0.506811,0.419430,1.118480,528.000000,470.000000,58.000000,48.000000,0.000000,0.000000,0.659104,0.806420,0.506811,0.419430,1.118480,528.000000,470.000000,58.000000,48.000000,0.000000,0.000000:
// measure 0
0000
0000
0000
0000
,  // measure 1
0000
0000
0000
0000
,  // measure 2
0000
0000
0000
0000
,  // measure 3
0000
0000
0000
0000
,  // measure 4
0010
0000
0001
0000
0000
0000
1100
0000
0000
0000
0010
0000
,  // measure 5
0100
0000
0001
0000
0010
0000
0110
0000
0000
0000
1000
0000
,  // measure 6
0010
0000
0100
0000
0001
0000
0010
0000
1000
0000
0010
0000
,  // measure 7
0001
0000
1000
0000
0010
0000
0220
0000
0000
0330
0000
0000
,  // measure 8
0101
0000
0000
0000
0010
0000
0100
0000
1000
0000
0100
0000
,  // measure 9
0001
0000
0000
0000
0010
0000
0100
0000
1000
0000
0100
0000
,  // measure 10
0010
0000
0001
0000
1000
0000
0010
0000
0100
0000
0010
0000
,  // measure 11
1000
0000
0100
0000
0010
0000
0022
0000
0000
0033
0000
0000
,  // measure 12
1001
0000
0000
0100
0010
0100
0001
0000
0010
0000
0100
0000
,  // measure 13
1000
0000
0000
0010
0100
0010
1000
0000
0100
0000
0010
0000
,  // measure 14
0001
0000
0010
0000
1000
0000
0010
0000
0001
0000
1000
0000
,  // measure 15
0010
0000
0001
0000
0010
0000
0220
0000
0000
0330
0000
0000
,  // measure 16
1000
0000
0100
1000
0000
0010
1000
0000
0001
0010
0000
0100
,  // measure 17
0010
0001
0010
0100
1000
0010
0200
0000
0000
0300
0000
0000
,  // measure 18
0011
0000
0000
1000
0000
0000
1001
0000
0000
0100
0000
0001
,  // measure 19
0010
0000
0100
1000
0010
1000
0001
0000
0000
1100
0000
0010
,  // measure 20
0001
0000
0000
0110
0000
0000
1000
0001
0100
0010
0000
0000
,  // measure 21
1010
0000
0000
0011
0000
0000
1001
0000
0110
0000
1001
0000
,  // measure 22
0010
0100
1000
0002
0000
0000
0103
0010
1000
0100
0000
1000
,  // measure 23
0010
0000
0000
1000
0100
0010
0001
0000
0220
0000
0330
0000
,  // measure 24
1010
0000
0000
0001
0000
0000
0011
0000
1001
0000
1100
0000
,  // measure 25
1020
0230
0002
0303
,  // measure 26
0010
0001
1000
0001
0000
0000
0100
0010
1000
0010
0000
0000
,  // measure 27
1000
0100
0010
0100
1000
0100
0010
0000
0000
0001
0000
1000
,  // measure 28
0001
0010
0100
0010
0000
0000
0001
1000
0010
0100
0000
0000
,  // measure 29
0010
0100
0001
0100
0010
0100
0002
0000
0000
0003
0000
0000
,  // measure 30
1000
0100
0001
0100
0000
0000
1000
0010
0001
0010
0000
0000
,  // measure 31
0100
0001
0010
0100
0010
0001
2000
0000
0000
3000
0000
0000
,  // measure 32
0101
0000
0011
0000
1001
0000
1010
0000
0110
0000
0101
0000
,  // measure 33
2002
3003
0220
0330
,  // measure 34
1010
0000
0000
0000
0100
0001
0010
0000
0100
0000
1000
0000
,  // measure 35
0001
0000
1000
0000
0100
0000
0020
0000
0001
0000
0031
0000
,  // measure 36
2000
0000
0000
0000
3010
0100
0010
0000
1000
0000
0001
0000
,  // measure 37
0010
0000
0100
0000
1000
0010
1000
0000
0001
0000
0010
0000
,  // measure 38
0002
0000
0000
0000
1003
0010
1000
0000
0001
0000
0010
0000
,  // measure 39
0001
0000
0100
0000
1000
0000
0100
0000
0001
0000
0010
0000
,  // measure 40
0220
0000
0000
0330
0000
0000
1000
0000
0001
0000
0100
0000
,  // measure 41
0010
0000
1000
0000
0001
1000
0001
0000
0010
0000
0100
1000
,  // measure 42
0002
0010
0100
0013
,  // measure 43
2000
0010
0100
3010
,  // measure 44
0200
0001
1000
0301
,  // measure 45
0020
1000
0002
0033
,  // measure 46
1100
0000
0000
0000
0010
0100
0001
0000
0010
0000
0001
0000
,  // measure 47
1001
0000
0000
0000
0100
0010
1000
0000
0100
0000
0010
0000
,  // measure 48
0011
0000
0000
0000
0100
1000
0100
0000
1000
0000
0010
0000
,  // measure 49
0100
0000
0001
0000
0010
0000
0220
0000
0000
0330
0000
0000
,  // measure 50
1100
0000
0000
0001
0010
0100
0010
0000
0001
0000
1000
0000
,  // measure 51
1010
0000
0000
0100
0010
1000
0001
0000
0010
0000
0001
0000
,  // measure 52
0100
0000
0001
0000
0100
0000
1000
0000
0100
0000
0010
0000
,  // measure 53
1000
0000
0001
0000
0010
0000
2200
0000
0000
3300
0000
0000
,  // measure 54
1002
0010
1000
0013
,  // measure 55
2100
0000
0000
0001
0000
0000
0100
0000
0000
3001
0000
0100
,  // measure 56
0001
0010
0001
1000
0010
1000
0001
0000
0100
0010
0000
1000
,  // measure 57
0010
1000
0001
0010
0100
1000
0002
0000
0000
0003
0000
0000
,  // measure 58
0110
0000
0000
1000
0010
0100
0010
0000
1000
0000
0001
0000
,  // measure 59
0011
0000
0000
1000
0010
0100
0001
0000
0010
0000
0100
1000
,  // measure 60
0001
0000
0100
0010
0100
0010
1000
0000
0100
0000
0010
0000
,  // measure 61
0001
0000
1001
0000
1010
0000
0220
0000
0000
0330
0000
0000
,  // measure 62
0101
0000
0000
0010
0001
1000
0010
0000
0100
0000
0001
1000
,  // measure 63
0100
0000
1000
0010
1000
0100
0010
0000
0001
0000
0100
0000
,  // measure 64
0001
0000
0100
0000
1000
0000
0100
0000
0010
1000
0000
0100
,  // measure 65
0010
0000
0011
0000
1100
0000
2002
0000
0000
3003
0000
0000
,  // measure 66
1000
0010
0100
0010
0000
0000
1000
0100
0010
0001
0000
0100
,  // measure 67
0001
0000
0001
0010
0000
0010
0100
1000
0001
1000
0000
0010
,  // measure 68
1000
0000
0100
1000
0000
0001
0010
0000
0001
0100
0000
0010
,  // measure 69
1000
0001
0010
0100
0010
0001
1000
0010
0100
0020
0000
0000
,  // measure 70
0000
0000
0000
1030
0100
1000
0001
0000
0010
0001
0100
0001
,  // measure 71
0010
0000
0001
1000
0010
0100
0010
1000
0100
0010
0100
1000
,  // measure 72
0002
0000
0000
0103
0010
0100
0001
0010
0001
1000
0100
1000
,  // measure 73
0010
0100
0010
2000
0000
0000
3001
0010
0100
1000
0010
0100
,  // measure 74
0001
0000
1000
0100
0000
0010
0000
0100
1000
0002
0000
0000
,  // measure 75
0000
0103
0000
0010
0000
0100
0000
0001
0000
0022
0000
0000
,  // measure 76
0033
0000
0000
0100
0000
1000
0000
0010
0000
0100
0000
0001
,  // measure 77
0000
0010
0000
0011
0000
1100
0000
1001
0000
0110
0000
1010
,  // measure 78
0000
0101
0000
0022
0000
0000
0000
0000
0000
0000
0000
0000
,  // measure 79
0000
0000
0000
0000
,  // measure 80
0000
0033
0000
0000
;
