#TITLE:アガット;
#SUBTITLE:;
#ARTIST:Bazole;
#TITLETRANSLIT:Agate;
#SUBTITLETRANSLIT:;
#ARTISTTRANSLIT:;
#GENRE:;
#CREDIT:;
#BANNER:Agate_banner.png;
#BACKGROUND:Agate.png;
#LYRICSPATH:;
#CDTITLE:;
#MUSIC:Agate.ogg;
#OFFSET:0.050000;
#SAMPLESTART:69.099998;
#SAMPLELENGTH:12.000000;
#LASTBEATHINT:329.500000;
#SELECTABLE:YES;
#BPMS:0.000000=200.000000
;
#STOPS:99.500000=1.200000
;
#BGCHANGES:;
#KEYSOUNDS:;
#ATTACKS:;

//---------------dance-single - ----------------
#NOTES:
     dance-single:
     :
     Easy:
     8:
     0.293667,0.358950,0.077940,0.126653,0.000000,211.000000,203.000000,8.000000,13.000000,0.000000,0.000000,0.293667,0.358950,0.077940,0.126653,0.000000,211.000000,203.000000,8.000000,13.000000,0.000000,0.000000:
// measure 0
0000
0000
0000
0000
,  // measure 1
0000
0000
0000
0000
,  // measure 2
0000
0000
0000
0000
,  // measure 3
0000
0000
0000
0000
,  // measure 4
0000
0000
0000
0000
,  // measure 5
0000
0010
0000
0010
,  // measure 6
0000
1000
0000
1000
,  // measure 7
0000
0000
0001
0000
0000
0000
0001
0200
,  // measure 8
0000
0000
0300
0000
,  // measure 9
0000
0000
0000
0000
,  // measure 10
0010
0000
0000
0000
0000
0010
0000
0000
,  // measure 11
0000
0010
0000
0000
0100
0000
0000
0000
,  // measure 12
0100
0000
0000
0000
0000
0001
0000
0000
,  // measure 13
0000
0001
0000
0000
1000
0000
0000
0000
,  // measure 14
0100
0000
0000
0000
0000
0100
0000
0000
,  // measure 15
0000
0010
0000
0000
0010
0000
0000
0000
,  // measure 16
0001
0000
0000
0000
0000
0001
0000
0000
,  // measure 17
0000
1000
0000
0000
2002
0000
3003
0000
,  // measure 18
0100
0000
0100
0000
0000
0010
0000
0010
,  // measure 19
0000
0100
0000
0000
0010
0000
0000
0000
,  // measure 20
1000
0000
1000
0000
0000
0001
0000
0001
,  // measure 21
0000
1000
0000
0000
0001
0000
0000
0000
,  // measure 22
0100
0000
0010
0000
0000
0100
0000
0010
,  // measure 23
0000
0010
0000
0000
1000
0000
0000
0000
,  // measure 24
0001
0000
0010
0000
0000
0001
0000
0100
,  // measure 25
0000
0001
0000
0010
,  // measure 26
0000
0001
0010
0100
,  // measure 27
1000
0010
0000
0100
,  // measure 28
0000
0010
1000
0001
,  // measure 29
0010
0001
0000
0001
,  // measure 30
1000
0010
0000
0010
,  // measure 31
0100
0010
0000
1000
,  // measure 32
0001
1000
2002
3003
,  // measure 33
0100
0001
0000
0001
,  // measure 34
0010
0001
1000
0001
,  // measure 35
1000
0100
0000
0100
,  // measure 36
1000
0010
0100
0001
,  // measure 37
0020
0100
0000
0130
,  // measure 38
2000
0001
0000
3001
,  // measure 39
1001
0000
0110
0000
,  // measure 40
2002
0000
3003
0000
,  // measure 41
0010
0000
0100
0010
,  // measure 42
1000
0000
0100
0010
,  // measure 43
0001
0000
1000
0001
,  // measure 44
0010
0000
0110
0000
,  // measure 45
1000
0100
0000
0100
,  // measure 46
0010
0001
0000
0001
,  // measure 47
0100
0010
0000
0010
,  // measure 48
1000
0001
2002
3003
,  // measure 49
0100
0010
0000
0010
,  // measure 50
1000
0100
0000
0100
,  // measure 51
0010
0000
0000
0001
0000
0000
0000
1000
,  // measure 52
0000
0000
0010
0000
,  // measure 53
0100
0010
0100
0000
,  // measure 54
0001
0010
0001
0000
,  // measure 55
1000
0000
0000
1000
0000
0000
1000
0000
,  // measure 56
2000
0000
0000
3000
0000
0000
0000
0000
,  // measure 57
0000
0001
0010
0001
,  // measure 58
0100
0001
0000
0000
,  // measure 59
0000
1000
0010
1000
,  // measure 60
0100
1000
0001
0000
,  // measure 61
0000
0100
0010
0100
,  // measure 62
0001
1000
0000
0000
,  // measure 63
0000
0000
0100
0000
0010
0000
0001
1000
,  // measure 64
0000
1000
0000
0000
,  // measure 65
0000
0010
0100
0001
,  // measure 66
1000
0001
0010
0000
,  // measure 67
0000
0001
0010
0100
,  // measure 68
1000
0000
0010
0000
0100
0000
0000
0010
,  // measure 69
0000
0000
0000
0010
0000
0000
0000
0010
,  // measure 70
0000
0000
0000
0010
0000
0010
0000
1000
,  // measure 71
0000
0000
0000
0100
0000
0000
0000
0010
,  // measure 72
0000
0000
0000
0001
1000
0000
0000
0000
,  // measure 73
0020
0000
0000
0000
,  // measure 74
0000
0000
0030
0000
,  // measure 75
0100
0010
0000
0010
,  // measure 76
1000
0100
0010
0001
,  // measure 77
0100
0010
0000
0010
,  // measure 78
1000
0100
0000
0100
,  // measure 79
1000
0001
0010
0100
,  // measure 80
1000
0010
0100
0001
,  // measure 81
0000
0000
0110
0000
0000
1000
0001
1000
;

//---------------dance-single - ----------------
#NOTES:
     dance-single:
     :
     Medium:
     12:
     0.610994,0.598251,0.175365,0.214335,0.014614,439.000000,421.000000,18.000000,22.000000,0.000000,0.000000,0.610994,0.598251,0.175365,0.214335,0.014614,439.000000,421.000000,18.000000,22.000000,0.000000,0.000000:
// measure 0
0000
0000
0000
0000
,  // measure 1
0000
0010
0100
0000
0010
0000
1000
0000
,  // measure 2
0001
0000
0010
0000
0001
0010
0100
0010
,  // measure 3
0000
0001
1000
0000
0010
0000
1000
0000
,  // measure 4
0100
0000
1000
0000
0010
0100
0010
1000
,  // measure 5
0000
0001
0010
0000
0011
0000
1000
0100
,  // measure 6
0000
1000
0010
0000
0110
0000
1000
0001
,  // measure 7
0000
0001
0010
0100
1000
0010
0100
0002
,  // measure 8
0000
0000
0000
0000
,  // measure 9
0000
0000
0003
0000
,  // measure 10
1000
0000
1100
0000
0000
0010
0100
0010
,  // measure 11
0000
1000
0000
0100
1000
0000
0001
0000
,  // measure 12
0100
0000
0110
0000
0000
0010
0100
0001
,  // measure 13
0000
0001
0000
0010
0001
0000
1000
0000
,  // measure 14
0001
0000
0101
0000
0000
0010
1000
0010
,  // measure 15
0000
1000
0000
0100
0010
0000
0001
0000
,  // measure 16
0100
0000
0110
0000
0000
0010
1000
0010
,  // measure 17
0000
1000
0000
0001
0100
0010
0100
0000
,  // measure 18
0001
0000
0011
0000
0000
1000
0100
1000
,  // measure 19
0000
0001
0000
0010
0001
0000
1000
0000
,  // measure 20
0010
0000
0110
0000
0000
1000
0100
1000
,  // measure 21
0000
0001
0000
0010
0001
0000
0100
0000
,  // measure 22
0001
0000
1001
0000
0000
1000
0100
0010
,  // measure 23
0000
0001
0000
0100
0010
0000
1000
0000
,  // measure 24
0100
0000
1100
0000
0000
0001
0010
0100
,  // measure 25
0010
0000
0001
1000
0001
0000
1000
0010
,  // measure 26
1000
0000
0001
0010
0001
0000
0100
0000
,  // measure 27
0010
0000
1000
0100
1000
0000
0001
0010
,  // measure 28
0001
0000
0100
0010
1000
0000
1001
0000
,  // measure 29
0010
0000
0100
0010
1000
0000
0100
1000
,  // measure 30
0010
0000
0100
0001
0010
0000
0001
0000
,  // measure 31
1000
0000
0001
0100
0010
0000
0100
0001
,  // measure 32
0010
0000
0001
0010
0100
0000
1001
0000
,  // measure 33
0010
0100
0001
0000
0010
0100
1000
0000
,  // measure 34
0010
0100
0010
1000
0001
0010
0100
0000
,  // measure 35
1000
0100
0010
0000
0001
0100
0010
0000
,  // measure 36
1000
0001
0010
0100
1000
0000
1001
0000
,  // measure 37
0010
0100
0010
0000
1000
0100
1000
0000
,  // measure 38
0001
0000
0100
0010
0100
0001
0010
0000
,  // measure 39
0001
0100
1000
0000
1000
0100
0001
0000
,  // measure 40
0010
0001
0100
0010
1000
0001
0100
0000
,  // measure 41
0020
2030
3200
0320
,  // measure 42
0032
0000
0000
1003
0010
1000
0001
0000
,  // measure 43
0010
0000
0100
0000
1000
0010
1000
0000
,  // measure 44
0001
0000
0100
0010
0100
0000
0001
0000
,  // measure 45
0010
0000
0100
1000
0000
0001
0100
0000
,  // measure 46
0020
0000
0000
0130
0001
1000
0001
0000
,  // measure 47
2000
0000
3002
0000
0013
0100
0010
0000
,  // measure 48
0001
0000
0010
0100
1000
0000
1001
0000
,  // measure 49
0010
1000
0100
1000
0000
0001
0010
0000
,  // measure 50
0001
0000
0100
0000
0010
0100
0001
0000
,  // measure 51
0010
0100
1000
0001
0000
0001
0010
0100
,  // measure 52
0000
2000
0000
3020
0000
0230
0000
0301
,  // measure 53
0010
0001
1000
0000
0010
0100
0010
0000
,  // measure 54
1000
0100
0010
0000
0001
0100
0010
0000
,  // measure 55
1000
1000
0000
0001
0001
0000
0100
0010
,  // measure 56
0100
0000
0000
0001
0000
0000
2002
0000
3003
0000
0000
0000
0000
0000
0100
0000
,  // measure 57
0000
0100
0010
1000
0010
0000
1000
0000
,  // measure 58
0100
0010
0001
0000
1000
0000
0001
0100
,  // measure 59
0000
0010
0100
0000
0001
0010
0100
0000
,  // measure 60
1000
0100
1000
0020
0000
0100
0000
0130
,  // measure 61
0000
0001
0010
0000
0001
1000
0001
0000
,  // measure 62
1000
0010
0100
0010
0000
0010
1000
0100
,  // measure 63
0000
1000
0001
0000
0010
0001
1000
0001
,  // measure 64
0000
0000
0001
0000
0200
0300
0000
0000
0000
0000
0000
0000
0000
0000
0010
0000
,  // measure 65
0000
0100
0010
1000
0100
0010
0001
0000
,  // measure 66
0100
0000
0010
1000
0001
0010
0100
1000
,  // measure 67
0000
0010
1000
0000
0001
0010
0001
0000
,  // measure 68
1000
0100
1000
0010
0000
1000
0100
0020
,  // measure 69
0000
0031
0100
0020
0000
1030
0001
0200
,  // measure 70
0000
0301
1000
0100
0000
0110
0000
0001
,  // measure 71
0000
1000
0010
0200
0000
0301
0010
0200
,  // measure 72
0000
0000
1300
0000
0010
0000
0100
0000
0010
0000
0000
1000
0000
0000
0001
0000
,  // measure 73
0020
0000
0000
0000
,  // measure 74
0000
0000
0030
0000
,  // measure 75
0001
0100
0010
0000
1000
0100
0010
0000
,  // measure 76
0001
0000
0010
0000
0100
0000
1000
0000
0010
0000
0000
0100
0000
0000
0010
0000
,  // measure 77
1000
0100
1000
0010
0100
0010
1000
0000
,  // measure 78
0001
0100
0010
0100
0001
0010
0001
0000
,  // measure 79
1000
0100
0001
0000
1000
0010
0001
0000
,  // measure 80
0100
1000
0100
0001
0010
0100
1000
0010
,  // measure 81
0100
0000
0110
0000
0000
0001
1000
1001
;

//---------------dance-single - ----------------
#NOTES:
     dance-single:
     :
     Hard:
     16:
     0.953374,1.076851,0.496868,0.165623,0.618649,685.000000,634.000000,51.000000,17.000000,0.000000,0.000000,0.953374,1.076851,0.496868,0.165623,0.618649,685.000000,634.000000,51.000000,17.000000,0.000000,0.000000:
0000
0000
0000
0000
,
0000
0001
0100
1000
0001
1000
0100
0000
,
1000
0100
0001
0100
1000
0001
0100
0010
,
0000
1000
0010
0001
0010
1000
0001
0000
,
0010
0001
0010
1000
0010
0100
1000
0001
,
0000
0000
0001
0000
0010
0000
0001
0000
1000
0010
0100
0000
0010
0000
1000
0000
,
0000
0000
0010
0000
0100
0001
0010
0000
0001
0000
1000
0000
0010
0000
0100
0000
,
0000
0000
0010
0000
1000
0100
1000
0000
0001
0010
0001
0000
1000
0001
0200
0000
,
0000
0000
0000
0000
,
0000
0000
0000
0000
,
0310
0000
0110
0000
0000
1000
0001
0011
,
0000
0001
0100
1000
0100
0010
0110
0000
,
1000
0000
1100
0000
0000
0001
0100
0110
,
0000
0010
1000
0001
0010
0100
1100
0000
,
0011
0000
1010
0000
0000
1000
0001
0101
,
0000
0010
0100
0001
1000
0100
0110
0000
,
1100
0000
0101
0000
0000
0010
1000
1100
,
0000
0000
0010
0000
0001
0000
1000
0000
0001
1000
0100
1000
0001
0000
0000
0000
,
0110
0000
0011
0000
1000
0010
0010
1010
,
0000
0000
0100
0000
0100
0000
0010
0000
1000
0100
0010
0100
1000
0000
0000
0000
,
0001
0000
0011
0000
1000
1000
0010
0110
,
0000
0000
0100
0000
0001
0000
0010
0000
0001
0010
0100
0010
0001
0000
0000
0000
,
1001
0000
0110
0000
1000
0001
0001
0011
,
0000
0000
1000
0000
0100
0000
0100
0000
1000
0010
0100
0010
1000
0000
0000
0000
,
0101
0000
0000
0000
0000
0000
0000
0000
1010
0000
0000
0000
0000
0000
0000
0000
0000
0000
0000
0000
0001
0000
0000
0000
0101
0000
0000
0000
2002
3003
0000
0000
,
0010
0000
1000
0100
0010
0000
0100
0000
1000
0000
0010
0100
0001
0000
0010
0000
,
0001
0000
0010
0100
1000
0000
0010
0000
1000
0000
0001
0010
0001
0000
1000
0000
,
0001
0000
0010
0100
1000
0000
0001
0000
1000
0000
0010
0100
0001
0000
0010
0000
,
0001
0000
0100
0010
1000
0000
0100
0000
1000
0000
0010
0100
0010
0000
0000
0000
,
0100
0000
0001
0010
0100
0000
1000
0000
0010
0000
1000
0010
0100
0000
0001
0000
,
0010
0000
0100
1000
0001
0000
0100
0000
0001
0000
1000
0100
1000
0000
0001
0000
,
1000
0000
0010
0100
0001
0000
1000
0000
0001
0000
0010
0100
1000
0000
0010
0000
,
1000
0000
0001
0100
0010
0000
1000
0000
0010
0100
0010
0100
0010
0000
0000
0000
,
1000
0000
0100
0010
0100
0000
1000
0000
0001
0000
0100
0010
0100
0000
0001
0000
,
0010
0000
0001
0100
0001
0000
0010
0000
0100
1000
0001
1000
0100
0000
0000
0000
,
1000
0000
0010
0100
0010
0000
1000
0000
0001
0000
0010
0100
0010
0000
0001
0000
,
0100
0000
0010
1000
0010
0000
0100
0000
0001
0000
1000
0000
1001
0000
0000
0000
,
0010
0000
1000
0001
0010
0000
0100
0000
1000
0000
0010
1000
0001
0000
0100
0000
,
0010
0000
1000
0001
0100
0000
0010
0000
1000
0001
0010
0001
1000
0000
0000
0000
,
0010
0000
0110
0000
0000
0000
0100
0000
0110
0000
0010
0000
0000
0000
0010
1000
,
0001
0000
0010
0001
1000
0001
0100
0001
1000
0000
0010
0000
0110
0000
0000
0000
,
2000
0000
0000
0000
3010
0000
0100
0010
0100
0000
0001
0000
0010
0000
0000
0000
,
0011
0000
1000
0100
0001
0100
1000
0010
,
0100
0000
0001
1000
0001
0000
0200
0000
0000
0000
0310
0000
1000
0000
0200
0000
,
0000
0000
0310
0000
0001
1000
0001
0000
0100
0000
0000
0010
0000
0000
1000
0000
,
0001
0100
1000
0200
0000
0301
0010
1000
,
0020
0000
0031
1000
0001
0100
1000
0001
,
0010
0000
1000
0100
0010
0000
0001
0100
0010
0000
1000
0001
0100
0000
0001
1000
,
0010
0100
0001
1000
0000
0000
1001
0000
,
0010
0000
1000
0000
0100
0000
0020
0000
0000
0000
0130
0000
1000
0000
0001
0100
,
0010
0000
0010
1000
0001
0010
0100
1000
,
0010
0000
1000
0001
0010
0000
0001
0000
0000
0000
0001
0000
0010
0100
1000
0000
,
0000
1000
0010
0100
0000
0010
0100
0001
,
0020
0000
0000
0000
0130
0000
1000
0100
2000
0000
0000
0000
3010
0000
0100
0001
,
0200
0000
0000
0000
0310
0000
1000
0001
1000
0000
0010
1000
0000
0001
0010
0000
,
0001
1001
0000
0100
1001
0000
0010
1001
,
0100
0000
0000
0110
0000
0000
2002
0000
0000
3003
0000
0000
0000
0000
0110
0000
,
0000
0000
0010
1000
0100
0000
1000
0010
0100
0000
0001
0010
0100
0000
0010
0000
,
0001
0000
1000
0000
0010
0000
0000
0000
0010
0000
1000
0100
0010
0000
0001
0000
,
0000
0000
0001
0010
0100
0000
1000
0000
0010
0100
0001
0100
0010
0000
1000
0000
,
0000
0000
0001
1000
0100
0000
0010
0000
0001
0000
1000
0000
0010
0100
0001
0000
,
0000
0000
0001
1000
0100
0000
1000
0001
0100
0000
0010
0100
0001
0000
0010
0000
,
0000
0000
0010
0001
1000
0000
0010
0000
0100
0000
0010
1000
0100
0000
1000
0000
,
0000
0000
1000
0010
1000
0000
0001
0010
0001
0000
0100
0010
0100
0000
0001
0000
,
0000
1000
0220
0330
0000
1001
0000
0110
,
0000
0000
0001
0100
0010
0000
0100
0010
1000
0000
0100
0010
0001
0000
1000
0000
,
0001
0000
1000
0010
0100
0000
0000
0000
0010
0000
1000
0100
0010
0000
0001
0000
,
0000
0000
0001
0100
0010
0000
1000
0010
0100
0000
0010
1000
0001
0000
0010
0000
,
0000
0000
0001
1000
0001
0000
0100
0000
0000
0000
0010
0100
0010
1000
0100
0000
,
0000
0000
1000
0010
0100
0010
1000
0000
0000
0000
0001
0010
0100
0010
0001
0000
,
0000
0000
1000
0010
0100
0001
0010
0000
0000
0000
0110
0000
0000
0000
1001
0000
,
0000
0000
0001
1000
0010
0100
0001
0000
0000
0000
0010
0100
1000
0010
0100
0000
,
0000
0000
0001
0100
0010
0100
0001
0000
0010
0000
0000
1100
0000
0000
0101
0000
,
0020
0000
0000
0000
,
0000
0000
0000
0000
0030
0000
0000
0000
0110
0000
0000
1001
0000
0000
0100
0000
,
0010
0000
1000
0000
0100
1000
0000
0010
1000
0000
0100
1000
0000
0010
1000
0000
,
0001
0000
0100
0000
0010
0100
0000
0001
0010
0000
0000
0101
0000
0000
1010
0000
,
1000
0000
0100
0000
1000
0010
1000
0000
0001
0000
0100
0010
0100
0000
0001
0000
,
0010
0000
0001
0000
0100
0010
1000
0000
0010
0000
1000
0100
0010
0000
0001
0000
,
0100
0000
0010
0000
1000
0001
0100
0000
0001
0000
0010
0100
1000
0000
0010
0000
,
0100
0001
0100
0001
1000
0010
1000
0010
0100
0001
0010
0100
1000
0010
0100
0001
,
0010
0000
0110
0000
0000
1001
0100
1001
;
