#TITLE:Aerial Skydive;
#SUBTITLE:;
#ARTIST:Dirty Androids;
#TITLETRANSLIT:;
#SUBTITLETRANSLIT:;
#ARTISTTRANSLIT:;
#GENRE:;
#CREDIT:;
#BANNER:Aerial_Skydive_banner.png;
#BACKGROUND:Aerial_Skydive.png;
#LYRICSPATH:;
#CDTITLE:;
#MUSIC:Aerial Skydive.ogg;
#OFFSET:-0.460000;
#SAMPLESTART:23.730000;
#SAMPLELENGTH:15.000000;
#LASTBEATHINT:324.000000;
#SELECTABLE:YES;
#BPMS:0.000000=175.000000
;
#STOPS:
;
#BGCHANGES:;
#KEYSOUNDS:;
#ATTACKS:;

//---------------dance-single - ----------------
#NOTES:
     dance-single:
     :
     Easy:
     7:
     0.304018,0.352143,0.052331,0.104662,0.000000,244.000000,238.000000,6.000000,12.000000,0.000000,0.000000,0.304018,0.352143,0.052331,0.104662,0.000000,244.000000,238.000000,6.000000,12.000000,0.000000,0.000000:
0000
0000
0000
0000
,
0000
0000
0000
0000
,
0000
0000
0000
0000
,
0000
0000
0000
0000
,
0010
0000
0010
0000
,
1000
0000
1000
0000
,
0001
0000
0001
0000
,
0100
0000
0110
0000
,
0001
0010
0000
0010
,
0001
1000
0000
1000
,
0100
0010
0000
0010
,
0100
1000
0000
1000
,
0001
0100
0001
0100
,
0010
1000
0010
1000
,
0001
0010
0100
1000
,
2002
0000
0000
0000
0000
3003
0000
0000
,
0020
0000
0000
0000
0000
0030
0000
0000
,
1000
0100
0000
0100
,
0010
0001
0000
0001
,
0100
0010
0000
0010
,
1000
0001
1000
0010
,
0100
0001
0000
0001
,
0010
0100
0000
0100
,
1000
0001
0000
0001
,
1000
0010
0100
0001
,
0010
0000
0100
0000
0000
0010
0100
0000
,
1000
0000
0001
0000
0000
1000
0001
0000
,
0200
0000
0000
0310
0000
0000
0010
0000
,
2000
0000
0000
3001
0000
0000
0001
0000
,
0010
0000
0100
0000
0000
1000
0100
0000
,
1000
0000
0001
0000
0000
0010
0001
0000
,
1000
0001
0100
0010
,
0220
0000
0000
0000
0000
0330
0000
0000
,
0001
0010
0001
1000
,
0100
0010
0100
0000
,
1000
0010
0100
0001
,
0010
0100
1000
0000
,
0010
0100
0001
0100
,
0010
1000
0001
0000
,
0010
0001
1000
0100
,
0020
0000
0000
0030
,
0001
0100
0001
1000
,
0100
1000
0010
0000
,
1000
0001
0100
0010
,
1000
0100
0010
0000
,
0001
0100
0001
0000
,
1000
0100
1000
0000
,
0010
1000
0100
0010
,
0001
0000
0000
1000
0000
0000
0001
0000
,
0200
0000
0310
0000
,
0010
1000
0001
0000
,
2000
0000
3100
0000
,
0001
0100
0010
0000
,
0200
0000
0301
0000
,
1000
0100
0010
0000
,
0101
0000
0010
0000
,
1000
0001
1001
0000
,
0010
0000
0000
0010
0000
0000
0010
0000
,
0100
0000
0000
0100
0000
0000
0100
0000
,
0001
0000
0000
0001
0000
0000
0001
0000
,
1000
0000
0000
1000
0000
0000
1000
0000
,
0001
0010
0100
0010
,
0001
1000
0010
0000
,
1000
0000
0000
0001
0000
0000
0100
0000
,
0020
0000
0030
0000
,
1000
0000
0100
0000
0000
1000
0001
0000
,
0100
0000
0000
0010
0000
0000
0010
0000
,
1000
0000
0001
0000
0000
0010
0001
0000
,
0100
0000
0000
0010
0000
0000
0010
0000
,
1000
0000
0001
0000
0000
0010
0001
0000
,
0100
0000
0000
0001
0000
0000
1000
0000
,
0010
0100
0001
1000
,
0001
0000
0000
1000
0000
0000
0001
0000
,
0010
0001
0000
0001
,
1000
0100
0000
0100
,
0010
0000
0000
0100
0000
0000
0010
0000
,
0001
0000
0000
1000
0000
0000
0001
0000
,
0010
0100
0001
0100
,
1000
0010
0100
0000
,
0010
0100
1000
0100
,
0001
0010
0001
1001
;

//---------------dance-single - ----------------
#NOTES:
     dance-single:
     :
     Medium:
     11:
     0.529539,0.529033,0.296542,0.122105,0.017444,425.000000,391.000000,34.000000,14.000000,0.000000,0.000000,0.529539,0.529033,0.296542,0.122105,0.017444,425.000000,391.000000,34.000000,14.000000,0.000000,0.000000:
0000
0000
0000
0000
,
0000
0000
0000
0000
,
0000
0000
0000
0000
,
0000
0000
0000
0000
,
0001
0000
1000
0010
0000
1000
0001
0000
,
0100
0000
0001
0010
0000
0001
1000
0000
,
0010
0100
0001
0000
1000
0100
0010
0000
,
0001
1000
0100
0010
0000
0010
0100
0000
,
2100
0000
0001
0000
0000
3001
0000
0000
,
0210
0000
0000
0010
0000
0000
0301
0000
,
0011
0000
1000
0010
0000
0001
0010
0000
,
1000
0100
0010
0100
0000
0010
0001
0000
,
1000
0010
1000
0000
0001
0100
0001
0000
,
1000
0100
1000
0000
0001
0010
0001
0000
,
1000
0001
0010
0001
0000
1000
0100
0000
,
0010
0000
0000
0010
0000
0000
0010
0000
0100
0000
1000
0000
0001
0000
0000
0000
,
0220
0000
0000
0330
,
0001
0010
0100
0010
0000
0001
1000
0000
,
0010
1000
0001
0100
0000
0010
1000
0000
,
0100
1000
0100
0010
0000
0100
1000
0000
,
0001
0010
0100
0010
0000
0001
0010
0000
,
0001
1000
0100
1000
0000
0010
0100
0000
,
0010
1000
0001
0010
0000
0001
0100
0000
,
0010
0100
0010
1000
0000
1000
0001
0000
,
1001
0000
0000
0110
0000
0000
0101
0000
,
0010
1000
0100
1000
0000
0001
0010
0000
,
0100
1000
0001
0010
0000
0010
0001
0000
,
0101
0000
0000
1010
0000
0000
1100
0000
,
0011
0000
0000
0101
0000
0000
1010
0000
,
0100
0001
1000
0100
0000
1000
0001
0000
,
1000
0010
0100
0001
0000
0010
0100
1000
,
0001
0000
0010
0001
0000
1000
0010
1000
,
0001
0010
0001
1000
0010
0100
0010
0000
,
1000
0000
0100
0000
1000
0000
0001
0010
,
0001
0000
1000
0010
0000
0010
0100
0000
,
0001
1000
0100
1000
,
0010
0000
0100
0010
0000
0010
0100
0000
,
0011
1000
0010
0100
,
0001
0000
1000
0100
0000
0100
0010
0000
,
0001
0000
1000
0000
0010
0100
0010
0000
,
2000
0000
0000
3010
0000
0000
0101
0000
,
0001
0000
0011
0000
0010
0100
0010
0000
,
0100
0000
1100
0000
1000
0001
1000
0000
,
0010
0000
0110
0000
1000
0001
1000
0000
,
0001
0000
0011
0000
1000
0010
0100
0000
,
0010
0000
1010
0000
0100
0001
1000
0000
,
0001
0000
0100
0010
0100
0001
1000
0000
,
0001
0000
0010
0000
0100
1000
0001
1000
,
0010
0000
0000
0010
0000
0000
0010
0000
0000
0000
0100
0000
0010
0000
0000
0000
,
2100
0000
0001
0000
,
3002
0000
0010
0000
0013
0000
0000
0100
,
0120
0000
1000
0000
,
1030
0100
0001
0000
0001
0100
1000
0000
,
0001
0000
0000
0010
0000
0001
1000
0000
0000
0010
0000
0000
,
1000
0000
0000
0001
0000
1000
0100
0000
0000
0010
0000
0000
,
0001
0000
1000
0010
0100
0000
0110
0000
,
1000
0001
0010
0000
0220
0000
0330
0000
,
0002
0000
0000
0010
0000
0000
0010
0000
,
2003
0000
0000
0100
0000
0000
0100
0000
,
3020
0000
0000
0100
0000
0000
0100
0000
,
2030
0000
0000
0001
0000
0000
0001
0000
,
3001
0000
0010
0000
0001
1000
0000
1000
,
0010
0000
0100
0010
0000
0010
1000
0000
,
0110
0000
0001
0001
0000
1000
1000
0000
,
0001
1000
0100
0010
0100
1000
0001
0000
,
0100
0010
1000
0010
0000
0100
0001
0000
,
0010
0001
0100
0010
0000
1000
0001
0000
,
0100
0001
1000
0100
0000
1000
0010
0000
,
0010
1000
0001
0010
0000
0001
0100
0000
,
0110
0000
1000
0000
0001
1000
0100
0000
,
1000
0001
0010
0100
0000
0100
0010
0000
,
0001
1000
0010
1000
0000
0010
0100
0010
,
1000
0000
0100
1100
0000
0001
0011
0000
,
1000
0100
0001
0100
0000
0001
0100
0000
,
1000
0010
0001
0010
0000
0001
0010
0000
,
0110
0000
0000
1010
0000
0000
0011
0000
,
0101
0000
0000
1100
0000
0000
0101
0000
,
0010
1000
0001
0010
0000
0010
0001
1000
,
0100
1000
0001
0100
0000
0100
0001
1000
,
0010
1000
0100
1000
0000
0001
0010
0001
,
1000
0010
0100
0001
0000
0010
1000
0001
;

//---------------dance-single - ----------------
#NOTES:
     dance-single:
     :
     Hard:
     15:
     0.784964,0.774715,0.287820,0.148271,0.427369,630.000000,597.000000,33.000000,17.000000,0.000000,0.000000,0.784964,0.774715,0.287820,0.148271,0.427369,630.000000,597.000000,33.000000,17.000000,0.000000,0.000000:
// measure 0
0000
0000
0000
0000
,  // measure 1
0000
0000
0000
0000
,  // measure 2
0000
0000
0000
0000
,  // measure 3
0000
0000
0000
0000
,  // measure 4
0010
1000
0001
0010
1000
0010
0001
0000
,  // measure 5
1001
0000
0100
0010
0000
0100
0010
1000
,  // measure 6
0001
0100
1000
0100
0001
1000
0100
0000
,  // measure 7
0110
0000
0010
0001
0000
0010
0001
1000
,  // measure 8
0020
0000
0100
0000
0000
1000
1030
0001
,  // measure 9
0200
0000
0010
0001
0300
0001
0010
0000
,  // measure 10
2100
0000
0001
0000
0000
0010
3010
0100
,  // measure 11
0002
0000
0013
2000
0000
3010
0100
0001
,  // measure 12
0010
0000
0001
0000
1000
0000
0100
0000
1000
0010
0100
0000
0001
0000
0010
0000
,  // measure 13
0001
0000
1000
0000
0100
0000
0010
0100
0000
0100
1000
0000
0002
0000
0000
0000
,  // measure 14
0103
0000
0010
0000
0100
0000
0001
0000
1000
0100
0010
0000
0001
0000
1000
0000
,  // measure 15
0010
0000
0000
0110
0000
0000
1001
0000
0000
0000
0100
0000
0001
0010
0100
0000
,  // measure 16
2000
0000
0000
0001
0000
0000
3001
0000
0000
0000
0010
0000
0110
0000
0000
0000
,  // measure 17
0001
0000
0010
0001
1000
0000
0010
0000
0100
0001
1000
0000
0010
0000
0100
0000
,  // measure 18
0001
0000
0010
0100
1000
0000
0100
0000
0000
0000
0010
0000
0100
1000
0001
0000
,  // measure 19
0100
0000
0010
1000
0001
0000
1000
0000
0001
0010
0100
0000
1000
0000
0010
0000
,  // measure 20
0100
0000
0001
1000
0010
0000
0100
0000
0000
0000
0100
0000
1010
0000
0000
0000
,  // measure 21
0001
0000
0010
0100
0010
0000
0001
0000
1000
0100
0010
0000
0100
0000
1000
0000
,  // measure 22
0001
0000
0100
0010
0100
0000
0010
0000
0000
0000
0010
0000
1000
0100
0010
0000
,  // measure 23
0001
0000
1000
0100
1000
0000
0001
0000
0100
0010
0100
0000
0001
0000
1000
0000
,  // measure 24
0010
0000
0100
0000
0110
0000
2000
0000
0000
0000
3001
0000
0010
0100
1000
0000
,  // measure 25
0001
0000
1000
0010
0100
0000
0010
0000
1000
0100
0010
0000
0100
0000
1000
0000
,  // measure 26
0001
0000
0010
0100
0001
0000
0100
0000
0000
0000
0100
0000
1000
0010
0100
0000
,  // measure 27
0010
0000
1000
1010
0000
0001
0011
1000
,  // measure 28
0101
0000
0000
0000
0010
0000
1010
0000
0000
0000
0001
0000
1000
0100
0010
0000
,  // measure 29
0001
0000
1000
0100
0010
0000
0100
0000
1000
0001
0010
0000
0001
0000
1000
0000
,  // measure 30
0010
0000
1000
0010
0100
0000
0010
0000
0000
0000
0010
0000
1000
0001
0010
0000
,  // measure 31
0001
0000
0010
0001
1000
0000
0010
0000
0000
0000
0010
0000
0100
0001
0100
0000
,  // measure 32
0010
0000
0010
0000
0100
0000
0100
0000
0001
0010
0100
0010
0001
0000
0000
0000
,  // measure 33
1100
0000
0001
0010
0000
0010
0001
1000
,  // measure 34
0010
0100
0010
0000
1000
0000
0001
0000
0000
0000
0001
0000
0100
0000
0000
0000
,  // measure 35
0110
0000
0000
0000
1000
0000
0100
0000
0000
0000
0100
0000
0010
0001
0010
0000
,  // measure 36
0001
0000
1000
0000
0010
0000
0100
0010
0000
0000
0100
0000
0001
0010
0001
0000
,  // measure 37
1000
0000
0000
0000
0001
0000
0100
0000
1000
0000
0100
0000
0010
1000
0100
0000
,  // measure 38
1000
0000
0001
0000
0010
0000
0100
0000
0000
0000
0100
0000
0010
0001
1000
0000
,  // measure 39
0001
0000
0000
0000
1001
0000
0000
0000
0100
0000
0010
0000
1000
0001
0010
0000
,  // measure 40
0200
0000
1300
0020
0000
1030
1001
0000
,  // measure 41
0001
0000
0010
0001
1000
0000
0010
0000
1000
0001
0010
0000
0001
0000
0000
0000
,  // measure 42
1000
0000
0001
1000
0100
0000
1000
0000
0001
1000
0100
0000
1000
0000
0000
0000
,  // measure 43
0010
0000
1000
0100
1000
0000
0010
0000
1000
0100
0010
0000
0001
0000
0000
0000
,  // measure 44
0100
0000
0010
0100
0010
0000
0100
0000
0001
0010
0100
0000
1000
0000
0000
0000
,  // measure 45
0010
0000
0000
0000
0110
0000
0000
0000
1000
0001
0010
0000
0001
0000
0000
0000
,  // measure 46
1000
0000
0000
0000
0011
0000
0000
0000
0100
0010
1000
0000
0001
0000
0000
0000
,  // measure 47
1000
0000
0000
0000
0101
0000
0000
0000
0010
1000
0100
0000
1000
0000
0000
0000
,  // measure 48
0010
0000
0000
1010
0000
0000
0011
0000
0000
0000
0010
0100
0010
0000
0000
0000
,  // measure 49
0002
0000
0010
0010
0010
0000
1003
0000
,  // measure 50
2000
0000
0000
0000
0010
0000
0010
0000
0010
0000
0000
0000
3100
0000
0010
0001
,  // measure 51
0020
0000
0001
0001
0001
0000
0130
0000
,  // measure 52
1000
0000
0010
0000
1000
0000
0001
0000
0010
0100
1000
0000
0002
0000
0000
0000
,  // measure 53
1003
0000
0010
0100
0000
0001
0010
0000
0001
0010
0100
1000
,  // measure 54
0010
0000
0000
0000
0100
0000
0000
0000
0001
0000
0000
0000
1000
0000
0000
0000
0100
0000
0000
0000
0010
0000
0000
0000
0001
0000
0000
0000
0000
0000
0000
0000
0000
0000
0000
0000
1000
0000
0000
0000
0000
0000
0010
0000
0000
0100
0000
0000
,  // measure 55
0010
0000
0000
0000
0100
0000
0001
1000
0010
0000
0100
0000
0001
0000
0010
0000
,  // measure 56
0200
0000
0000
0000
1300
0000
0010
0000
1000
0000
0001
0000
0010
0000
0100
0010
,  // measure 57
0001
1000
0001
0010
0000
0010
0100
1000
,  // measure 58
0100
1000
0010
0100
0001
0010
0100
0000
,  // measure 59
1000
0010
0001
0010
0000
0010
1000
0100
,  // measure 60
0010
1000
0010
0001
0000
0001
1000
0010
,  // measure 61
1000
0001
0100
0001
1000
0100
0001
0000
,  // measure 62
0100
0000
1000
0000
0010
0000
1000
0000
0100
0000
0010
0000
0001
0000
1000
0001
,  // measure 63
1000
0000
0000
0011
0000
0000
0101
0000
,  // measure 64
1000
0000
0010
0100
0010
0000
1000
0000
0001
0010
0100
0000
1000
0000
0000
0000
,  // measure 65
0010
0000
0100
0010
0100
0000
0001
0000
1000
0100
1000
0000
0010
0000
0100
0000
,  // measure 66
0001
0000
1000
0100
0010
0000
0001
0000
0000
0000
0001
0000
0010
0100
1000
0000
,  // measure 67
0010
0000
0100
0001
1000
0000
0010
0000
0000
0000
0010
0000
1000
0001
0010
0000
,  // measure 68
0001
0000
1000
0100
0010
0000
0100
0000
0000
0000
0100
0000
1000
0001
0010
0000
,  // measure 69
0001
0000
0100
0010
1000
0000
0001
0000
1000
0010
0100
0000
0010
0000
1000
0000
,  // measure 70
0001
0000
0010
0100
1000
0000
0100
0000
0000
0000
0100
0000
1000
0100
0010
0000
,  // measure 71
0001
0000
1000
0100
1000
0000
0001
0000
1000
0001
0100
0000
0010
0000
0100
0000
,  // measure 72
0001
0000
0010
0001
1000
0000
0010
0000
0000
0000
0010
0000
2002
0000
3003
0000
,  // measure 73
0001
0000
0100
1000
0100
0000
0001
0000
1000
0100
1000
0000
0001
0000
0010
0000
,  // measure 74
0001
0000
0010
1000
0010
0000
0001
0000
0000
0000
0001
0000
1000
0100
0010
0000
,  // measure 75
0011
0000
1000
1100
0000
0010
0101
0000
,  // measure 76
1010
0000
0000
0000
0001
0000
0011
0000
0000
0000
1000
0000
0010
0100
0010
0000
,  // measure 77
1000
0000
0001
0010
0001
0000
1000
0000
0001
0010
0100
0000
1000
0000
0010
0000
,  // measure 78
1000
0000
0001
1000
0100
0000
1000
0000
0001
1000
0100
0000
0010
0000
0001
0000
,  // measure 79
1000
0000
0001
0100
0010
0000
0100
0000
0000
0000
0100
0000
1100
0000
0000
0000
,  // measure 80
0101
0000
0000
0011
0000
0000
1010
0000
0000
0000
0100
0001
1000
0000
0000
0000
;
