#TITLE:ATRAX;
#SUBTITLE:;
#ARTIST:BEMANI Sound Team "HuΣeR";
#TITLETRANSLIT:;
#SUBTITLETRANSLIT:;
#ARTISTTRANSLIT:HuMeR;
#GENRE:;
#CREDIT:;
#BANNER:ATRAX_banner.png;
#BACKGROUND:ATRAX.png;
#LYRICSPATH:;
#CDTITLE:;
#MUSIC:ATRAX.ogg;
#OFFSET:-0.090000;
#SAMPLESTART:37.584999;
#SAMPLELENGTH:15.000000;
#LASTBEATHINT:244.500000;
#SELECTABLE:YES;
#BPMS:0.000000=128.000000
;
#STOPS:
;
#BGCHANGES:;
#KEYSOUNDS:;
#ATTACKS:;

//---------------dance-single - ----------------
#NOTES:
     dance-single:
     :
     Easy:
     5:
     0.228330,0.249736,0.099894,0.108219,0.000000,192.000000,180.000000,12.000000,13.000000,0.000000,0.000000,0.228330,0.249736,0.099894,0.108219,0.000000,192.000000,180.000000,12.000000,13.000000,0.000000,0.000000:
0000
0000
0000
0000
,
0000
0000
0000
0000
,
0000
0000
0000
0000
,
0000
0000
0000
0000
,
0100
0010
0000
0010
,
1000
0001
0000
0001
,
0010
0100
0000
0100
,
2000
0000
3001
1001
,
0010
0100
0010
0000
,
1000
0100
1000
0000
,
0001
0100
0001
0000
,
0020
0000
0030
0110
,
1000
0100
0010
0100
,
2000
0000
3001
0001
,
0010
0100
0010
0001
,
0200
0000
0310
0010
,
1000
0001
0010
0100
,
0010
0001
1000
0000
,
0010
1000
0001
0100
,
0020
0000
0030
1001
,
0100
0010
1000
0000
,
0001
0010
0100
0000
,
0010
0001
1000
0010
,
0200
0000
0300
0001
,
0010
0001
1000
0000
,
0010
1000
0100
0000
,
1000
0001
0010
0100
,
0200
0000
0300
1001
,
0010
0100
0001
0000
,
1000
0010
0100
0000
,
0001
0010
0100
1000
,
0001
1000
0010
0000
,
0100
0010
1000
0000
,
0001
0010
0100
0000
,
0010
0001
1000
0100
,
0220
0000
0000
0330
,
0001
0010
0000
0010
,
0001
0100
0000
0100
,
0010
1000
0000
1000
,
0100
1000
0001
0000
,
0100
0010
0010
0000
,
1000
0001
0001
0000
,
0100
0010
1000
0001
,
0022
0000
0000
0033
0000
0000
1100
0000
,
0010
0010
1000
0001
,
0100
0100
0100
0000
,
0001
1000
0010
0100
,
0001
1000
0001
0000
,
0010
0100
1000
0001
,
1000
0100
0010
0000
,
0001
1000
0010
0100
,
0220
0000
0330
1001
,
0010
0010
0010
0010
,
1000
0100
0001
0100
,
1000
1000
1000
1000
,
0001
0010
1000
0010
,
0001
0001
0001
0001
,
0100
0010
0100
0010
,
1100
0000
0101
0000
,
0010
0100
1000
0001
,
1001
0000
0000
0000
;

//---------------dance-single - ----------------
#NOTES:
     dance-single:
     :
     Medium:
     9:
     0.379360,0.374604,0.241411,0.108219,0.124868,319.000000,290.000000,29.000000,13.000000,0.000000,0.000000,0.379360,0.374604,0.241411,0.108219,0.124868,319.000000,290.000000,29.000000,13.000000,0.000000,0.000000:
0000
0000
0000
0000
,
0000
0000
0000
0000
,
0000
0000
0000
0000
,
0000
0000
0000
0000
,
1001
0000
0000
0000
0010
0000
0000
0000
0100
0000
0000
0100
0000
0000
0100
0000
,
0000
0000
0001
0000
0001
0000
0000
0000
0010
0000
0000
0100
0000
0000
1000
0000
,
0001
0000
0000
0000
1100
0000
0000
0000
0010
0000
0000
1000
0000
0000
0010
0000
,
0000
0100
0100
0000
0001
0000
0011
0000
,
1000
0000
0000
0000
1100
0000
0000
0000
0001
0000
0000
0100
0000
0000
0010
0000
,
0000
1000
1000
0000
0001
0010
0100
0000
,
1000
0000
0000
0000
0101
0000
0000
0000
1000
0000
0000
0001
0000
0000
0010
0000
,
0100
0010
0100
0000
1000
0000
1001
0000
,
0010
0000
0000
0000
0110
0000
0000
0000
0001
0000
0000
1000
0000
0000
0001
0000
,
0000
0000
0010
0000
0010
0000
0000
0000
0001
0000
0000
0010
0000
0000
0100
0000
,
1000
0000
0000
0000
1010
0000
0000
0000
0100
0000
0000
0001
0000
0000
1000
0000
,
0000
0010
0010
0000
0100
0001
0100
0000
,
0001
0000
0000
0000
0011
0000
0000
0000
1000
0000
0000
0100
0000
0000
1000
0000
,
0000
0001
0001
0000
0010
0100
0010
0000
,
0001
0000
0000
0000
1001
0000
0000
0000
0010
0000
0000
0100
0000
0000
1000
0000
,
0020
0000
0000
0130
0000
0000
1001
0000
,
0001
0000
0001
0010
0100
1000
0001
0000
,
0010
0000
0012
0000
0000
1000
1003
0000
,
0100
0000
0010
1000
0001
1000
0010
0000
,
1000
0001
0100
0000
0001
1000
0100
0000
,
2000
0000
3001
0010
0100
0010
0001
0000
,
0100
0000
0210
0000
0000
0001
0301
0000
,
1000
0000
0001
1000
0100
1000
0001
0000
,
2000
0010
3001
0110
,
0001
0000
0000
0011
0000
0000
0000
0000
1000
0000
0000
1100
0000
0000
0000
0000
,
0010
0000
0000
0220
0000
0000
0000
0000
0330
0000
0000
0000
1001
0000
0000
0000
,
0001
0000
0000
0101
0000
0000
0000
0000
1000
0000
0000
1100
0000
0000
0000
0000
,
0001
0000
0000
1001
0000
0000
0000
0000
0200
0000
0000
0000
0310
0000
0000
0000
,
1000
0000
0000
0010
0000
0000
1000
0000
0001
0000
0000
0100
0000
0000
0001
0000
,
0100
0000
0000
0220
0000
0000
0000
0000
0330
0000
0000
0000
0001
0000
0010
0000
,
0001
0000
0000
0101
0000
0000
0000
0000
1000
0000
0000
1010
0000
0000
0000
0000
,
0002
0010
1003
0110
,
1000
0000
0000
0100
0000
0000
1000
0000
0001
0000
0000
0000
0001
0000
0000
0000
,
0010
0000
0000
0001
0000
0000
1000
0000
0010
0000
0000
0000
0010
0000
0000
0000
,
0100
0000
0000
0001
0000
0000
1000
0000
0100
0000
0000
0000
0100
0000
0000
0000
,
1000
0001
0010
0100
,
1000
0000
0000
0001
0000
0000
1000
0000
0010
0000
0000
0100
0000
0000
0010
0000
,
1000
0100
0010
0001
,
0100
0000
0000
0001
0000
0000
0100
0000
0010
0000
0000
1000
0000
0000
0010
0000
,
2000
0100
3001
0110
,
0001
0001
0001
0000
1000
0100
0010
0000
,
0001
0100
0000
0100
0010
1000
0001
0000
,
0010
0000
0001
1000
0010
0100
0001
0000
,
1000
0100
0000
0100
0010
0000
0011
0000
,
1000
0001
1000
0000
0010
0100
0010
0000
,
1000
0001
0000
0001
0010
0100
1000
0000
,
0010
0000
0000
0100
0000
0000
0100
0000
0001
0000
0000
0010
0000
0000
0010
0000
,
0001
0100
1000
0100
0001
0000
1001
0000
,
1000
0010
0000
0010
1000
0001
0000
0001
,
0010
0100
0000
0100
1000
0001
1000
0000
,
0001
0010
0000
0010
0100
1000
0000
1000
,
0010
0100
0000
0100
0001
1000
0001
0000
,
1000
0010
1000
0010
1000
0010
1000
0000
,
0001
0010
0001
0010
0001
0010
0001
0000
,
0100
0010
1000
0001
1000
0100
0010
0000
,
0001
0100
0010
1000
0002
0000
1003
0000
,
0110
0000
0000
0000
;

//---------------dance-single - ----------------
#NOTES:
     dance-single:
     :
     Hard:
     16:
     0.724234,0.749207,0.241411,0.149841,1.152946,609.000000,580.000000,29.000000,18.000000,0.000000,0.000000,0.724234,0.749207,0.241411,0.149841,1.152946,609.000000,580.000000,29.000000,18.000000,0.000000,0.000000:
// measure 0
0000
0000
0000
0000
,  // measure 1
0000
0000
0000
0000
,  // measure 2
0000
0000
0000
0000
,  // measure 3
0000
0000
0000
0000
,  // measure 4
1100
0000
0000
0000
0011
0000
0000
0000
1000
0000
0000
0001
0010
0000
0001
0000
,  // measure 5
0100
0010
0000
0010
1000
0000
0001
0000
1000
0000
0000
0101
0000
0000
0010
0000
,  // measure 6
0011
0000
0000
0000
1010
0000
0000
0000
0100
0000
0000
0001
1000
0000
0010
0000
,  // measure 7
1000
0001
0000
0001
0010
0000
0100
0000
1000
0000
0001
0010
0100
0010
0001
0000
,  // measure 8
1000
0000
0010
0000
1100
0000
0000
0000
0001
0010
0000
0001
1000
0000
0010
0000
,  // measure 9
0100
0001
0000
0001
1000
0000
0100
0000
1000
0000
0100
0010
0001
0010
0100
0000
,  // measure 10
1000
0000
0001
0000
0011
0000
0000
0000
0100
0010
0000
0010
1000
0000
0001
0000
,  // measure 11
1000
0000
0010
0001
0000
0010
1000
0000
0010
0100
0001
1000
0200
0000
0000
0000
,  // measure 12
1300
0001
0000
0001
0000
0101
0000
0010
0000
0010
0000
0010
1000
0100
0000
0100
,  // measure 13
1000
0001
0010
0001
1000
0010
0000
0010
0100
0001
0000
0001
0010
0100
1000
0000
,  // measure 14
0010
1000
0000
1100
0000
0001
0000
0101
0000
0010
0000
1000
0001
1000
0100
0000
,  // measure 15
1000
0010
0100
0010
1000
0000
0001
0000
0010
0001
1000
0001
0020
0000
0000
0000
,  // measure 16
0031
0100
0000
0101
0000
0010
0000
1010
0000
1000
0000
1000
0001
0010
0001
0000
,  // measure 17
0100
0010
0000
0010
1000
0001
0000
0001
1000
0100
0010
0100
1000
0000
0001
0000
,  // measure 18
0100
0010
0000
1010
0000
1000
0000
1001
0000
0010
0000
0010
0001
1000
0100
0000
,  // measure 19
1000
0010
1000
0010
0100
0000
0001
0000
0010
0001
0010
0001
0200
0000
0000
0000
,  // measure 20
0301
0010
0000
0000
1000
0000
0010
0000
0001
0000
1000
0100
0000
1000
0010
0000
,  // measure 21
0100
0001
0012
0000
1003
0100
1000
0001
,  // measure 22
1000
0010
0000
0000
0001
0000
0010
0000
1000
0000
0001
0010
0000
0001
0100
0000
,  // measure 23
0001
1000
0100
0000
0010
0001
1000
0000
0010
0100
0010
0000
1000
0000
0001
0000
,  // measure 24
1000
0100
0000
0000
0001
0000
0100
0000
1000
0000
0001
0010
0000
0100
1000
0000
,  // measure 25
0010
0100
0102
0000
1003
0010
1000
0001
,  // measure 26
0010
1000
0000
0000
0010
0000
0001
0000
0100
0000
0010
1000
0000
0001
0100
0000
,  // measure 27
0001
0010
0100
0000
1000
0010
0100
0000
0001
1000
0001
1000
0200
0000
0000
0000
,  // measure 28
1300
0000
0010
0100
0000
0101
0000
0100
0010
1000
0000
1000
0001
0000
0010
0000
,  // measure 29
0001
0000
1000
0100
0000
0110
0000
0100
1000
0001
0000
1000
0001
0000
0010
0000
,  // measure 30
0001
0000
0100
0010
0000
1010
0000
0010
0100
0001
0000
0001
1000
0000
0100
0000
,  // measure 31
1000
0000
0001
0010
0000
0110
0000
0010
0001
1000
0100
0000
1000
0001
0010
0000
,  // measure 32
0001
0000
1000
0010
0000
0110
0000
0010
1000
0001
0000
0001
1000
0000
0100
0000
,  // measure 33
1000
0000
0010
0100
0000
0101
0000
0100
0010
1000
0000
0001
1000
0000
0100
0000
,  // measure 34
0010
0000
0001
1000
0000
1100
0000
1000
0010
0100
0000
0100
0001
0000
0010
0000
,  // measure 35
0001
0010
0100
0000
0010
0100
1000
0000
0001
1000
0100
0010
0200
0000
0000
0000
,  // measure 36
2300
0000
0000
0010
0000
0010
0000
0010
0000
0010
0000
3010
0000
0100
0000
0010
,  // measure 37
0200
0001
0000
0001
0000
0010
0000
0010
0000
0001
0000
0301
0000
0010
0000
0001
,  // measure 38
2000
0100
0000
0001
0000
0001
0000
0001
0000
0010
0000
3010
0000
0100
0000
0001
,  // measure 39
0010
0001
0010
0000
0001
1000
0001
0000
1000
0010
0100
0001
0010
0000
0001
0000
,  // measure 40
0002
0000
0000
0100
0003
0100
0000
0100
0002
0100
0000
0100
0003
0010
0100
0010
,  // measure 41
1000
0100
0000
0100
0000
0010
0000
0010
0001
1000
0000
1000
0000
0100
1000
0100
,  // measure 42
0020
0001
0030
0001
2000
0100
3000
0100
0020
0100
0030
0100
0000
1000
0001
1000
,  // measure 43
0100
1000
0100
0000
1000
0001
1000
0000
0001
0100
0010
1000
0200
0000
0000
0000
,  // measure 44
1300
0001
1000
0001
1000
0010
0000
0010
0100
0010
0000
0010
0000
1000
0000
0001
,  // measure 45
0010
0100
0000
0100
1000
0001
0000
0001
0100
0010
0000
0010
1000
0001
1000
0000
,  // measure 46
0001
0100
0000
0101
0000
1000
0000
1010
0000
0001
0000
0011
0000
1000
0001
1000
,  // measure 47
0010
0100
0000
0100
0010
0100
0000
0100
0001
1000
0001
1000
0001
0000
0010
0000
,  // measure 48
0100
1000
0000
1010
0000
0100
0000
0100
0001
0010
0000
0010
0100
1000
0001
1000
,  // measure 49
0010
0100
0000
0010
1000
0001
0000
1000
0001
0010
0001
1000
0001
0000
0100
0000
,  // measure 50
0010
1000
0000
1000
0100
1000
0000
1000
0001
0010
0000
0010
0001
1000
0010
1000
,  // measure 51
0000
0001
1000
0001
0000
0010
0100
0010
0001
0010
0100
0010
0002
0000
0000
0000
,  // measure 52
0103
0100
0010
0010
1000
1000
0001
0001
,  // measure 53
1000
0100
1000
0000
0001
0010
0001
0000
1000
0010
1000
0000
0001
0100
0001
0000
,  // measure 54
1000
0010
0000
0010
0100
0001
0000
0001
0010
0100
0000
0100
1000
0001
1000
0001
,  // measure 55
0010
0100
0000
0100
1000
0010
0000
0010
0001
0010
1000
0100
2000
0000
0000
0000
,  // measure 56
3001
0010
0001
0000
0100
0010
0100
0000
0010
1000
0010
0000
1000
0100
1000
0000
,  // measure 57
0001
0010
0100
0000
0010
0100
1000
0000
1000
0010
0100
0000
0010
0100
0001
0000
,  // measure 58
1000
0001
1000
0001
1000
0001
1000
0001
0010
0100
0010
0100
0010
0100
0010
0100
,  // measure 59
1000
0001
0010
0100
1000
0001
1000
0000
0010
0000
1000
0000
0110
0000
0000
0000
,  // measure 60
0011
0000
0000
0000
;
