#TITLE:AREA 51;
#SUBTITLE:;
#ARTIST:96;
#TITLETRANSLIT:;
#SUBTITLETRANSLIT:;
#ARTISTTRANSLIT:;
#GENRE:;
#CREDIT:;
#BANNER:AREA_51_banner.png;
#BACKGROUND:AREA_51.png;
#LYRICSPATH:;
#CDTITLE:;
#MUSIC:AREA 51.ogg;
#OFFSET:-0.760000;
#SAMPLESTART:44.000000;
#SAMPLELENGTH:12.000000;
#LASTBEATHINT:321.000000;
#SELECTABLE:YES;
#BPMS:0.000000=188.000000
;
#STOPS:
;
#BGCHANGES:;
#KEYSOUNDS:;
#ATTACKS:;

//---------------dance-single - ----------------
#NOTES:
     dance-single:
     :
     Easy:
     7:
     0.293018,0.372350,0.167820,0.214436,0.000000,220.000000,202.000000,18.000000,23.000000,0.000000,0.000000,0.293018,0.372350,0.167820,0.214436,0.000000,220.000000,202.000000,18.000000,23.000000,0.000000,0.000000:
0000
0000
0000
0000
,
0000
0000
0000
0000
,
0000
0000
0000
0000
,
0000
0000
0000
0000
0000
0000
0000
0010
,
0000
0110
0000
0000
0000
0000
0000
0100
,
0000
0110
0000
0000
0000
0000
0000
2002
,
0000
0000
0000
0000
0000
0000
0000
3003
,
0000
0000
0000
0000
0000
0000
0000
0001
,
0000
0011
0000
1000
0000
0000
0000
0010
,
0000
1010
0000
0100
0000
0000
0000
0001
,
0000
1001
0000
0100
0000
0000
0000
0010
,
0000
1010
0000
0100
0000
0000
0000
0010
,
0000
0101
0000
0100
0000
0000
0000
0001
,
0000
0011
0000
1000
0000
0000
0000
0100
,
0000
1100
0000
1000
0000
0000
0000
0001
,
0000
0101
0000
0010
0000
0000
0000
0220
,
0000
0000
0000
0000
0000
0330
0000
0000
,
2002
0000
0000
0000
3003
0000
0000
0010
,
0000
0000
0100
0000
0010
0000
0000
1000
,
0000
0000
0001
0000
0010
0000
0000
0100
,
0000
0000
0010
0000
0001
0000
0000
1000
,
0000
0000
0010
0000
0100
0000
0000
0001
,
0000
0000
1000
0000
0100
0000
0000
0010
,
0000
0000
0100
0000
1000
0000
0000
0001
,
0000
0000
0100
0000
0010
0000
0000
2000
,
0000
0000
0000
0000
3001
0000
0000
0001
,
0000
0000
0010
0000
0001
0000
0000
1000
,
0000
0000
0010
0000
1000
0000
0000
0100
,
0000
0000
1000
0000
0100
0000
0000
1000
,
0000
0000
0010
0000
0100
0000
0000
0001
,
0000
0000
0010
0000
0001
0000
0000
0100
,
0000
0000
0001
0000
0010
0000
0000
0001
,
0000
0000
1000
0000
0001
0000
0000
1000
,
0000
0000
0010
0000
0010
0000
0000
0200
,
0000
0310
1000
0002
,
0003
0000
0001
0000
0010
0000
0000
0100
,
0000
0000
0100
0000
1000
0000
0000
0010
,
0000
0000
0020
0000
0030
0000
0000
1000
,
0000
0100
1000
0020
,
0000
0000
0130
0000
0001
0000
0000
1000
,
0000
1000
0010
0000
,
0220
0000
0000
0000
0330
0000
0000
0001
,
0000
1000
0100
2000
,
0000
0000
3000
0000
0010
0000
0000
0100
,
0000
0000
0010
0000
1000
0000
0000
0002
,
0000
0000
0013
0000
0000
0000
0000
0200
,
0000
1300
0010
0200
,
0000
0000
0301
0000
0010
0000
0000
0002
,
0000
0000
0003
0000
,
1000
0000
0000
0000
0001
0000
0000
0100
,
0000
0000
0100
0000
0010
0000
0100
0010
,
0000
0000
0000
0000
0000
0000
0000
1000
,
0000
0001
0010
0001
,
1000
0000
0010
0000
1000
0000
0000
0100
,
0000
0100
1000
0001
,
0010
0000
0100
0000
1000
0000
0000
0001
,
0000
0001
0010
0001
,
1000
0000
0100
0000
1000
0000
0000
0010
,
0000
0010
0100
0001
,
1000
0000
0001
0000
1001
0000
0000
0100
,
0000
0100
0010
0100
,
1000
0000
0100
0000
0001
0000
0000
0001
,
0000
0010
0001
1000
,
0010
0000
0200
0000
0000
0000
0000
0310
,
0000
1000
0100
1000
,
0010
0000
0100
0000
0001
0000
0000
0010
,
0000
0010
0001
0100
,
0010
1000
2002
3003
,
0000
0010
0000
0100
,
0000
0000
0001
0000
0000
0000
1000
0100
,
0000
0100
0000
1000
,
0000
0000
0010
0000
0000
0000
0100
0001
,
0000
0010
0000
0001
,
0000
0000
0100
0000
0000
0000
0010
1000
,
0000
1000
0000
0001
,
0000
0000
1000
0000
0000
0000
0000
0001
,
0000
0001
0000
0000
0000
0000
0000
1000
,
0000
1000
0000
0000
0000
0000
0000
0220
,
0000
0000
0000
0000
0000
0000
0000
0330
,
0000
0000
0000
0000
0000
0000
0000
1001
;

//---------------dance-single - ----------------
#NOTES:
     dance-single:
     :
     Medium:
     12:
     0.559399,0.632995,0.242406,0.298346,0.000000,420.000000,394.000000,26.000000,32.000000,0.000000,0.000000,0.559399,0.632995,0.242406,0.298346,0.000000,420.000000,394.000000,26.000000,32.000000,0.000000,0.000000:
0000
0000
0000
0000
,
0000
0000
0000
0000
,
0000
0000
0000
0000
,
0000
0000
0000
0000
0000
0000
0000
1001
,
0000
1001
0000
0020
0000
0030
0000
1001
,
0000
1001
0000
0100
0000
0000
0000
0220
,
0000
0000
0000
0000
0000
0330
0000
2002
,
0000
0000
0000
0000
0000
3003
0000
0001
,
0000
0010
0000
0001
0010
0001
0000
1000
,
0000
0010
0000
1000
0010
1000
0000
0100
,
0000
1000
0000
0010
0100
0010
0000
1000
,
0000
0001
0000
0010
0001
0010
0000
0100
,
0000
1000
0000
0010
0100
0001
0000
0010
,
0000
0100
0000
1000
0001
1000
0000
0010
,
0000
0100
0000
0001
0010
0100
0000
0010
,
0000
0001
0000
1000
0010
0100
0000
0220
,
0000
0000
0000
0330
,
2002
0000
0000
0000
0000
3003
0000
0100
,
0000
0100
0010
0000
1000
0100
1000
0010
,
0000
0010
0100
0000
0001
0010
0000
0001
,
0000
0001
0100
0000
0010
1000
0100
0000
,
1000
0001
1000
0000
0010
0100
0001
0010
,
0000
0010
0001
0000
1000
0100
1000
0010
,
0000
0010
0100
0000
0001
0010
0000
0101
,
0000
0010
1000
0200
0000
0000
1300
0010
,
0100
0001
0010
0001
0200
0000
0000
0310
,
0000
1000
0010
0000
0100
0001
0010
0001
,
0000
0001
0010
0100
1000
0010
0000
0110
,
0000
1000
0010
1000
0001
0000
0010
0000
,
0001
0100
0001
0000
1000
0010
0100
0010
,
0000
0010
1000
0000
0001
0010
0100
0010
,
0000
0001
1000
0000
0100
1000
0010
0100
,
0000
0100
0010
1000
0200
0000
0000
1300
,
0000
0001
0010
0100
1000
0000
0000
1001
,
0000
0100
0010
0000
1000
0001
0010
0002
,
0000
0000
0103
0000
0010
0100
0010
2000
,
0000
3100
0010
0000
0001
0100
1000
0200
,
0000
0310
1000
0000
0001
0010
0100
1000
,
0000
0010
0100
0000
0001
1000
0100
0020
,
0000
0031
0100
0000
0010
1000
0100
0020
,
0000
0000
0130
0000
1000
0001
1000
0020
,
0200
0000
0000
0000
0000
0330
0000
1001
,
0000
0010
0100
0000
0001
1000
0100
2000
,
0000
0000
3010
0000
0100
0010
0100
0002
,
0000
0013
0100
0000
1000
0010
0001
0020
,
0000
0130
0001
0000
1000
0100
0010
0001
,
0000
0100
0010
0000
1000
0001
0010
0200
,
0000
1300
0010
0000
0100
0001
0010
0200
,
0000
1000
0000
0310
,
0001
0010
0000
0100
1000
0001
0000
0110
,
0000
1000
0001
0000
0100
0010
0000
2200
,
0000
0000
0000
0000
3300
0000
0000
0011
,
0000
0001
1000
0010
0100
0010
1000
0100
,
0000
0100
1000
0010
0100
0001
0000
0011
,
0000
0010
0001
0100
0010
1000
0100
0010
,
0000
0010
0100
2000
0000
0000
0000
3001
,
0000
0100
0010
0100
0010
1000
0100
1000
,
0100
0010
0001
0010
0001
1000
0010
0100
,
0000
0100
0001
0010
0100
1000
0000
0010
,
0000
0010
0100
0002
0000
0003
0000
0011
,
0000
1000
0001
0010
0100
1000
0010
0100
,
0001
0010
0100
1000
0010
0100
0010
1000
,
0000
0100
1000
0010
0100
0010
0000
1010
,
0000
0100
0002
0000
0000
0003
0000
1010
,
0000
0100
0001
1000
0100
0010
0001
0100
,
0001
0010
0100
1000
0010
0100
0001
0010
,
0000
0010
0001
1000
0010
0100
0010
1000
,
0001
1000
0001
1000
0010
0100
0010
0110
,
0000
0000
0000
1000
0001
0010
0100
1000
,
0000
0001
0000
1000
0010
0100
0001
0010
,
0000
0001
0000
1000
0010
0100
0001
0010
,
0000
0001
0000
1000
0001
0010
0100
1000
,
0000
1010
0000
0100
0001
0010
0100
1000
,
0000
0101
0000
0010
1000
0001
0010
0100
,
0000
0110
0000
1000
0010
0100
0010
1000
,
0001
0010
0001
0100
0010
0100
0001
1000
,
0000
2200
0000
0000
3300
0000
0000
0001
,
0000
0011
0000
1000
0001
0100
1000
0020
,
0000
0000
0000
0000
,
0000
0000
0000
0000
0030
0000
0000
1001
;

//---------------dance-single - ----------------
#NOTES:
     dance-single:
     :
     Hard:
     16:
     0.871064,0.930875,0.680602,0.083910,0.470827,654.000000,581.000000,73.000000,9.000000,0.000000,0.000000,0.871064,0.930875,0.680602,0.083910,0.470827,654.000000,581.000000,73.000000,9.000000,0.000000,0.000000:
// measure 0
0000
0000
0000
0000
,  // measure 1
0000
0000
0000
0000
,  // measure 2
0000
0000
0000
0000
,  // measure 3
0000
0000
0000
0000
0000
0000
0000
0110
,  // measure 4
0000
1001
0000
0010
0100
0001
0010
0011
,  // measure 5
0000
1100
0000
0010
0100
0001
0010
0110
,  // measure 6
0000
1001
0000
0100
0010
1000
0100
1100
,  // measure 7
0000
0000
0101
0000
0000
0000
0010
0000
0100
0001
0010
0100
1000
0000
0010
0000
,  // measure 8
0000
0110
0000
1000
0001
0010
0001
0101
,  // measure 9
0000
1010
0000
0100
0010
1000
0100
0110
,  // measure 10
0000
1100
0000
0001
0010
0001
0100
0110
,  // measure 11
0000
1010
0000
0100
0001
0010
0001
1001
,  // measure 12
0000
0000
1010
0000
0000
0000
0100
0000
0001
0000
1000
0010
0100
0000
0010
0000
,  // measure 13
0000
0000
1100
0000
0000
0000
0001
0000
0010
0000
0001
0100
0010
0000
1000
0000
,  // measure 14
0000
0000
0110
0000
0000
0000
0001
0000
0010
0000
0001
1000
0010
0000
0100
0000
,  // measure 15
0000
0000
1010
0000
0000
0000
0001
0000
1000
0000
0010
0100
0010
0000
1000
0000
,  // measure 16
0000
0001
0011
0000
1100
0000
0110
0000
,  // measure 17
1000
0000
0001
0000
0010
0000
0100
0000
1000
0000
0010
0000
0100
0000
0001
0000
0010
0000
0001
0000
0000
1001
0000
0000
,  // measure 18
0000
0100
0010
1000
0100
0001
0100
1100
,  // measure 19
0000
0001
0010
0001
1000
1010
0000
0110
,  // measure 20
0000
0000
0001
0010
0001
0000
1000
0000
0010
0100
0010
0000
1000
0000
0001
0000
,  // measure 21
0000
0000
0001
0000
0010
0000
0001
0000
1000
0000
0100
0010
0001
0000
0010
0000
,  // measure 22
0000
0001
1000
0010
0001
0010
1000
1010
,  // measure 23
0000
0000
0001
0000
0010
0000
0001
0000
1000
0000
0100
0010
0100
0000
2000
0000
,  // measure 24
0000
0000
3001
0000
0010
0000
0001
0000
0000
0000
0101
0000
0000
0000
0010
0100
,  // measure 25
0001
0000
1000
0010
0100
0000
0001
0000
0011
0000
0000
0000
1000
0000
1010
0000
,  // measure 26
0000
0001
0100
0010
1000
0010
0001
0011
,  // measure 27
0000
0000
1000
0000
0010
0000
0100
0000
0001
0000
0010
0100
1000
0000
0010
0000
,  // measure 28
0000
0000
0100
0000
0010
0000
1000
0000
0001
0000
0010
0001
0010
0000
0100
0000
,  // measure 29
0000
0000
1000
0010
1000
0000
0001
0000
0010
0001
0100
0010
1000
0000
0001
0000
,  // measure 30
0000
0100
0010
1000
0100
0001
0100
1100
,  // measure 31
0000
0000
0001
0000
0010
0000
0001
0000
1000
0000
0010
0100
0001
0000
0010
0000
,  // measure 32
0000
0000
0001
0000
1000
0000
0010
0000
0100
0000
0010
0000
0000
0000
0010
1000
,  // measure 33
0010
0000
0100
0001
0100
0000
0001
0010
0100
0000
1000
0000
0010
0000
0110
0000
,  // measure 34
0000
0000
0100
0010
0100
0000
0001
0000
0010
0100
1000
0001
0100
0000
0020
0000
,  // measure 35
0000
1000
1000
0000
0130
0001
0010
1001
,  // measure 36
0000
0000
1000
0000
0010
0000
1000
0000
0010
0100
0001
0000
1000
0000
0100
0000
,  // measure 37
0000
0000
0100
0000
0010
0000
0100
0000
1000
0001
0010
0000
0001
0000
0101
0000
,  // measure 38
0000
0000
0010
0100
0010
0000
0100
0000
0001
1000
0100
0010
0001
0000
0200
0000
,  // measure 39
0000
0001
0001
0000
0310
1000
0100
1100
,  // measure 40
0000
0001
0101
0000
0010
0100
0010
1000
,  // measure 41
0001
0000
0100
0000
0001
0000
0100
0000
0010
0000
1000
0000
0010
0000
1000
0000
0100
0000
0010
0000
0000
0011
0000
0000
,  // measure 42
0000
0000
1000
0000
1010
0000
0100
0000
0001
1000
0100
1000
0010
0000
0200
0000
,  // measure 43
0000
1000
1000
0000
0310
1000
0001
0011
,  // measure 44
0000
0000
1000
0000
0001
0000
0010
0000
0001
0000
0100
0010
1000
0000
0001
0000
,  // measure 45
0010
0001
1001
0000
0110
0110
0000
0101
,  // measure 46
0000
0000
0010
0000
1000
0000
0100
0000
1000
0010
0100
0001
0010
0000
0200
0000
,  // measure 47
0000
1000
1000
0000
0301
0100
1000
1010
,  // measure 48
0000
0001
0011
0000
0100
0010
1000
0001
,  // measure 49
0010
0001
0010
0100
1000
0010
0000
0110
,  // measure 50
0000
1000
1010
0010
0100
0001
0000
0001
,  // measure 51
1000
0000
0001
0000
0010
0000
0100
0000
1000
0000
0100
0000
0010
0000
0001
0000
1000
0000
0010
0000
0000
0110
0000
0000
,  // measure 52
0000
0000
1000
0010
1000
0000
0001
0000
0010
0001
0010
0000
0100
0000
1000
0010
,  // measure 53
0100
0010
1000
0100
0010
0100
1000
1001
,  // measure 54
0000
0000
0010
0000
0100
0000
0001
0000
0010
0000
0001
1000
0001
0000
0100
0000
,  // measure 55
0010
1000
0100
0020
0000
0001
0031
0110
,  // measure 56
0000
0000
1000
0010
1000
0000
0001
0010
0001
0000
0100
0010
0100
0000
0001
0010
,  // measure 57
0001
0000
1000
0010
1000
0000
0010
0100
0010
0000
1000
0100
1000
0000
0002
0000
,  // measure 58
0000
0013
1000
0010
0001
1000
0010
0110
,  // measure 59
0000
1000
0001
0011
0000
1100
0000
1001
,  // measure 60
0000
0000
0010
0100
0001
0010
0100
0000
1000
0100
1000
0000
0001
0010
0001
0000
,  // measure 61
1000
0001
0100
0000
0010
1000
0100
0000
1000
0001
0010
0000
0001
0000
0101
0000
,  // measure 62
0000
0010
1000
0100
1000
0010
0000
0110
,  // measure 63
0000
0010
1000
0001
0010
0100
0000
1100
,  // measure 64
0000
0000
0001
0010
0001
0100
0010
0000
1000
0100
1000
0000
0001
0010
0001
0000
,  // measure 65
0100
0010
1000
0000
0001
0010
0100
0000
1000
0001
0010
0001
1000
0000
0020
0000
,  // measure 66
0000
0000
0130
0000
0001
0000
0010
0000
0001
1000
0001
0000
1000
0010
1000
0000
,  // measure 67
0001
0000
0100
0000
0001
0000
1000
0000
0010
0000
1000
0000
0001
0000
0010
0000
0100
0000
1000
0000
0000
1010
0000
0000
,  // measure 68
0000
0101
0000
1000
0001
0010
0100
1100
,  // measure 69
0000
0101
0000
0010
0001
1000
0010
0110
,  // measure 70
0000
0000
1001
0000
0000
0000
0100
0000
0010
0000
1000
0100
1000
0000
0001
0000
,  // measure 71
0000
0110
0000
0001
0010
1000
0100
1100
,  // measure 72
0000
0000
0110
0000
0000
0000
1000
0000
0001
0000
0010
0100
0010
0000
0001
0000
,  // measure 73
0000
1010
0000
0001
0100
1000
0010
0011
,  // measure 74
0000
0000
0100
0010
0100
0000
0001
1000
0001
0000
1000
0010
1000
0000
0001
0010
,  // measure 75
0001
0000
0100
0010
0100
0000
0001
0010
0100
0010
0100
1000
0001
0000
0100
0000
,  // measure 76
0000
1001
0000
0010
0100
0010
0100
1100
,  // measure 77
0000
0000
0101
0000
0000
0000
0001
0010
0001
0100
0010
1000
0100
0010
0002
0000
,  // measure 78
0000
0000
0000
0000
,  // measure 79
0000
0000
0000
0000
0000
0000
0000
0000
0000
0000
0000
0000
1003
0010
0001
0000
;
