#TITLE:ANEMONE;
#SUBTITLE:;
#ARTIST:BEMANI Sound Team "HuΣeR × Yvya" feat. 紫村 花澄;
#TITLETRANSLIT:;
#SUBTITLETRANSLIT:;
#ARTISTTRANSLIT:BEMANI Sound Team HuMeR Yvya feat.Kasumi Shimura;
#GENRE:EMOTIONAL J-POP;
#CREDIT:;
#BANNER:ANEMONE_banner.png;
#BACKGROUND:ANEMONE.jpg;
#LYRICSPATH:;
#CDTITLE:;
#MUSIC:ANEMONE.ogg;
#OFFSET:-0.810000;
#SAMPLESTART:58.700001;
#SAMPLELENGTH:16.000000;
#LASTBEATHINT:328.000000;
#SELECTABLE:YES;
#BPMS:0.000000=174.000000
;
#STOPS:
;
#BGCHANGES:;
#KEYSOUNDS:;
#ATTACKS:;

//---------------dance-single - ----------------
#NOTES:
     dance-single:
     :
     Easy:
     5:
     0.220134,0.277539,0.093648,0.119188,0.000000,181.000000,170.000000,11.000000,14.000000,0.000000,0.000000,0.220134,0.277539,0.093648,0.119188,0.000000,181.000000,170.000000,11.000000,14.000000,0.000000,0.000000:
0000
0000
0000
0000
,
0000
0000
0000
0000
,
0010
0000
0010
0000
,
0010
0000
0000
0000
,
0100
0000
0100
0000
,
0100
0000
0000
0000
,
0001
0000
0001
0000
,
0001
0000
0000
0000
,
1000
0000
1000
0000
,
0001
0000
1001
0000
,
0100
0000
0010
0000
,
0010
0000
1000
0000
,
0001
0000
0010
0000
,
0010
0000
0100
0000
,
1000
0000
0010
0000
,
1000
0000
0001
0000
,
0010
0000
0100
0000
,
1000
0000
1001
0000
,
0020
0000
0030
0000
,
2000
0000
3000
0000
,
0002
0000
0003
0000
,
0100
0000
0100
0000
,
0001
0100
1000
0000
,
1000
0000
0110
0000
,
1000
0000
0010
0100
,
0010
0000
1000
0000
,
0001
0010
0100
0000
,
0001
0000
1001
0000
,
1000
0010
0100
0000
,
1000
0000
1001
0000
,
0100
0000
0100
0000
,
0010
0000
0010
0000
,
1000
0001
1000
0000
,
0020
0000
0000
0000
0000
0030
0000
0000
,
0100
0000
0100
0000
,
0200
0000
0300
0000
,
0001
0000
0010
0000
,
0100
0000
1000
0000
,
1000
0000
0010
0000
,
0100
0000
0001
0002
,
0000
0000
0000
0000
,
0003
0000
0000
0000
,
0110
0000
1000
0010
,
1000
0000
0001
0000
,
0010
0000
0001
1000
,
0001
0000
0100
0000
,
0010
0000
0010
0100
,
0010
0000
1000
0000
,
1000
0100
0010
0000
,
0100
0010
0001
0000
,
0200
0000
0310
0000
,
1000
0100
1000
0000
,
0002
0000
0013
0000
,
0010
0001
1000
0000
,
0010
0100
0001
0000
,
1000
0100
0010
0000
,
0001
0000
0101
0000
,
1000
0000
1010
0000
,
0002
0000
0013
0000
,
0002
0000
1003
0000
,
2000
0000
3010
0000
,
2000
0000
3001
0000
,
0200
0000
0310
0100
,
0010
0000
1000
0000
,
0001
0010
0100
0000
,
0001
0000
1100
0000
,
2000
0000
3010
0000
,
0010
0000
0100
0000
,
0001
1000
0001
0000
,
0010
0000
0110
0000
,
1000
0100
1000
0000
,
0001
0100
0001
0000
,
1000
0010
0100
0000
,
0001
0010
0100
0000
,
1000
0000
0010
0000
,
1000
0000
0001
0000
,
0100
0000
0010
0000
,
0100
0000
0001
0000
,
0010
0000
0001
0000
,
1000
0000
0100
0000
,
1000
0000
0001
0000
,
0010
0000
0110
0000
;

//---------------dance-single - ----------------
#NOTES:
     dance-single:
     :
     Medium:
     10:
     0.488916,0.487928,0.144729,0.136215,0.000000,402.000000,385.000000,17.000000,16.000000,0.000000,0.000000,0.488916,0.487928,0.144729,0.136215,0.000000,402.000000,385.000000,17.000000,16.000000,0.000000,0.000000:
0000
0000
0000
0000
,
0000
0000
0000
0000
,
0100
0000
0010
1000
0010
0000
1000
0001
,
0000
0001
1000
0000
0100
0000
0010
0000
,
0001
0000
0100
0010
0100
0000
0001
1000
,
0000
1000
0010
0000
0100
0001
1000
0000
,
0010
0000
0100
0001
1000
0000
0100
0010
,
0000
0010
0100
0000
1000
0000
0001
0000
,
0100
0010
1000
0010
0100
0000
0001
0010
,
0000
0010
0100
0000
1000
0001
1000
0000
,
0010
0000
0100
0001
1000
0000
0010
1000
,
0000
1000
0001
0000
0010
0100
0010
0000
,
0001
0100
0010
0000
1000
0000
0010
0100
,
0000
0100
0010
0000
1000
0001
0010
0000
,
0001
0010
0100
0000
0010
0000
0001
1000
,
0000
0010
0100
0000
0001
0100
2000
0000
,
3100
0010
0100
0000
0001
0010
0100
1000
,
0000
1000
0010
0000
0100
0001
1000
0000
,
0001
0000
0010
0001
0100
0000
0010
0000
,
1000
0001
1000
0000
0110
0000
0000
0000
,
0010
1000
0100
1000
0010
0000
0100
0000
,
0001
0010
0100
0010
0001
0000
0000
0000
,
1000
0100
0001
0000
0001
0100
1000
0000
,
0010
1000
0110
0000
,
0002
0000
0013
0100
1000
0000
0010
0000
,
1000
0100
0010
0000
0011
0000
0000
0000
,
1000
0100
0110
0000
,
0001
0000
0100
0010
0200
0000
0310
0000
,
0010
0000
1000
0001
1000
0000
0100
0000
,
0010
0100
1000
0000
0101
0000
0000
0000
,
0010
0000
1000
0010
1000
0000
0001
0000
,
0010
0100
0010
0000
0001
0000
0000
0000
,
1000
0010
0100
0000
0001
1000
0100
0000
,
1000
0000
0001
0010
0100
0000
1100
0000
,
0002
0000
0000
0013
0000
0000
0100
0000
,
0000
1000
0010
0000
1000
0000
0001
0000
,
0100
0000
0010
1000
0000
1000
0001
0000
,
0000
0010
0100
0000
1000
0000
0001
0000
,
0200
0000
0310
1000
,
0001
1000
0100
0220
,
0000
0000
0000
0330
,
0000
0000
0001
1000
0001
0000
1001
0000
,
0020
0000
0130
0001
0100
0000
0010
1000
,
0000
1000
0001
0000
1000
0100
0010
0000
,
0002
0000
1003
0010
0100
0000
0010
1000
,
0000
1000
0001
0000
0010
0001
1000
0000
,
1001
0000
0001
0100
0010
0000
1000
0010
,
0000
0010
0100
0001
0000
0001
0010
0000
,
0001
0000
1000
0100
0010
0000
0001
0000
,
1000
0010
0001
0000
0001
0010
1000
0000
,
0020
0000
0130
0001
1000
0000
0001
0010
,
0000
0010
0100
0000
1000
0000
0010
0000
,
1000
0001
1000
0000
0010
0000
0100
0000
,
0002
0000
0013
0100
1000
0000
1001
0000
,
0010
0000
0100
0010
1000
0000
0001
0010
,
0000
0010
0001
0000
1000
0100
0010
0000
,
0001
0000
1000
0000
0010
0100
0010
0100
,
0000
0001
1000
0000
1000
0010
0100
0000
,
0101
0000
0010
0000
0000
1000
0010
0000
,
1000
0000
1100
0000
0000
0100
0010
0000
,
0001
1000
0001
0000
0100
0000
0001
0000
,
0020
0000
0130
1000
0100
0001
0100
0000
,
2000
0000
3010
0100
0010
0000
1000
0000
,
0002
0000
0013
0100
0010
0000
0001
0000
,
1001
0000
0100
0010
1000
0000
0001
0000
,
0010
0001
1000
0000
0100
1000
0001
0000
,
0120
0000
1000
0000
,
2030
0000
0000
0000
3001
0000
0001
0100
,
0000
0100
0010
0000
1000
0000
0001
0000
,
0010
0100
1000
0010
,
1000
1100
0001
0011
,
1000
0001
1000
0000
0001
0010
0100
0000
,
1000
0010
0100
0000
0001
0010
0100
0000
,
1000
0000
0001
0000
0100
0010
0100
0010
,
1000
0001
1000
0010
,
0100
0001
0010
0100
,
1000
0010
0100
0001
,
0010
0001
1000
1001
,
0010
0100
0001
0100
,
0010
1000
0100
0001
,
0100
1000
0010
0100
,
0001
0000
0010
0000
0001
0000
0100
0010
;

//---------------dance-single - ----------------
#NOTES:
     dance-single:
     :
     Hard:
     13:
     0.681077,0.627336,0.204323,0.349052,0.025540,560.000000,536.000000,24.000000,41.000000,0.000000,0.000000,0.681077,0.627336,0.204323,0.349052,0.025540,560.000000,536.000000,24.000000,41.000000,0.000000,0.000000:
0000
0000
0000
0000
,
0000
0000
0000
0000
0000
0000
1000
1000
,
0001
0010
1000
0010
0001
0100
0010
2000
,
0000
3010
0100
0010
1000
0001
0010
0001
,
1000
0100
0001
0100
1000
0010
0100
0002
,
0000
0013
0100
1000
0010
0100
0010
1000
,
0001
0010
1000
0010
0100
0001
1000
0020
,
0000
0031
1000
0010
0100
0001
0010
0000
,
0001
0100
1000
0100
0010
1000
0001
0020
,
0000
0000
0130
0000
1000
0000
0100
0000
0001
0000
0100
0010
0100
0000
1000
0000
,
0010
0100
0001
1000
0010
1000
0100
0020
,
0000
0130
1000
0001
0100
0010
1000
0100
,
0010
0100
0010
0001
1000
0010
0100
0002
,
0000
0000
1003
0000
0100
0000
0010
0000
0100
0000
1000
0001
1000
0000
0010
0000
,
0100
0010
0100
1000
0200
0000
0301
0020
,
0000
0031
1000
0001
0100
0010
0002
0000
,
0013
1000
0010
0100
0001
0100
0010
1000
,
0000
0000
0100
1000
0100
0000
1000
0000
0100
0000
0010
0000
0002
0000
0000
0000
,
1003
0100
0001
0100
0010
0100
0000
1000
,
0010
0100
0010
1000
0002
0000
0013
0100
,
0010
1000
0010
0001
0010
0000
0001
0100
,
1000
0100
0010
1000
0001
0000
1001
0000
,
0010
1000
0001
1000
0100
0010
0100
1000
,
0010
0001
0100
0000
1001
0000
0110
0000
,
2000
0000
3100
0001
0100
1000
0010
0100
,
0001
0010
1000
0010
0001
1000
0100
0000
,
0011
0000
1000
0100
0110
0000
0101
0000
,
1100
0000
1000
0010
0110
0000
1010
0000
,
0001
0010
1000
0010
0001
0000
1000
0100
,
0001
0100
0010
1000
0001
0000
0110
0000
,
1000
0010
0100
0001
0010
0100
1000
0010
,
0100
1000
0100
0001
0010
0000
0100
0010
,
0001
1000
0100
0010
1000
0001
0100
0010
,
0000
0110
0000
0100
1000
0001
0100
0010
,
2000
0000
0000
3200
0000
0000
0320
0000
,
0000
0031
1000
0100
0010
0001
0200
0000
,
0320
0000
1030
0020
0000
1030
0002
0000
,
0000
0013
0100
1000
0010
0100
0001
0000
,
0012
0000
2003
3020
,
0032
0023
1030
0220
,
0000
0000
0000
0000
,
0330
0000
0001
0100
1000
0100
0010
0000
,
2010
0000
3100
0001
0100
0010
0100
2000
,
0000
3001
0100
0010
0100
0001
0010
0100
,
1000
0001
1000
0010
0100
0001
0010
0001
,
0000
1001
1000
0100
0010
0100
2000
0000
,
3010
0100
0001
1000
0010
0001
0010
1000
,
0000
1000
0100
0001
0100
1000
0010
0100
,
0000
1001
0000
0011
0000
0001
1000
0010
,
0001
1000
0200
0000
0301
0010
0100
1000
,
0010
0100
0001
1000
0100
0010
0001
0100
,
0000
0100
0010
1000
0100
1000
0001
0020
,
0000
0130
0200
0000
1300
0000
1001
0000
,
0110
0000
1000
0010
0001
1000
0100
0001
,
0000
0001
0010
0000
1100
0000
1000
0010
,
0000
0100
0001
1000
0001
0010
2000
0000
,
3010
0001
1000
0001
0100
0010
0100
0001
,
0000
0000
1001
0000
0000
0000
0100
0010
0100
0000
0001
0000
0010
0000
0100
0000
,
1000
0000
1010
0000
0100
0001
1000
0000
,
0001
0010
0100
0010
0001
1000
0010
0000
,
1000
0000
0100
0010
0200
0000
0000
0000
1300
0000
0001
0000
0020
0000
0000
0000
,
0031
1000
0010
0100
0001
0010
0100
1000
,
0020
0000
0130
0001
1000
0100
0001
0100
,
1000
0000
1000
0010
0001
0010
1000
0001
,
1001
0000
0000
0000
0010
0100
0010
0000
1000
0000
0001
0000
0010
0000
0001
0000
,
1000
0100
0010
0001
0100
0010
1000
0100
,
0020
0001
0032
0000
,
2003
0000
0100
0000
3100
0000
0010
0020
,
0000
0130
0200
0000
1300
0000
1001
0000
,
0010
0100
0010
0000
1000
0001
1000
0000
,
0001
0010
0001
0010
0100
1000
0100
1000
,
0001
0100
1000
0100
0001
0010
0001
0000
,
1000
0010
1000
0010
0100
0001
0100
0001
,
1000
0010
0001
0010
0100
0010
0001
1000
,
0100
0010
0100
0010
1000
0001
1000
0001
,
0010
0100
1000
0100
0010
0100
1000
0100
,
0010
1000
0010
0001
0100
0001
0100
1000
,
0100
0001
0100
0010
0100
0001
0100
0010
,
1000
0001
0100
0001
1000
0010
0100
0001
,
0010
1000
0010
0001
0010
1000
0010
0001
,
0100
0010
0100
1000
0100
0001
0010
0001
,
1000
0010
0100
0001
0010
0001
0100
1000
;

//---------------dance-double - ----------------
#NOTES:
     dance-double:
     :
     Hard:
     13:
     0.673780,0.662188,0.178783,0.297971,0.029797,554.000000,533.000000,21.000000,35.000000,0.000000,0.000000,0.673780,0.662188,0.178783,0.297971,0.029797,554.000000,533.000000,21.000000,35.000000,0.000000,0.000000:
// measure 0
00000000
00000000
00000000
00000000
,  // measure 1
00000000
00000000
00000000
00000000
00000000
00000000
10000000
10000000
,  // measure 2
00100000
01000000
00010000
00100000
00001000
00010000
00100000
02000000
,  // measure 3
00000000
03010000
00100000
00001000
00010000
00000010
00000100
00000010
,  // measure 4
00001000
00000001
00000010
00000100
00001000
00000010
00010000
00000100
,  // measure 5
00000000
00000100
00001000
00000010
00010000
00001000
00100000
00001000
,  // measure 6
00010000
00000100
00001000
00000001
00000010
00000100
00001000
00000001
,  // measure 7
00000000
00000001
00000010
00000001
00001000
00000010
00020000
00000000
,  // measure 8
00031000
00100000
01000000
10000000
00010000
10000000
00100000
01000000
,  // measure 9
00000000
00000000
01000000
00000000
00010000
00000000
00100000
00000000
00001000
00000000
00010000
00000100
00010000
00000000
00001000
00000000
,  // measure 10
00010000
00000010
00000100
00000001
00001000
00000100
00010000
00000010
,  // measure 11
00000000
00000010
00001000
00000100
00010000
00001000
02000000
00000000
,  // measure 12
03010000
00100000
00010000
10000000
00100000
01000000
00001000
00010000
,  // measure 13
00000000
00000000
00010000
00000000
00000010
00000000
00001000
00000000
00000100
00000000
00010000
00001000
00010000
00000000
00000100
00000000
,  // measure 14
00001000
00000001
00000010
00001000
00000020
00000000
00000031
00001000
,  // measure 15
00000000
00001000
00000010
00010000
00001000
01000000
00200000
00000000
,  // measure 16
10300000
00010000
10000000
00100000
01000000
00001000
00010000
01000000
,  // measure 17
00000000
00000000
01000000
10000000
01000000
00000000
00100000
00000000
00010000
00000000
10000000
00000000
00100000
00000000
00000000
00000000
,  // measure 18
10000000
01000000
00100000
00010000
10000000
00010000
00000000
00100000
,  // measure 19
00001000
00010000
00001000
00100000
00020000
00000000
01030000
00001000
,  // measure 20
00010000
00001000
00000100
00001000
00010000
00000000
00000010
00001000
,  // measure 21
00000001
00001000
00000100
00010000
00001000
00000000
00011000
00000000
,  // measure 22
00100000
00010000
01000000
10000000
01000000
00010000
00100000
00001000
,  // measure 23
00000100
00000001
00000010
00000000
00001001
00000000
00000010
00000100
,  // measure 24
00000002
00000000
00000013
00000100
00001000
00000010
00010000
00001000
,  // measure 25
00010000
00000100
00001000
00000000
00000010
00000000
00001000
00000000
00000100
00000000
00010000
00000000
00001000
00000000
01000000
00000000
,  // measure 26
00100000
10000000
00010000
00100000
00110000
00000000
11000000
00000000
,  // measure 27
00010000
00100000
00001000
00010000
00010100
00000000
00001100
00000000
,  // measure 28
00000001
00000010
00001000
00000010
00000001
00000000
00010000
00000100
,  // measure 29
00001000
00000100
00010000
00000010
00000100
00000000
00001001
00000000
,  // measure 30
00000010
00001000
00000100
00010000
00001000
01000000
00100000
10000000
,  // measure 31
00010000
10000000
00100000
00000000
01100000
00000000
10000000
01000000
,  // measure 32
00100000
00010000
00100000
00001000
00010000
01000000
10000000
00010000
,  // measure 33
00000000
00010000
00100000
00001000
00010000
00000100
00000010
00000000
,  // measure 34
00000021
00000000
00000000
00000230
00000000
00000000
00002300
00000000
,  // measure 35
00000000
00003010
00000020
00000000
00020030
00000000
00031000
00000000
,  // measure 36
00012000
00000000
00100000
00203000
00000000
00310000
00000020
00000000
,  // measure 37
00000000
00001000
00002000
00000000
00000000
00000000
00003030
00000000
,  // measure 38
00001002
00000000
00001003
00010000
,  // measure 39
10000000
00010000
00001000
00022000
,  // measure 40
00000000
00000000
00000000
00033000
,  // measure 41
00000000
00000000
00010000
01000000
00010000
00001000
00000100
00000000
,  // measure 42
00000110
00000000
00000001
00001000
00000100
00001000
00000010
00020000
,  // measure 43
00000000
00031000
00100000
00010000
10000000
00100000
01000000
00010000
,  // measure 44
10000000
01000000
00100000
00010000
01000000
00001000
01000000
00002000
,  // measure 45
00000000
00013000
00011000
00000000
00010000
00000010
00000100
00000002
,  // measure 46
00000000
00001003
00000100
00010000
00001000
01000000
00100000
20000000
,  // measure 47
00000000
30010000
00100000
10000000
00000000
00010000
01000000
10000000
,  // measure 48
00000000
00010000
00000000
00110000
00000000
00001000
00010000
00001000
,  // measure 49
00000100
00000010
00002000
00000000
00003001
00000010
00000100
00001000
,  // measure 50
00000010
00010000
00001000
00010000
00000100
00001000
00010000
00200000
,  // measure 51
00000000
00310000
10000000
01000000
10000000
00100000
00010000
00002000
,  // measure 52
00000000
00010000
00013000
00000000
00000010
00000000
00000101
00000000
,  // measure 53
00000010
00000000
00001000
00000001
00000010
00000100
00010000
00002000
,  // measure 54
00000000
00100000
00103000
00000000
01001000
00000000
00010000
00100000
,  // measure 55
00000000
00100000
00010000
10000000
01000000
00010000
01000000
20000000
,  // measure 56
00000000
30010000
00100000
00001000
00000000
00010000
00000100
00001000
,  // measure 57
00000010
00000000
00000100
00000000
00000010
00000000
00000100
00000001
00001000
00000000
00000010
00000000
00010000
00000000
00001000
00000000
,  // measure 58
00010000
00000000
00010100
00000000
00001000
00000010
00010000
00001000
,  // measure 59
01000000
00010000
00100000
00010000
10000000
01000000
00100000
01000000
,  // measure 60
10000000
00000000
00010000
00100000
00020000
00000000
00000000
00000000
00031000
00000000
00000000
00000000
00000100
00000000
00000010
00000000
,  // measure 61
00000001
00001000
00000100
00010000
00001000
01000000
00100000
10000000
,  // measure 62
10200000
00000000
01300000
00010000
00100000
01000000
10000000
01000000
,  // measure 63
01200000
00000000
00301000
00010000
00000010
00000100
00000001
00001000
,  // measure 64
00000001
00000000
00000000
00000000
00000100
00000010
00001000
00000000
00000100
00000000
00010000
00000000
00001000
00000000
00100000
00000000
,  // measure 65
01000000
10000000
00100000
00010000
00001000
00000100
00000001
00000010
,  // measure 66
00000002
00000010
00000023
00000000
,  // measure 67
00002030
00000000
00010000
00000000
00013000
00000000
00001000
01000000
,  // measure 68
00000000
01000000
00100000
00000000
10100000
00000000
10000000
00000000
,  // measure 69
00010000
00100000
00010000
00000000
01000000
00001000
01000000
00000000
,  // measure 70
00001000
00010000
00001000
00010000
00000010
00000100
00000010
00000100
,  // measure 71
00000001
00000010
00000100
00001000
00000010
00000100
00001000
00000000
,  // measure 72
00010000
00001000
00010000
00001000
00100000
01000000
00100000
01000000
,  // measure 73
10000000
00010000
01000000
00100000
10000000
00010000
00200000
00000000
,  // measure 74
00301000
00010000
00001000
00000100
00000010
00000100
00000001
00001000
,  // measure 75
00000010
00000100
00000001
00001000
00000100
00010000
00001000
00100000
,  // measure 76
00010000
01000000
10000000
01000000
00100000
10000000
01000000
00100000
,  // measure 77
00010000
01000000
00001000
00100000
00001000
00010000
00000100
00010000
,  // measure 78
00000010
00000100
00000010
00000100
00000001
00001000
00000001
00001000
,  // measure 79
00000010
00001000
00000100
00010000
00001000
01000000
00100000
10000000
,  // measure 80
01000000
10000000
01000000
10000000
00010000
00100000
00010000
00100000
,  // measure 81
01000000
10000000
01000000
00100000
00001000
00010000
00000010
00000100
;
