#TITLE:ANDROMEDA -SF_2011 Mix-;
#SUBTITLE:;
#ARTIST:Sota Fujimori;
#TITLETRANSLIT:;
#SUBTITLETRANSLIT:;
#ARTISTTRANSLIT:;
#GENRE:;
#CREDIT:;
#BANNER:ANDROMEDA_-SF_2011_Mix-_banner.png;
#BACKGROUND:ANDROMEDA_-SF_2011_Mix-.png;
#LYRICSPATH:;
#CDTITLE:;
#MUSIC:ANDROMEDA -SF_2011 Mix-.ogg;
#OFFSET:-0.130000;
#SAMPLESTART:73.970001;
#SAMPLELENGTH:15.000000;
#LASTBEATHINT:272.500000;
#SELECTABLE:YES;
#BPMS:0.000000=156.000000
;
#STOPS:
;
#BGCHANGES:;
#KEYSOUNDS:;
#ATTACKS:;

//---------------dance-single - ----------------
#NOTES:
     dance-single:
     :
     Easy:
     6:
     0.294839,0.322183,0.085599,0.171197,0.000000,217.000000,208.000000,9.000000,18.000000,0.000000,0.000000,0.294839,0.322183,0.085599,0.171197,0.000000,217.000000,208.000000,9.000000,18.000000,0.000000,0.000000:
0000
0000
0000
0000
,
0000
0000
0000
0000
,
0000
0000
0000
0000
,
2002
0000
0000
0000
0000
3003
0000
0000
,
0100
0010
1000
0001
,
0010
0100
1000
0000
,
0001
0010
0001
1000
,
0220
0000
0000
0000
0000
0330
0000
0000
,
0010
1000
0010
0100
,
0001
0010
0001
0000
,
1000
0100
0010
0001
,
0010
0100
1000
0000
,
0001
0100
0010
1000
,
0100
0010
0100
0000
,
0010
0001
0100
0010
,
2000
0000
0000
0000
0000
3000
0000
0000
,
1000
0001
0100
0010
,
0001
0010
0100
0000
,
0001
1000
0100
0001
,
0100
0010
0100
0000
,
1000
0010
1000
0001
,
0010
0001
0100
0000
,
0001
0010
0100
1000
,
2002
0000
0000
0000
0000
3003
0000
0000
,
0010
1000
0010
0100
,
0010
1000
0100
0000
,
0010
0001
0100
0001
,
0010
0001
1000
0000
,
0001
1000
0100
1000
,
0001
1000
0010
0000
,
1000
0001
0010
0001
,
1000
0001
0100
0000
,
0010
1000
0100
1000
,
0001
0010
0100
0000
,
0010
0001
1000
0100
,
1000
0001
0010
0000
,
0001
0100
0010
1000
,
0001
1000
0100
0000
,
0110
0000
1001
0000
,
0010
0100
0001
1000
,
0002
0000
1003
0000
,
2000
0000
3001
0000
,
0200
0000
0310
0000
,
0020
0000
0130
0000
,
0100
0001
0100
1000
,
0100
0001
0100
0000
,
0010
0001
1000
0010
,
2002
0000
0000
0000
0000
3003
0000
0000
,
0010
0100
0010
1000
,
0100
0010
0100
0000
,
1000
0001
0010
0001
,
1000
0010
0100
0000
,
0001
0010
0100
1000
,
0001
1000
0100
0000
,
0010
1000
0001
1000
,
0010
0100
0220
0330
,
1000
0001
1000
0010
,
0100
0001
0010
0000
,
0001
0100
0010
1000
,
0100
0010
0001
0000
,
0010
0001
0100
0010
,
1000
0001
0010
0000
,
0001
0010
1000
0010
,
0002
0000
1003
1001
,
0100
0001
0100
1000
,
0100
0001
0100
0000
,
0010
1000
0010
0001
,
2002
0000
0000
3003
;

//---------------dance-single - ----------------
#NOTES:
     dance-single:
     :
     Medium:
     11:
     0.538048,0.516444,0.152175,0.161686,0.009511,396.000000,380.000000,16.000000,17.000000,0.000000,0.000000,0.538048,0.516444,0.152175,0.161686,0.009511,396.000000,380.000000,16.000000,17.000000,0.000000,0.000000:
0000
0000
0000
0000
,
0000
0000
0000
0000
,
0100
0001
0100
1000
,
0220
0000
0000
0330
,
0001
0010
0001
0000
1000
0010
0100
0000
,
0001
1000
0100
0000
1000
0100
0010
0000
,
0100
1000
0100
0000
1000
0001
0100
0000
,
2020
0000
0000
3030
,
0001
0010
0001
0100
0001
0010
0100
0000
,
1000
0010
1000
0100
0010
0100
1000
0000
,
0010
0100
0001
1000
0010
0100
0001
0000
,
0010
0100
1000
0001
1000
0000
0110
0000
,
0001
1000
0100
1000
0010
0100
0001
0000
,
1000
0100
0010
0001
0010
0100
1000
0000
,
0010
1000
0001
1000
0100
0010
0001
0000
,
0100
0010
1000
0001
0010
0220
0330
0000
,
0001
0100
0001
0010
0100
1000
0001
0000
,
1000
0010
1000
0001
1000
0100
0010
0000
,
0001
0010
0100
1000
0010
0100
0001
0000
,
1000
0010
0100
0001
0010
0000
1001
0000
,
0100
0010
1000
0001
1000
0100
0010
0000
,
0001
0100
0010
0100
0001
1000
0100
0000
,
0010
0100
1000
0001
0010
0001
1000
0000
,
0220
0000
0000
0330
,
1000
0100
0000
0100
1000
0010
1000
0000
,
0001
0010
0000
0010
0001
0100
0001
0000
,
1000
0010
0000
0010
1000
0100
0010
0000
,
0001
0100
0000
0100
0010
0100
0001
0000
,
0010
0100
0000
0100
1000
0100
0010
0000
,
0001
0100
0000
0100
0010
0100
0001
0000
,
1000
0001
0000
0001
1000
0100
0010
0000
,
0001
1000
0000
1000
0010
0000
1001
0000
,
0100
0010
0000
0010
0100
0001
1000
0001
,
1000
0100
0000
0100
1000
0100
0010
0100
,
1000
0001
0000
0001
0010
0100
1000
0001
,
0100
0010
0000
0010
0100
0000
0101
0000
,
0001
0010
0000
0010
0100
1000
0100
0010
,
0001
1000
0000
1000
0010
0100
0010
1000
,
0100
0010
0000
0010
0100
1000
0001
1000
,
0010
0000
0000
0110
0000
0000
1000
0000
0001
0000
0010
0000
0001
0000
0000
0000
,
0200
0010
0000
0310
,
0002
0010
0000
0013
,
2000
0100
0000
3100
,
0020
0100
0000
0130
,
0100
0001
0100
1000
,
0100
0001
0010
1000
,
0010
0001
0010
0100
,
2002
0000
0000
3003
,
0010
0100
0010
1000
0100
0010
0100
0000
,
1000
0001
0010
0001
1000
0010
0100
0000
,
0001
0010
0001
0100
0010
1000
0100
0000
,
1000
0010
0100
0001
0010
0100
1000
0000
,
0010
0100
0010
1000
0001
0010
0100
0000
,
1000
0001
0100
0010
1000
0100
0010
0000
,
0001
0100
0010
0100
0001
1000
0100
0000
,
1000
0001
0010
0100
1000
0000
1001
0000
,
0010
1000
0100
0010
0001
1000
0010
0000
,
0100
0001
0010
0001
1000
0010
0100
0000
,
0001
0010
0100
1000
0001
0010
0100
0000
,
1000
0010
0100
0001
1000
0010
0100
0000
,
0001
0010
0000
0010
0100
1000
0100
0001
,
0100
1000
0000
1000
0010
0100
0010
1000
,
0001
0010
0000
0010
0100
1000
0001
1000
,
0020
0000
0000
0000
0000
0000
0000
0000
0130
0000
0000
1001
0000
0000
0010
0000
,
0100
0000
0101
0000
0010
1000
0100
0000
,
1000
0000
0011
0000
1000
0001
0010
0000
,
0001
0000
1100
0000
0001
0010
0100
0000
,
2020
0000
3030
0000
0001
0010
1000
0100
;

//---------------dance-single - ----------------
#NOTES:
     dance-single:
     :
     Hard:
     16:
     0.862779,0.839995,0.247285,0.142664,1.074737,635.000000,609.000000,26.000000,15.000000,0.000000,0.000000,0.862779,0.839995,0.247285,0.142664,1.074737,635.000000,609.000000,26.000000,15.000000,0.000000,0.000000:
// measure 0
0000
0000
0000
0000
,  // measure 1
0000
0000
0000
0000
,  // measure 2
0010
1000
0010
0001
1000
0100
0010
0001
,  // measure 3
2002
0000
0000
3003
,  // measure 4
0010
0100
0000
0100
0001
0000
0010
0000
0100
0000
1000
0000
0001
0000
0100
0000
,  // measure 5
0001
1000
0000
1000
0100
0000
0010
0000
0001
0000
1000
0000
0010
0000
0100
0000
,  // measure 6
0001
0010
0000
0010
0100
0000
1000
0000
0001
0100
0000
0100
0010
0000
1000
0000
,  // measure 7
2002
0000
0000
3003
,  // measure 8
0100
0010
0000
0100
0001
0000
0010
0000
0100
1000
0100
0000
1000
0000
0010
0000
,  // measure 9
0100
0001
0000
1000
0010
0000
1000
0000
0001
0010
0001
0000
1000
0000
0010
0000
,  // measure 10
0100
0010
0000
1000
0010
0000
0100
0000
0001
1000
0001
0000
0010
0000
0100
0000
,  // measure 11
1000
0000
0010
0000
1000
0001
0000
0001
0010
0001
0010
0000
0001
0000
0100
0000
,  // measure 12
0001
0010
0000
0001
1000
0000
0010
0000
0100
0001
0100
0000
0010
0000
1000
0000
,  // measure 13
0100
1000
0000
0010
1000
0000
0001
0000
0010
0100
0010
0000
0001
0000
1000
0000
,  // measure 14
0010
0100
0000
0001
0100
0000
0010
0000
1000
0001
1000
0000
0010
0000
0100
0000
,  // measure 15
0001
0000
0010
0000
0100
1000
0100
1000
0100
0000
2200
0000
0000
0000
3300
0000
,  // measure 16
0010
0000
0001
0000
1000
0010
0000
0100
0010
1000
0010
0000
0100
0000
0001
0000
,  // measure 17
0010
0001
0000
1000
0001
0000
0010
0000
0001
1000
0000
0010
1000
0000
0100
0000
,  // measure 18
0010
0000
0001
0000
1000
0001
0000
0010
0001
1000
0001
0000
0100
0000
0010
0000
,  // measure 19
1000
0010
0000
0100
0010
0000
1000
0000
0001
0010
0100
0000
1000
0000
0010
0000
,  // measure 20
0100
0000
0010
0000
1000
0001
0000
0010
0001
0100
0010
0000
1000
0000
0100
0000
,  // measure 21
0010
0100
1000
0000
0001
0000
1000
0000
0001
0100
0010
0000
1000
0000
0001
0000
,  // measure 22
0100
0010
0000
0100
0001
0000
0010
0100
1000
0001
1000
0000
0010
0000
0100
0000
,  // measure 23
0210
0001
1000
0301
,  // measure 24
0010
0100
0000
0100
1000
0010
0000
0010
0001
0010
0100
0000
0001
0000
0010
0000
,  // measure 25
0100
1000
0000
1000
0100
0010
0000
0010
0001
0010
0100
0000
1000
0000
0100
0000
,  // measure 26
0010
0001
0000
0001
1000
0010
0000
0010
0100
0001
1000
0000
0010
0000
0100
0000
,  // measure 27
0010
1000
0000
1000
0001
0010
0000
0010
0001
1000
0100
0000
0010
0001
0100
0000
,  // measure 28
0010
1000
0000
1000
0001
0100
0000
0100
0010
1000
0100
0000
1000
0000
0100
0000
,  // measure 29
0010
0001
0000
0001
0100
0010
0000
0010
1000
0100
0010
0000
0001
0000
0100
0000
,  // measure 30
0010
0001
0000
0001
0010
1000
0000
1000
0010
0100
0001
0000
0010
0000
0100
0000
,  // measure 31
1000
0100
0000
0100
0001
0100
0000
0100
1000
0010
0100
0000
0220
0000
0330
0000
,  // measure 32
0001
0010
0000
0010
0100
0010
0000
0010
0001
1000
0001
0000
0100
0000
0010
0000
,  // measure 33
1000
0010
0000
0010
0100
0010
0000
0010
1000
0100
1000
0000
0001
0000
0010
0000
,  // measure 34
0001
1000
0000
1000
0001
0010
0000
0010
0001
0100
0001
0000
0010
0000
0100
0000
,  // measure 35
1000
0010
0000
0010
1000
0001
0000
0001
0010
0100
1000
0000
0001
0100
0010
0000
,  // measure 36
0100
0001
0000
0001
0100
0010
0000
0010
0100
0010
0100
0000
0001
0000
0010
0000
,  // measure 37
0100
1000
0000
1000
0100
0010
0000
0010
0100
1000
0100
0000
1000
0000
0010
0000
,  // measure 38
0100
0001
0000
0001
0100
1000
0000
1000
0100
0010
0100
0000
0001
0000
0010
0000
,  // measure 39
0011
0000
0000
1100
0000
0000
1001
0000
0000
1010
0000
0000
0100
0010
0100
0000
,  // measure 40
0002
0013
2000
3010
,  // measure 41
0001
0011
1000
1010
,  // measure 42
0001
1100
0010
0101
,  // measure 43
0010
0000
0000
0000
1100
0000
0000
0000
0001
0000
0000
0000
0100
0000
0010
0100
,  // measure 44
0001
0000
1010
0000
0100
0001
0010
0000
,  // measure 45
0001
0000
1100
0000
0001
1000
0010
0000
,  // measure 46
0100
0000
1001
0000
0010
0100
1000
0001
,  // measure 47
2002
0000
0000
3003
,  // measure 48
0010
0100
0010
0000
1000
0000
0001
0010
0001
0100
0001
0000
0010
0000
0100
1000
,  // measure 49
0010
0100
0000
0100
0010
0100
0000
0100
0001
1000
0100
0000
1000
0000
0010
0100
,  // measure 50
0010
1000
0000
1000
0010
0100
0000
0100
0010
0001
0000
0001
0010
0000
0100
0010
,  // measure 51
1000
0100
0000
0100
0010
0100
0000
0100
1000
0001
0010
0000
0001
0000
0100
0010
,  // measure 52
1000
0100
1000
0000
0001
0000
0100
0010
1000
0000
0001
0000
0100
0000
0001
1000
,  // measure 53
0100
0010
0000
0010
0100
1000
0000
1000
0100
0010
0000
0010
0100
0000
0010
0001
,  // measure 54
1000
0001
0000
0001
0010
0100
0000
0100
0010
0001
0000
0001
0010
0000
0100
1000
,  // measure 55
0001
0000
0100
0000
0010
1000
0001
0100
0010
0000
1000
0000
0110
0000
0000
0000
,  // measure 56
0001
0010
0100
0000
1000
0000
0010
0100
0001
1000
0100
0000
1000
0000
0010
0100
,  // measure 57
0001
0100
0000
0100
1000
0100
0000
0100
0001
0100
0000
0100
0010
0000
1000
0001
,  // measure 58
0100
0010
0000
0010
0001
0010
0000
0010
1000
0010
0000
0010
0001
0000
0010
0100
,  // measure 59
0001
0010
0000
0010
0100
1000
0000
1000
0010
0100
0000
0100
0001
0000
0010
0100
,  // measure 60
0010
0001
0010
0000
0001
0000
1000
0010
0100
0010
1000
0000
0001
0000
1000
0100
,  // measure 61
0010
0100
0000
0100
1000
0010
0000
0010
0100
0001
0000
0001
0010
0000
0100
1000
,  // measure 62
0001
1000
0000
1000
0010
0100
0000
0100
0001
0010
0000
0010
0100
0000
1000
0010
,  // measure 63
0100
0000
0001
0010
0100
0010
0001
0000
1001
0000
0000
1010
0000
0000
1001
0000
,  // measure 64
0001
0000
0110
0000
1000
0001
0010
0000
,  // measure 65
1000
0000
0101
0000
0010
1000
0100
0000
,  // measure 66
0001
0000
1010
0000
0001
0100
1000
0100
,  // measure 67
0220
0000
0000
0000
0330
0000
0000
0000
0010
0100
0001
0010
0100
1000
0010
0100
;
