#TITLE:ANAGMA;
#SUBTITLE:;
#ARTIST:C-Show;
#TITLETRANSLIT:;
#SUBTITLETRANSLIT:;
#ARTISTTRANSLIT:;
#GENRE:PSY TECH DANCE;
#CREDIT:;
#BANNER:ANAGMA_banner.png;
#BACKGROUND:ANAGMA.png;
#LYRICSPATH:;
#CDTITLE:;
#MUSIC:ANAGMA.ogg;
#OFFSET:-0.330000;
#SAMPLESTART:89.930000;
#SAMPLELENGTH:12.790000;
#LASTBEATHINT:299.500000;
#SELECTABLE:YES;
#BPMS:0.000000=150.000000
;
#STOPS:56.000000=2.400000
;
#BGCHANGES:;
#KEYSOUNDS:;
#ATTACKS:;

//---------------dance-single - ----------------
#NOTES:
     dance-single:
     :
     Easy:
     6:
     0.252454,0.268076,0.127941,0.111948,0.000000,221.000000,205.000000,16.000000,14.000000,0.000000,0.000000,0.252454,0.268076,0.127941,0.111948,0.000000,221.000000,205.000000,16.000000,14.000000,0.000000,0.000000:
0000
0000
0000
0000
,
0000
0000
0000
0000
,
0000
0000
0000
0000
,
0000
0000
0000
0000
,
0100
0000
0000
0010
0000
0000
0100
0000
,
0001
0000
0000
0010
0000
0000
0001
0000
,
1000
0000
0000
0010
0000
0000
1000
0000
,
0220
0000
0000
0000
0000
0330
0000
0000
,
1000
0100
1000
0000
,
0001
0010
0001
0000
,
0100
0010
1000
0000
,
0010
0100
0001
0000
,
0020
0000
0031
0000
,
2000
0000
3010
0000
,
1001
0000
0100
0001
,
0100
0010
1000
0100
,
1000
0000
0100
1000
,
0010
0100
0001
0010
,
0002
0003
0001
0010
,
0100
1000
0001
1000
,
0010
0000
1000
0100
,
0010
0001
0220
0000
,
0000
0330
0000
0000
0001
0000
0100
0000
,
0001
0010
0001
1000
,
0010
0000
1000
0100
,
1000
0010
0100
0001
,
1000
0000
0001
0100
,
1000
0100
0001
0010
,
0100
0000
1000
0100
,
0001
0100
0020
0000
,
0000
0030
0000
0000
0000
0000
1001
0000
,
0100
0010
1000
0001
,
0010
0000
0002
0000
,
1003
0010
1000
0001
,
0010
0000
0100
1000
,
0010
1000
0001
0010
,
0100
0000
2000
0000
,
3001
0010
0100
0000
,
1001
0000
0001
0000
,
0001
0000
0001
0000
,
0001
0000
1000
0000
,
1000
0000
1000
0000
,
1000
0000
0010
0000
,
0010
0000
0010
0000
,
0010
0000
0100
0000
,
0100
0000
0100
0000
,
0100
0000
0011
0000
,
1000
0000
1100
0000
,
0001
0000
1001
0000
,
0010
0000
1100
0000
,
0001
0000
0110
0000
,
1001
0000
0110
0000
,
1001
0000
2000
0000
,
3100
0010
0002
0000
,
0100
0103
0010
1000
,
0001
1000
0100
0010
,
0001
0000
1000
0001
,
0010
0100
1000
0001
,
0100
0000
0010
0100
,
0010
1000
0001
0010
,
0100
0000
1000
0001
,
0100
0000
0010
0000
0100
0000
0000
0010
,
0000
0100
0001
0010
,
0100
1000
0001
0010
,
0100
0000
1000
0010
,
0100
0001
1000
0010
,
0100
0000
0001
0100
,
0010
0100
0001
1000
,
0100
0000
1000
0010
,
0100
0000
0010
0000
1000
0000
0000
0001
,
0000
1001
0100
0010
,
0100
0010
1000
0100
,
1000
0000
0022
0000
,
0033
0000
0100
0000
,
0100
0010
1001
0000
;

//---------------dance-single - ----------------
#NOTES:
     dance-single:
     :
     Medium:
     11:
     0.478635,0.476579,0.167922,0.095955,0.279870,419.000000,398.000000,21.000000,12.000000,0.000000,0.000000,0.478635,0.476579,0.167922,0.095955,0.279870,419.000000,398.000000,21.000000,12.000000,0.000000,0.000000:
0000
0000
0000
0000
,
0000
0000
0000
0000
,
0000
0000
0000
0000
,
0000
0000
0000
0000
,
1001
0000
0010
0001
0000
0000
1000
0000
,
1010
0000
0100
0010
0000
0000
1000
0000
,
1001
0000
0100
0001
0000
0000
0010
0000
,
0001
0000
0000
0010
0000
0000
0100
0000
0000
1000
0000
0000
1001
0000
0000
0000
,
0100
0000
0000
0100
0000
0000
0010
0000
0000
0100
0000
0000
0002
0000
0000
0000
,
0013
0000
0000
0010
0000
0000
0100
0000
0000
0010
0000
0000
0200
0000
0000
0000
,
1300
0000
0000
1000
0000
0000
0010
0000
0000
1000
0000
0000
0002
0000
0000
0000
,
0013
0000
0000
0010
0000
0000
0001
0000
0000
0100
0000
0000
0010
0000
0000
0000
,
1010
0000
0000
1000
0000
0000
0001
0000
0000
0010
0000
0000
0001
0000
0100
0000
,
0010
0000
0000
1000
0000
0000
0100
0000
0000
1000
0000
0000
0001
0000
0100
0000
,
0220
0330
0000
0000
0000
0000
0000
0000
0000
0000
0000
0000
0001
0000
0000
0010
0000
0000
0100
0000
0000
0000
0000
0000
,
1000
0010
0100
0010
1000
0100
0010
0000
,
0001
1000
0100
1000
0010
0100
0010
0000
,
1000
0100
0010
0100
0010
0001
1000
0000
,
0001
0000
1001
0000
0100
0010
1000
0000
,
0100
1000
0001
0100
0010
0100
0001
0000
,
0010
0001
1000
0001
0010
0100
1000
0000
,
0010
0000
0100
0000
1000
0000
0100
0000
0001
0000
0000
0001
0000
0000
0010
0000
,
0000
0001
0000
0000
1100
0000
0000
0000
1000
0000
0000
0010
0000
0000
1000
0000
,
0000
0100
0000
0000
1000
0000
0010
0000
0100
0000
0000
0001
0000
0000
0010
0000
,
0000
0001
0000
0000
1000
0000
0001
0000
1000
0000
0000
0100
0000
0000
0010
0000
,
0000
0001
0000
0000
0010
0000
0100
0000
1000
0000
0000
0010
0000
0000
0100
0000
,
0000
0001
0000
0000
1000
0000
1000
0000
0001
0000
0000
0010
0000
0000
0100
0000
,
0000
1000
0000
0000
0010
0000
0100
0000
0010
0000
0000
1000
0000
0000
0001
0000
,
0000
0100
0000
0000
0010
0000
0100
0000
0001
0000
0000
0010
0000
0000
0100
0000
,
0000
1000
0000
0000
0001
0000
1000
0000
0001
0000
0000
1001
0000
0000
0100
0000
,
0010
0000
0100
0000
0020
0000
0000
0000
1030
0000
0000
1100
0000
0000
0100
0000
,
0000
1000
0000
0000
0001
0000
0100
0000
0001
0000
0000
0011
0000
0000
0010
0000
,
0000
0001
0000
0000
1000
0000
0010
0000
0100
0000
0000
0110
0000
0000
0010
0000
,
0100
0000
0010
0100
0001
0010
0100
1000
,
0000
0000
1000
0000
0001
0000
0000
0000
0100
0000
0000
0010
0000
0000
1000
0000
,
0000
0010
0000
0000
0100
0000
0010
0000
1000
0000
0000
0100
0000
0000
1000
0000
,
0000
0001
0000
0000
0010
0000
0001
0000
1000
0000
0000
0000
2000
0000
0000
0000
,
0000
0000
0002
0000
,
0000
0000
0000
0000
3003
0000
0000
0000
0100
0000
0010
0000
0000
0100
0000
0000
,
0010
0000
0000
0100
0000
0000
0010
0000
0000
0000
1000
0000
0000
0001
0000
0000
,
1000
0000
0000
0001
0000
0000
1000
0000
0000
0000
0001
0000
0000
0010
0000
0000
,
0001
0000
0000
0010
0000
0000
0001
0000
0000
0000
1000
0000
0000
0010
0000
0000
,
1000
0000
0000
0010
0000
0000
1000
0000
0001
0000
0100
0000
0000
0100
0000
0000
,
0100
0000
0000
0100
0000
0000
0100
0000
0010
0000
1000
0000
0000
1000
0000
0000
,
1000
0000
0000
1000
0000
0000
1000
0000
0100
0000
0010
0000
0000
0100
0000
0000
,
0010
0000
0000
0001
0000
0000
1000
0000
0001
0000
0100
0000
0000
0010
0000
0000
,
0100
0000
0000
0001
0000
0000
1000
0000
0001
0000
0100
0000
0000
0010
0000
0000
,
0110
0000
0000
0100
0000
0000
0010
0000
1000
0000
0100
0000
0000
1000
0000
0000
,
1100
0000
0000
0100
0000
0000
1000
0000
0001
0000
0010
0000
0000
0001
0000
0000
,
0011
0000
0000
0010
0000
0000
0100
0000
1000
0000
0001
0000
0000
0100
0000
0000
,
0110
0000
0000
0010
0000
0000
1000
0000
0001
0000
0010
0000
0100
0000
0000
0000
,
0100
1000
0001
0000
0001
0100
0010
0000
,
0010
0000
1000
0000
0001
0000
0100
0000
0010
0000
0100
0000
0010
0000
0000
0010
,
0000
0010
0100
0000
0002
0000
1003
0000
,
1000
0000
0000
1001
0000
0000
0000
0000
0010
0000
0100
0000
0001
0000
0010
0000
,
0000
0001
1000
0000
0100
1000
0010
0100
,
0000
0010
0100
0000
0001
0010
0100
1000
,
0000
1000
0001
0000
1000
0010
0000
0010
,
0100
0010
0200
0000
0301
0010
0001
0100
,
0000
0010
0100
0000
0001
0010
0100
1000
,
0000
0010
1000
0000
0100
0010
0001
1000
,
0000
0000
0010
0000
0100
0000
0000
0000
0001
0000
0000
1000
0000
0000
1100
0000
,
0000
0100
1000
0000
0010
0100
0001
1000
,
0000
0100
1000
0000
0010
0100
0001
1000
,
0000
1000
0010
0000
1000
0100
0010
0001
,
0000
1000
0001
0000
0010
0001
0000
0001
,
0100
0001
0200
0000
0310
1000
0001
1000
,
0000
0010
1000
0100
0010
0100
1000
0001
,
0000
0001
1000
0000
0010
1000
0100
0010
,
0001
0000
0010
0000
0100
0000
0000
0000
1000
0000
0000
0101
0000
0000
0010
0000
,
0000
0100
0020
0000
1030
0000
0001
0010
,
0100
0010
0001
0000
0010
0000
0100
1000
,
0001
1000
0100
0000
1010
0000
0000
0100
,
0000
0000
0000
0000
0001
0000
0000
0000
0010
0000
0000
0100
0000
0000
1000
0000
,
0000
0001
0000
0000
0010
0000
0000
0000
0110
0000
0000
0000
0000
0000
0000
0000
;

//---------------dance-single - ----------------
#NOTES:
     dance-single:
     :
     Hard:
     16:
     0.775640,0.714868,0.199907,0.183915,0.911577,679.000000,654.000000,25.000000,23.000000,0.000000,0.000000,0.775640,0.714868,0.199907,0.183915,0.911577,679.000000,654.000000,25.000000,23.000000,0.000000,0.000000:
// measure 0
0000
0000
0000
0000
,  // measure 1
0000
0000
0000
0000
,  // measure 2
0000
0000
0000
0000
,  // measure 3
0000
0000
0000
0000
,  // measure 4
1001
0000
0000
0000
0010
0100
1000
0000
0000
0000
1000
0010
0100
0000
0000
0000
,  // measure 5
0110
0000
0000
0000
0001
0100
0010
0000
0000
0000
0100
0001
0010
0000
0000
0000
,  // measure 6
1001
0000
0000
0000
0010
1000
0100
0000
0000
0000
0010
0100
1000
0000
0000
0000
,  // measure 7
2100
0000
0000
0100
0000
0000
0001
0000
0000
0001
0000
0000
3010
0000
0000
0000
,  // measure 8
0201
0000
0000
0001
0000
0000
1000
0000
0000
1000
0000
0000
0010
0000
0310
0000
,  // measure 9
2000
0000
0000
0100
0000
0000
0010
0000
0000
0010
0000
0000
0001
0000
3001
0000
,  // measure 10
0020
0000
0000
0100
0000
0000
1000
0000
0000
1000
0000
0000
0100
0000
0130
0000
,  // measure 11
0200
0000
0000
1000
0000
0000
0001
0000
0000
0001
0000
0000
0010
0000
0310
0000
,  // measure 12
0001
0000
0100
0010
0000
0000
1000
0100
1000
0000
0010
0100
0000
0000
0001
0010
,  // measure 13
0001
0000
1000
0010
0000
0000
0100
0010
0100
0000
0001
0010
0100
1000
0001
0000
,  // measure 14
2002
0000
3003
0000
0000
0000
0000
0000
0000
0000
0000
0000
0000
0000
0000
0000
0000
0000
0000
0000
0000
0000
0000
0000
0100
0000
0000
0000
0000
0000
0010
0000
0000
0000
0000
0000
1000
0000
0000
0000
0000
0000
0001
0000
0000
0010
0000
0000
,  // measure 15
0001
0000
1000
0000
0010
0000
0100
0001
0100
0000
0010
0000
1000
0000
0100
0010
,  // measure 16
0100
0000
1000
0000
0010
0000
0100
0001
1000
0000
0001
0000
0010
0000
0100
1000
,  // measure 17
0010
0000
1000
0000
0001
0000
0100
0010
1000
0000
0100
0000
1000
0000
0010
0100
,  // measure 18
0001
0000
0010
0100
2000
0000
0000
0000
3010
0000
0100
0000
0010
0000
1000
0100
,  // measure 19
0010
0000
0100
0000
1000
0000
0001
0100
0010
0000
0100
0000
0001
0000
1000
0001
,  // measure 20
0010
0000
0100
0000
1000
0000
0001
0100
0010
0000
1000
0000
0010
0000
0100
0010
,  // measure 21
0100
0000
0001
0010
0001
1000
0001
0000
0200
0000
0000
1000
0000
0000
0010
0000
,  // measure 22
0000
0010
0000
0000
1300
0000
0000
0000
0110
0000
0100
0001
0000
1000
0001
0000
,  // measure 23
1000
0001
0000
0010
0100
1000
0001
0000
0010
0000
1000
0010
0000
0100
1000
0000
,  // measure 24
0100
0010
0000
0001
1000
0010
1000
0000
0001
0000
0100
0010
0000
0100
0001
0000
,  // measure 25
0100
1000
0000
0100
0010
1000
0001
0000
0010
0000
0100
1000
0000
0010
1000
0000
,  // measure 26
0001
1000
0000
0010
0100
0010
0100
0000
0001
0000
0010
0001
0000
1000
0001
0000
,  // measure 27
1000
0010
0000
1000
0100
1000
0001
0000
0100
0000
0010
0100
0000
0001
0100
0000
,  // measure 28
0010
1000
0000
0001
0010
0001
1000
0000
0010
0000
0100
0000
1000
0000
0100
0001
,  // measure 29
0000
1000
0001
0000
0010
0100
1000
0000
0010
0000
0000
1010
0000
0000
0001
0000
,  // measure 30
1000
0001
0010
0100
2000
0000
3002
0000
0013
0000
0000
0001
1000
0000
0010
0100
,  // measure 31
0001
0010
0000
0001
0010
0100
1000
0000
0010
0000
0100
0001
0000
1000
0010
0000
,  // measure 32
1000
0100
0000
1000
0010
0100
0001
0000
1000
0000
0010
0000
1000
0000
0001
0010
,  // measure 33
0000
0010
0001
0000
0100
0000
0010
0000
0100
0000
0001
0000
0010
0000
0100
1000
,  // measure 34
0000
1000
0001
0000
0010
0100
0010
0000
0001
0000
1000
0010
0000
0100
0010
0000
,  // measure 35
1000
0001
0000
0010
0100
1000
0001
0000
0100
0000
0010
1000
0000
0100
1000
0000
,  // measure 36
0001
0100
0000
0010
0100
0001
1000
0000
0002
0000
0000
0000
0010
0000
0010
0000
,  // measure 37
0000
1000
1000
0000
0203
0000
2300
0000
,  // measure 38
3010
0000
0000
0000
1001
0000
0000
0000
0100
0000
0010
1000
0000
0010
1000
0000
,  // measure 39
0010
1000
0000
0010
1000
0000
0020
0000
0130
0000
0001
0010
0000
0001
0010
0000
,  // measure 40
0001
0010
0000
0001
0010
0000
0002
0000
1003
0000
0100
0010
0000
0100
0010
0000
,  // measure 41
0100
0010
0000
0100
0010
0000
0200
0000
1300
0000
0010
0100
0000
1000
0100
0000
,  // measure 42
0001
0010
0000
0100
1000
0000
0002
0000
0013
0000
0001
1000
0000
0010
0100
0000
,  // measure 43
0001
0010
0000
0100
1000
0000
0020
0000
1030
0000
0100
1000
0000
0010
0100
0000
,  // measure 44
0001
0010
0000
0100
1000
0000
0002
0000
0103
0000
0010
0100
0000
0001
1000
0000
,  // measure 45
0100
0010
0000
0001
1000
0000
0020
0000
0130
0000
0010
1000
0000
0001
0100
0000
,  // measure 46
0001
0010
0000
0010
0001
1000
0001
0000
1001
0000
0100
0000
0010
0100
0000
0010
,  // measure 47
0100
0000
0010
0100
0000
0010
0100
0000
0101
0000
0010
0000
0001
0100
0000
0001
,  // measure 48
0100
0000
0001
0100
0000
0001
0100
0000
0110
0000
0010
0000
1000
0100
0000
1000
,  // measure 49
0100
0000
1000
0100
0000
1000
0100
0000
1001
0000
0100
0000
0001
0010
0000
0001
,  // measure 50
0010
0000
0001
1000
0000
0001
0010
0100
1000
0000
0010
0000
0100
0001
0000
0010
,  // measure 51
0001
0000
1000
0010
0000
0100
0010
0000
1000
0000
0010
0001
0000
0010
1000
0000
,  // measure 52
0001
0000
0100
1000
0000
0100
0001
0000
1000
0000
0001
0000
0010
0100
0010
0100
,  // measure 53
0000
1000
0001
1000
0001
0000
0010
0000
0001
0100
0001
0000
1000
0010
1000
0010
,  // measure 54
0100
0000
0000
1001
0000
0000
0010
0000
0100
0000
1000
0000
0010
0100
0010
0100
,  // measure 55
0000
0001
0010
0001
0010
0000
0100
0000
1000
0000
0010
0000
0100
0001
0100
0001
,  // measure 56
0000
0001
0010
0100
1000
0000
0010
0000
1000
0000
0001
0000
0100
0010
0100
0010
,  // measure 57
0000
1000
0100
1000
0010
0000
0100
0000
0001
0100
1000
0000
1000
0100
0001
0000
,  // measure 58
1000
0100
0000
0010
0001
0000
0010
0000
0001
0000
0100
0000
0010
1000
0010
1000
,  // measure 59
0000
0001
0010
0001
0010
0000
0100
0000
1000
0000
0010
0000
0100
0001
0100
0001
,  // measure 60
0000
0010
0001
0010
0001
0000
1000
0000
0010
0000
1000
0000
0001
0010
0001
0100
,  // measure 61
0000
0010
0100
0010
1000
0000
0100
0000
0110
0000
0000
1100
0000
0000
0101
0000
,  // measure 62
0000
0000
0110
0000
1001
0000
0000
0000
0100
0000
0010
0000
1000
0100
1000
0100
,  // measure 63
0000
0010
0001
0010
0001
0000
1000
0000
0001
0000
0010
0000
0001
0100
0001
0100
,  // measure 64
0000
0010
1000
0010
1000
0000
0001
0000
0010
0000
0001
0000
1000
0010
0100
0010
,  // measure 65
0000
0010
1000
0100
0010
0000
0001
0000
1000
0010
0001
0000
0001
0010
1000
0000
,  // measure 66
0001
0010
0000
0100
1000
0000
0001
0000
0010
0000
0001
0000
1000
0001
0010
0001
,  // measure 67
0000
0100
0010
0100
0001
0000
0010
0000
0001
0000
1000
0000
0010
0100
0001
0100
,  // measure 68
0000
0010
1000
0010
0100
0000
0001
0000
1000
0000
0100
0000
0010
0000
0100
1000
,  // measure 69
0010
0000
0100
0000
0001
0000
0010
0001
0010
0000
0000
1100
0000
0000
0011
0000
,  // measure 70
0000
0000
0010
0000
0100
1000
0001
0100
0010
0000
0000
0000
0010
0000
1000
0000
,  // measure 71
0010
0100
0010
0000
1010
0000
1000
0100
,  // measure 72
1000
0001
1000
0000
0012
0000
0000
1000
,  // measure 73
0000
0000
0000
0000
0013
0000
0000
0000
0201
0000
0000
1000
0000
0000
0001
0000
,  // measure 74
0000
0010
0000
0000
0310
0000
0000
0000
1001
0000
0000
0000
0000
0000
0000
0000
;
