#TITLE:ALTERNATOR;
#SUBTITLE:;
#ARTIST:BEMANI Sound Team "dj Hellix";
#TITLETRANSLIT:;
#SUBTITLETRANSLIT:;
#ARTISTTRANSLIT:dj Hellix;
#GENRE:IRREGULAR OMNIBUS HARDCORE;
#CREDIT:;
#BANNER:ALTERNATOR_banner.png;
#BACKGROUND:ALTERNATOR_bg.png;
#LYRICSPATH:;
#CDTITLE:;
#MUSIC:ALTERNATOR.ogg;
#OFFSET:-0.445000;
#SAMPLESTART:96.440002;
#SAMPLELENGTH:12.000000;
#SELECTABLE:YES;
#BPMS:0.000000=185.000000
;
#STOPS:
;
#BGCHANGES:;
#KEYSOUNDS:;
#ATTACKS:;

//---------------dance-single - ----------------
#NOTES:
     dance-single:
     :
     Easy:
     8:
     0.352855,0.368044,0.098145,0.098145,0.000000,302.000000,290.000000,12.000000,12.000000,0.000000,0.000000,0.352855,0.368044,0.098145,0.098145,0.000000,302.000000,290.000000,12.000000,12.000000,0.000000,0.000000:
0000
0000
0000
0000
,
0000
0000
0000
0000
,
0000
0000
0000
0000
,
0000
0000
0000
0000
,
1000
0000
0001
0000
0010
0000
0000
0001
,
0000
1000
0000
0001
0000
0100
0000
0010
,
0200
0000
0310
0000
,
1000
0001
0010
0100
,
1000
0000
0010
0000
,
1000
0000
0000
0001
0000
0001
0000
0000
,
0010
0000
0001
0000
,
0100
0000
0000
0010
0000
0010
0100
0000
,
0001
0000
1000
0000
,
0100
0000
0000
1000
0000
1000
0010
0000
,
0100
0000
0001
0000
,
0010
0000
0000
0001
0000
0001
1000
0000
,
0001
0010
0100
0010
,
0001
0010
0100
0000
,
1000
0010
0100
0010
,
1000
0010
0100
0000
,
0001
0010
1000
0010
,
0001
0010
1000
0000
,
0010
0001
1000
0010
,
0200
0000
0000
0300
,
0010
0010
0010
0010
,
0200
0000
0310
0000
,
1001
0001
0001
0001
,
0001
0001
0001
0000
,
0010
0100
0010
0100
,
0010
0100
0020
0030
,
1000
1000
1000
1000
,
1000
1000
1000
0010
,
0100
0001
0100
0001
,
0010
0000
0010
0000
0010
0000
0010
0100
,
0000
1001
0010
0100
,
0001
1000
0100
0000
,
1000
0010
0100
0001
,
0010
0100
1000
0000
,
0010
0100
0001
1000
,
0001
0010
0100
0000
,
1000
0010
0001
0010
,
0200
0010
0010
0310
,
0001
0001
0010
0100
,
1000
0010
1000
0010
,
0100
0001
1000
0100
,
1000
0010
0200
0000
,
0301
0010
0100
1000
,
0010
0100
0010
1000
,
0001
1000
0100
0010
,
0001
1000
2002
3003
,
0110
0000
0010
0000
,
1000
0100
1000
0000
,
0001
0000
0010
0001
,
0100
0000
0001
1000
,
0010
0000
0010
0100
,
0010
0000
1000
0001
,
0010
0000
0001
1000
,
0100
1000
2002
3003
,
0110
0000
0010
1000
,
0100
0000
0100
1000
,
0001
0000
0010
0001
,
1000
0000
1000
0010
,
0100
0000
0100
0001
,
0010
0000
0010
0001
,
1000
0000
1000
0010
,
0100
0000
0010
0010
,
1000
0100
0001
0100
,
1000
0100
1000
0000
,
0001
0100
1000
0100
,
0001
0100
0001
0000
,
0010
0001
0010
0001
,
0100
0010
0100
0010
,
1000
0010
0100
0001
,
2002
0000
3003
0000
,
0110
0010
1000
0100
,
1000
0001
0010
0000
,
0001
0010
0100
1000
,
0010
0100
0001
0000
,
1000
0100
0010
0001
,
0010
0100
1000
0000
,
0010
1000
0001
0010
,
0100
0100
0100
0110
,
0010
0001
1000
0010
,
1000
0001
0100
0000
,
0010
1000
0100
1000
,
0001
0010
0100
0000
,
0010
0001
1000
0001
,
0010
0100
1000
0001
,
0100
0010
1000
0001
,
0110
0000
1001
0000
,
0110
0000
0000
0000
;

//---------------dance-single - ----------------
#NOTES:
     dance-single:
     :
     Medium:
     13:
     0.684679,0.662479,0.441653,0.114503,0.000000,586.000000,532.000000,54.000000,14.000000,0.000000,0.000000,0.684679,0.662479,0.441653,0.114503,0.000000,586.000000,532.000000,54.000000,14.000000,0.000000,0.000000:
0000
0000
0000
0000
,
0000
0000
0000
0000
,
0000
0000
0000
0000
,
0000
0000
0000
0000
,
0010
0001
1000
0000
0010
0100
0001
0010
,
0001
1000
0000
1100
0000
0001
0010
0001
,
0100
0001
0020
0000
0031
1000
0010
1000
,
0001
0010
0100
1000
0010
0100
0110
0000
,
1000
0010
0100
0000
0010
1000
0100
0000
,
1000
0100
0001
0100
0000
0100
1000
0010
,
0100
0001
0100
0000
0010
1000
0100
0000
,
0010
0001
1000
0001
0010
0000
1100
0000
,
0010
0100
0001
0000
0001
0100
0010
0000
,
1000
0001
0010
0001
0000
0001
0010
1000
,
0010
0001
0100
0000
0010
1000
0001
0000
,
0010
0100
1000
0100
0001
0100
1000
0000
,
0010
0100
0001
1000
0100
0010
0001
0000
,
0010
0001
1000
0001
0010
0100
1000
0000
,
0010
0100
0001
1000
0100
0010
0001
0000
,
0010
0001
1000
0001
0010
0100
2000
0000
,
3001
0100
0001
0100
0010
1000
0010
1000
,
0100
1000
0100
1000
0001
0010
0001
0010
,
0001
1000
0100
0010
0001
1000
0010
0100
,
0001
0000
0011
0000
1000
0100
0001
0100
,
1000
1010
1001
0011
,
0100
0000
0001
0100
0010
1000
1001
0000
,
0011
1001
0011
1001
,
1010
1001
1010
1001
,
0101
1001
0101
1001
,
1100
0000
1001
0000
1100
0000
1000
0001
,
0010
0100
1000
0000
0010
0100
0001
0000
,
0010
0001
0100
0000
0010
1000
0100
0000
,
1000
0001
0010
0001
0100
0010
1000
0001
,
0010
0000
1100
0000
0001
0100
1000
0100
,
0020
0000
0130
0001
1000
0100
0010
0000
,
0001
0100
0010
1000
0001
0010
0100
0000
,
1000
0010
0100
0001
0010
0100
1000
0000
,
0001
0010
0001
0100
0010
0001
0010
0000
,
1000
0100
0010
0100
1000
0001
0100
0000
,
0010
1000
0100
1000
0010
0100
0001
0000
,
0010
0100
1000
0001
0010
0100
1000
0000
,
0020
0000
1000
0000
0130
0000
1000
1000
,
0001
0100
0001
1000
0100
0000
0010
0100
,
1000
0001
1000
0000
0010
0100
0001
0000
,
0020
0000
0031
1000
0001
0010
0100
0000
,
2000
0000
3010
0100
0001
1000
0100
0100
,
0010
0001
1000
0000
0010
1000
0001
0000
,
0100
0001
1000
0000
0100
1000
0001
0000
,
1000
0010
1000
0010
0100
0001
0100
0001
,
0010
1000
0010
0001
0100
0010
0110
0000
,
2000
0000
0000
3010
0100
0001
0000
0011
,
0000
1010
0000
0100
0001
0100
0010
1000
,
0200
0000
0000
1300
0010
1000
0000
0011
,
0000
0101
0000
0010
1000
0100
0010
0000
,
0110
0000
0000
0100
1000
0001
0000
0101
,
0000
1100
0000
1000
0010
0100
0001
0000
,
0011
0000
0000
1000
0002
0000
0000
0103
,
0000
0110
0000
0010
1000
0001
0010
0000
,
0101
0000
0000
0010
1000
0100
1000
0010
,
0000
1010
0000
0010
0100
0001
1000
0000
,
1100
0000
0000
0100
0010
0100
1000
0001
,
0000
0101
0000
0001
0010
0001
2000
0000
,
3010
0000
0010
0100
0001
0000
0010
0001
,
0000
0101
0000
1000
0010
1000
0001
0000
,
0020
0000
0031
1000
0001
0000
0010
0100
,
0000
1100
0000
1000
0001
0100
0020
0000
,
1030
0100
0010
0100
1000
0000
1001
0000
,
0001
0100
0010
0100
0001
0000
1001
0000
,
0010
0001
0100
0001
0010
0000
1001
0000
,
0100
0010
1000
0010
0100
0000
1001
0000
,
0010
0001
0010
0001
1000
0100
1000
0100
,
1000
0010
1000
0010
0100
0001
0100
0000
,
0001
0010
0100
1000
0001
0010
0100
1000
,
0002
0000
0010
0013
,
1100
0000
0001
1000
0100
1000
0010
0000
,
0100
0001
0100
0010
1000
0100
0010
0000
,
0001
0100
1000
0100
0010
1000
0100
0000
,
0010
1000
0010
0001
0100
0010
1000
0000
,
1010
0000
0100
0001
0010
0100
1000
0000
,
0101
0000
0010
1000
0001
0010
0100
0000
,
0010
0001
0100
0010
1000
0100
0001
0100
,
2000
0000
0010
0010
0000
0010
3010
0000
,
0010
0100
0001
1000
0001
0010
0100
0000
,
1000
0010
0001
0000
0001
0010
0100
0000
,
0001
1000
0100
1000
0001
0010
0100
0000
,
1000
0010
0100
0001
1000
0100
0010
0000
,
0011
0000
0010
0100
1000
0100
0010
0000
,
0101
0000
0010
1000
0100
1000
0001
0000
,
1010
1001
0011
1001
,
0100
1000
0010
0001
0010
0100
0001
0000
,
0110
0000
0000
0000
;

//---------------dance-single - ----------------
#NOTES:
     dance-single:
     :
     Hard:
     17:
     0.960420,0.993719,0.572513,0.220826,0.625675,822.000000,752.000000,70.000000,27.000000,0.000000,0.000000,0.960420,0.993719,0.572513,0.220826,0.625675,822.000000,752.000000,70.000000,27.000000,0.000000,0.000000:
// measure 0
0000
0000
0000
0000
,  // measure 1
0000
0000
0000
0000
,  // measure 2
0000
0000
0000
0000
,  // measure 3
0000
0000
0000
0000
,  // measure 4
0001
1000
0100
0010
0100
1000
0010
0110
,  // measure 5
0000
1100
0000
0101
0000
0010
0010
0010
,  // measure 6
1000
0001
0010
0000
0011
0000
0001
1000
,  // measure 7
0100
0000
0010
0000
0100
0000
1000
0000
0001
0100
0010
1000
0001
0000
0100
0000
,  // measure 8
0010
1000
1010
0000
0010
0001
0011
0000
,  // measure 9
0100
0001
1000
1100
0000
0101
0000
0100
,  // measure 10
0010
1000
1010
0000
0010
0001
0011
0000
,  // measure 11
0100
1000
0100
0001
0101
0000
1100
0000
,  // measure 12
1000
0010
1010
0000
0001
0010
0011
0000
,  // measure 13
1000
0001
0010
0110
0000
0011
0000
1000
,  // measure 14
0001
0100
0110
0000
0001
1000
1100
0000
,  // measure 15
0010
0000
1000
0000
0001
0000
1000
0000
0100
0010
0001
1000
0010
0000
0100
0000
,  // measure 16
0001
0000
0010
0100
1000
0000
0001
0000
1000
0000
0001
0000
0011
0000
0000
0000
,  // measure 17
1000
0000
0001
0010
0100
0000
1000
0000
0010
0000
1000
0000
1100
0000
0000
0000
,  // measure 18
0100
0000
1000
0010
0000
1000
0001
1000
0100
0000
0010
0000
0011
0000
0000
0000
,  // measure 19
0100
0000
0010
1000
0000
0001
1000
0001
0010
0000
0100
0000
2200
0000
3000
0000
,  // measure 20
0310
0000
0001
0000
1000
0000
0001
0100
0010
0000
1000
0000
0001
0000
0010
0100
,  // measure 21
1000
0000
0010
0000
1000
0000
0001
0100
0010
0000
1000
0000
0001
0000
0010
0001
,  // measure 22
1000
0010
1000
0010
0100
0001
0100
0001
0010
0001
0010
0001
1000
0100
1000
0100
,  // measure 23
0010
0000
1100
0000
0001
0100
1000
0100
,  // measure 24
0001
0011
1001
1010
,  // measure 25
0101
0000
0000
0000
1100
0000
0000
0000
0100
0000
0010
0000
0220
0330
0000
0000
,  // measure 26
0011
0101
0011
0101
,  // measure 27
1010
1100
1010
1100
,  // measure 28
1001
0011
1001
1010
,  // measure 29
0101
0000
1100
0000
0101
0000
0110
0110
,  // measure 30
1000
0000
0010
0000
0100
0000
0010
0000
1000
0000
0100
0000
0010
0000
0001
1000
,  // measure 31
0001
0000
0010
0000
0001
0000
0100
0000
0010
0000
0100
0000
0001
0000
1000
0010
,  // measure 32
0100
0000
0001
0000
0100
0000
0010
0000
1000
0010
1000
0000
0001
0010
0100
1000
,  // measure 33
0001
0000
0100
0000
0001
0000
0011
0000
0010
0000
0001
0000
1000
0010
0200
0002
,  // measure 34
0300
0000
0003
0000
1010
0000
0010
0000
1000
0100
0010
0000
0100
0000
1000
0000
,  // measure 35
0001
0000
0100
0000
0010
0000
0100
0000
0001
1000
0010
0000
0100
0000
0001
0000
,  // measure 36
0010
0000
0001
0000
1000
0000
0010
0000
0100
0001
0010
0000
0100
0000
1000
0000
,  // measure 37
0010
0000
1000
0000
0001
0010
0100
0000
1000
0010
0100
0000
0010
0000
0010
0000
,  // measure 38
0100
0000
0001
0000
0010
0001
1000
0000
0010
0100
0001
0000
1000
0000
0100
0000
,  // measure 39
0010
0000
0100
0000
1000
0001
0100
0000
0001
1000
0100
0000
0010
0000
0001
0000
,  // measure 40
0010
0000
0001
0000
1000
0010
0100
0000
0010
1000
0100
0000
1000
0000
0001
0000
,  // measure 41
0100
0000
0001
0010
0100
0000
1000
0000
0010
0000
0010
0000
1000
0001
0100
0001
,  // measure 42
1000
0000
1000
0000
1010
0000
0010
0000
0100
0001
0010
0000
0001
0000
0010
0000
,  // measure 43
0100
0000
1000
0010
0100
0000
0001
0000
0010
0100
1000
0000
0010
0000
1000
0000
,  // measure 44
0001
0000
1000
0100
0010
0000
0100
0000
0010
0001
1000
0000
0010
0000
0100
0000
,  // measure 45
0001
0000
0010
0100
1000
0000
0001
0000
1000
0010
0100
0000
0001
0000
0001
0000
,  // measure 46
0010
0000
0100
1000
0100
0000
0010
0000
0001
0100
0001
0000
0010
0000
0001
0000
,  // measure 47
1000
0000
0010
0100
0010
0000
1000
0000
0001
0100
0001
0000
1000
0000
0010
0000
,  // measure 48
0100
0100
0001
0001
0010
0010
1000
1000
,  // measure 49
0010
0001
0100
0010
1000
0100
0010
0001
0100
0000
0010
0000
0110
0000
0000
0000
,  // measure 50
1200
0000
0000
0000
1300
0000
1000
0100
1000
0000
0001
0000
0100
0000
0001
0000
,  // measure 51
0000
0000
0021
0000
0000
0000
0031
0100
0001
0000
1000
0000
0100
0000
0010
0000
,  // measure 52
0200
0000
0000
0000
1300
0000
0100
0010
0001
0000
0100
0000
0001
0000
1000
0000
,  // measure 53
0000
0000
1010
0000
0000
0000
0100
0001
0010
0000
0001
0000
1001
0000
0000
0000
,  // measure 54
0120
0000
0000
0000
1030
0000
0100
1000
0001
0000
0100
0000
0010
0000
1000
0000
,  // measure 55
0000
0000
1010
0000
0000
0000
0001
0010
0100
0000
0010
0000
0001
0000
1000
0010
,  // measure 56
0200
0000
0000
0000
0301
0000
0001
0010
0001
0000
0100
0000
0010
0000
1010
0000
,  // measure 57
0000
0000
1100
0000
0000
0000
1000
0001
0100
0000
0010
0000
1010
0000
0000
0000
,  // measure 58
0021
0000
0000
0000
0031
0000
1000
0010
0100
0000
0010
0000
1000
0000
0001
0000
,  // measure 59
0000
0000
0011
0000
0000
0000
1000
0001
1000
0000
0010
0000
0100
0000
0001
0010
,  // measure 60
0200
0000
0000
0000
1300
0000
0010
1000
0010
0000
0100
0000
0001
0000
0010
0000
,  // measure 61
0000
0000
1100
0000
0000
0000
0001
0100
0010
0000
1000
0000
1010
0000
0000
0000
,  // measure 62
0012
0000
0000
0000
1003
0000
0100
0010
0001
0000
1000
0000
0001
0000
0100
0000
,  // measure 63
0000
0000
0011
0000
0000
0000
1000
0010
1000
0000
0001
0000
0100
0000
0001
0000
,  // measure 64
0020
0000
0000
0000
0130
0000
1000
0001
0100
0000
0100
0000
0010
0000
1010
0000
,  // measure 65
0000
0000
1100
0000
0000
0000
0001
1000
0010
0000
1000
0001
0200
0000
0000
0000
,  // measure 66
0301
0000
0010
0000
0100
0000
1000
0010
1000
0000
0001
0000
0020
0000
2030
0000
,  // measure 67
3010
0000
0001
0000
0100
0000
0001
1000
0001
0000
0100
0000
2000
0000
3200
0000
,  // measure 68
0310
0000
0100
0000
0001
0000
1000
0010
1000
0000
0010
0000
0002
0000
0023
0000
,  // measure 69
1030
0000
0100
0000
0010
0000
0100
1000
0001
0000
1000
0001
0200
0000
0000
0000
,  // measure 70
0301
0000
0001
0000
0010
0000
0010
0000
0100
0000
0100
0000
1000
0000
1000
0010
,  // measure 71
1000
0000
1000
0000
0010
0000
0010
0000
0100
0000
0100
0000
0001
0000
0001
1000
,  // measure 72
0001
1000
0001
1000
0010
0100
0010
0100
0001
0010
0100
1000
0001
0010
0100
1000
,  // measure 73
0020
0000
0130
0110
,  // measure 74
2002
3003
0000
0000
0010
0001
1000
0000
0010
1000
0001
0000
0100
0001
1000
0000
,  // measure 75
0100
1000
0001
0000
0010
1000
0100
0000
0100
1000
0010
0000
0100
0001
0010
0000
,  // measure 76
0001
0100
0010
0000
1000
0100
0010
0000
0010
0100
1000
0000
0001
0100
0010
0000
,  // measure 77
1000
0001
0010
0000
0001
1000
0010
0000
0100
0000
0100
0000
0010
1000
0001
1000
,  // measure 78
0010
0100
0001
0000
0010
0001
0100
0000
0010
0100
0001
0000
0010
0100
0001
0000
,  // measure 79
0100
1000
0010
0000
0100
0010
1000
0000
0100
1000
0010
0000
0100
0010
1000
0000
,  // measure 80
0001
0010
0100
0000
0010
0100
1000
0000
0001
0100
0010
0000
0100
0010
1000
0000
,  // measure 81
0020
0000
0100
0100
0000
0100
0100
0130
,  // measure 82
0001
1000
0010
0100
0001
1000
0100
0010
0001
1000
0010
0000
0100
0001
1000
0000
,  // measure 83
0100
1000
0001
0000
0010
0001
1000
0000
0010
0100
0001
0000
0100
0001
1000
0000
,  // measure 84
0001
0010
1000
0000
1000
0010
0001
0000
1000
0100
0001
0000
0001
0100
1000
0000
,  // measure 85
0010
1000
0100
0000
0100
1000
0010
0000
0100
0001
0010
0000
0010
0001
0100
0000
,  // measure 86
0001
1000
0010
0000
1000
0001
0100
0000
0010
1000
0001
0000
0100
0001
1000
0000
,  // measure 87
0001
1000
0100
0000
1000
0001
0010
0000
0001
1000
0010
1000
0001
0000
0100
0000
,  // measure 88
0001
0010
1000
0010
0001
1000
0100
1000
,  // measure 89
0001
0010
0001
1000
0010
0100
0010
1000
0100
1000
0010
0100
0001
0000
0000
0000
,  // measure 90
0011
0000
0000
0000
;
