#TITLE:AIR RAID FROM THA UNDAGROUND;
#SUBTITLE:;
#ARTIST:GUHROOVY;
#TITLETRANSLIT:;
#SUBTITLETRANSLIT:;
#ARTISTTRANSLIT:;
#GENRE:SPEEDCORE;
#CREDIT:;
#BANNER:AIR_RAID_FROM_THA_UNDAGROUND_banner.png;
#BACKGROUND:AIR_RAID_FROM_THA_UNDAGROUND.png;
#LYRICSPATH:;
#CDTITLE:;
#MUSIC:AIR RAID FROM THA UNDAGROUND.ogg;
#OFFSET:-0.400000;
#SAMPLESTART:32.400002;
#SAMPLELENGTH:10.650000;
#LASTBEATHINT:460.495972;
#SELECTABLE:YES;
#BPMS:0.000000=90.000000
,16.000000=180.000000
,48.000000=360.000000
,172.000000=180.000000
,332.000000=360.000000
,460.000000=180.000000
;
#STOPS:168.000000=0.167000,
169.000000=0.167000,
170.000000=0.167000,
171.000000=0.167000
;
#BGCHANGES:;
#KEYSOUNDS:;
#ATTACKS:;

//---------------dance-single - ----------------
#NOTES:
     dance-single:
     :
     Easy:
     8:
     0.337144,0.514726,0.154621,0.244139,0.000000,290.000000,271.000000,19.000000,30.000000,0.000000,0.000000,0.337144,0.514726,0.154621,0.244139,0.000000,290.000000,271.000000,19.000000,30.000000,0.000000,0.000000:
0000
0000
0000
0000
,
0000
0000
0000
0000
,
0000
0000
0000
0000
,
0000
0000
0000
0000
,
0001
0000
0001
0000
,
0010
0000
0010
0000
,
0100
0000
0100
0000
,
1000
0000
1000
0000
,
0010
0000
0010
0000
,
0100
0000
0010
0000
,
1000
0001
1000
0001
,
0220
0000
0330
0000
,
1000
0000
0000
0000
,
1000
0000
0010
0000
,
0100
0000
0000
0000
,
0001
0000
0010
0000
,
0100
0000
0000
0000
,
0010
0000
0001
0000
,
1000
0000
0000
0000
,
0010
0000
0100
0000
,
0001
0000
0000
0000
,
0001
0000
1000
0000
,
0100
0000
0000
0000
,
0010
0000
1000
0000
,
0010
0000
0000
0000
,
0011
0000
0000
0000
,
1000
0000
0001
0000
,
2200
0000
3300
0000
,
0001
0000
0001
0000
,
0001
0010
0001
0000
,
1000
0000
1000
0000
,
1000
0010
1000
0000
,
0010
0000
0010
0000
,
0010
0100
0010
0000
,
0100
0000
0100
0000
,
0100
0001
0100
0000
,
0001
0000
1000
0000
,
0001
1000
0001
0000
,
1000
0000
0001
0000
,
1000
0001
1000
0000
,
0010
0000
0100
0000
,
0010
0000
1000
0000
,
0110
0000
0000
0000
,
1000
1000
0100
0100
,
0010
0010
0002
0003
,
0100
0100
0010
0010
,
1000
1000
0011
0000
,
0100
0100
0010
0010
,
1000
1000
0200
0300
,
1000
1000
0001
0001
,
0022
0000
0033
0000
,
0100
0000
0000
0100
0000
0000
0100
0000
,
0010
0000
0000
0010
0000
0000
0010
0000
,
1000
0000
0000
1000
0000
0000
1000
0000
,
0001
0000
0000
0001
0000
0000
0001
0000
,
1000
0000
0000
1000
0000
0000
1000
0000
,
0020
0000
0000
0130
0000
0000
0110
0000
,
0001
0010
0100
1000
,
0001
1000
2002
3003
,
0100
0000
0000
0010
0000
0000
0100
0000
,
0001
0000
0001
0010
0002
0000
0003
0000
,
0100
0000
0000
0010
0000
0000
0100
0000
,
0010
0000
1000
0010
2000
0000
3000
0000
,
0001
0100
0001
0010
,
0100
1000
0010
0100
,
0001
0000
1000
0000
0001
0010
0001
0000
,
2020
0000
3030
0000
,
0100
0001
0100
0220
,
0000
0330
0000
1000
,
0100
0000
0010
0000
0100
0000
1000
0002
,
0000
0000
0003
0000
,
0100
0001
1000
2200
,
0000
0000
3300
0000
0000
0001
0001
0000
,
0010
0000
0001
0000
1000
0000
0010
0200
,
0000
0000
0300
0000
,
1010
0100
0000
0100
,
0001
0010
0000
0010
,
0001
1001
0000
0100
,
0010
0010
0202
0303
,
0010
1000
0000
1000
,
0100
0000
0010
0000
0000
0001
0001
0000
,
0101
0000
0010
0000
,
2000
0000
0000
3000
,
0001
0000
0001
0000
,
0001
0000
0001
0000
,
0010
0000
0010
0000
,
0010
0000
0010
0000
,
0100
0000
0100
0000
,
0100
0000
0100
0000
,
1000
0000
0001
0000
,
2002
0000
3003
0000
,
0010
0000
0010
0000
,
0100
0010
0100
0000
,
0001
0000
0001
0000
,
0010
0001
0010
0000
,
0100
0000
0100
0000
,
1000
0100
1000
0000
,
2020
0000
3030
0000
,
0200
0000
0300
0000
,
0010
0000
0010
0000
,
1000
0001
1000
0000
,
0100
0000
0100
0000
,
0001
1000
0001
0000
,
1000
0000
1010
0000
,
0001
1000
0001
0000
,
0010
0001
0100
0010
,
2000
0000
3000
0000
,
0010
0000
0100
0000
,
0100
0010
0100
0000
,
0001
0000
1000
0000
,
1000
0001
1000
0000
,
0001
0010
0001
0000
,
1000
0010
1000
0000
,
0001
0010
0100
1000
,
0001
0000
0000
0000
,
1001
0000
0000
0000
;

//---------------dance-single - ----------------
#NOTES:
     dance-single:
     :
     Medium:
     13:
     0.616159,0.795485,0.260415,0.162759,0.085449,530.000000,498.000000,32.000000,20.000000,0.000000,0.000000,0.616159,0.795485,0.260415,0.162759,0.085449,530.000000,498.000000,32.000000,20.000000,0.000000,0.000000:
0000
0000
0000
0000
,
0000
0000
0000
0000
,
0000
0000
0000
0000
,
0000
0000
0000
0000
,
1001
0000
0100
0000
0010
1000
0001
0000
,
0011
0000
1000
0000
0010
0100
0001
0000
,
1100
0000
0010
0000
1000
0001
0100
0000
,
0010
0000
1010
0000
0100
0001
0010
0000
,
0001
0010
0100
0000
1000
0010
0100
0000
,
0001
1000
0100
0000
1000
0010
0100
0000
,
0001
0010
1000
0000
1000
0010
0001
0000
,
1001
0110
1001
1001
,
0100
0000
0010
0100
,
0001
0010
0100
0000
,
1000
0010
0100
0000
,
0001
1000
0100
0010
,
0001
1000
0010
0000
,
0100
0001
0010
0001
,
1000
0000
0010
0000
,
1000
0001
0010
0100
,
1000
0000
1001
0000
,
0010
0100
0010
0000
,
1000
0000
0011
0000
,
0100
0010
0100
0000
,
0001
0000
1010
0000
,
0100
0000
1001
0000
,
0011
0000
1100
0000
,
0022
0000
0033
0000
,
1000
0100
1000
0000
,
0001
0010
0100
1000
,
0010
0100
0010
0000
,
1000
0001
0010
0100
,
1000
0001
1000
0000
,
0010
0100
0001
0010
,
0100
1000
0010
0000
,
1000
0010
0100
0001
,
1000
0100
0010
0000
,
0010
0100
1000
0001
,
0100
0010
0100
0000
,
0010
0100
0001
0010
,
0001
0010
0100
1000
,
0001
1000
0010
0000
,
2200
3300
0000
0000
0202
0303
0000
0000
2200
3300
0000
0000
0202
0303
0000
0000
,
0010
0000
0100
0010
0000
0000
1000
0000
0010
1000
0000
0001
,
0010
0000
0001
1000
0000
0000
0010
0000
0100
0010
0000
1000
,
0100
0000
0010
0001
0000
0000
0100
0000
0001
0100
0000
0010
,
1000
0000
0100
0010
0000
0000
0100
0000
1000
0010
0000
0100
,
0010
0000
1000
0001
0000
0000
0010
0000
0100
1000
0000
0100
,
0010
0000
0001
0100
0000
0000
0010
0000
0100
0001
0000
1000
,
0100
0000
1000
0010
0000
0000
0100
0000
0001
0010
0000
0100
,
2000
0000
0000
3000
,
0101
0000
0010
0100
0000
0100
0010
0000
,
1000
0100
0010
0001
0000
0001
1000
0010
,
0100
0001
0010
0001
0000
0001
1000
0010
,
0100
0001
0010
0100
0000
0100
2000
0000
,
3010
0100
0010
1000
0000
1000
0001
0010
,
0100
0010
0001
0100
0000
0100
0010
0000
,
1000
0100
0010
0001
0000
0001
1000
0010
,
0200
0000
0310
1000
0001
0100
0101
0000
,
0010
1000
0100
1000
0001
0010
0100
0000
,
1000
0010
0100
0010
0000
0010
1000
0000
,
0001
0010
0100
1000
0001
0100
0010
0000
,
0100
0001
1000
0010
0000
0010
1000
0000
,
0001
0100
0010
1000
0100
0010
0001
0000
,
1000
0010
0100
0001
0010
0100
1000
0000
,
0010
0100
0010
0100
0001
0010
0001
0010
,
0100
1000
0010
0100
0001
0010
0110
0000
,
1000
0100
0001
0100
1000
0010
0200
0000
,
0001
0000
0010
0000
0000
0010
0310
0000
,
0001
0010
1000
0010
0001
1000
0010
0200
,
0000
0000
0001
0000
0000
0010
0310
0000
,
0001
0010
1000
0010
0001
0100
0020
0000
,
1000
0000
0100
0000
0000
0100
0130
0000
,
1000
0100
0001
0100
1000
0001
0100
0020
,
0000
0000
1000
0000
0000
0100
0130
0000
,
0101
0000
0010
1000
0000
1000
0010
0000
,
1100
0000
0001
0010
0000
0010
0001
0000
,
0110
0000
0001
1000
0000
1000
0001
0000
,
0010
0001
0100
0000
0010
0100
1000
0001
,
0100
0000
0001
0010
0000
0010
0001
0000
,
1100
0000
0010
1000
0000
1000
0001
0000
,
0101
0010
1100
0010
,
0000
0100
0100
0100
0100
0000
0110
0000
,
1000
0100
1000
0001
,
0010
0001
0100
0010
,
1000
0100
0010
0001
,
1000
0001
0100
0000
,
0010
1000
0001
0010
,
0100
0010
0001
1000
,
0010
0100
0010
1000
,
0002
0000
0003
0000
,
0100
0010
0100
0001
,
0100
0010
0100
0001
,
1000
0100
0010
0100
,
1000
0001
1000
0010
,
1000
0001
0010
0100
,
1000
0010
0100
0001
,
1000
0000
1001
0000
,
0010
0100
0010
0000
,
1000
0001
0100
0010
,
1000
0100
0010
0001
,
0010
0100
0001
1000
,
0010
0100
1000
0010
,
0100
1000
0100
0001
,
0010
0100
1000
0001
,
0100
0010
0100
0010
,
0220
0000
0330
0000
,
0001
0010
0001
1000
,
0100
0001
0100
1000
,
0010
0100
0001
0100
,
0001
1000
0010
0001
,
0010
1000
0010
0100
,
0001
0010
0100
1000
,
0010
0100
0001
0010
,
0100
0010
0001
1000
,
0110
0000
0000
0000
;

//---------------dance-single - ----------------
#NOTES:
     dance-single:
     :
     Hard:
     17:
     0.933540,1.029451,0.203449,0.105793,0.366208,803.000000,778.000000,25.000000,13.000000,0.000000,0.000000,0.933540,1.029451,0.203449,0.105793,0.366208,803.000000,778.000000,25.000000,13.000000,0.000000,0.000000:
// measure 0
0000
0000
0000
0000
,  // measure 1
0000
0000
0000
0000
,  // measure 2
0000
0000
0000
0000
,  // measure 3
0000
0000
0000
0000
,  // measure 4
1001
0000
0100
0000
0001
0010
0100
1000
,  // measure 5
0010
0000
1100
0000
0001
0010
0100
0010
,  // measure 6
0001
0000
0101
0000
1000
0010
0100
0001
,  // measure 7
0010
0000
1100
0000
0010
0100
1000
0100
,  // measure 8
0001
0000
0101
0000
1000
0001
0010
0100
,  // measure 9
0010
0000
1100
0000
0010
0100
0001
1000
,  // measure 10
0001
0000
0010
0001
0010
0000
0100
0000
1000
0000
0100
0000
0001
0000
0100
0000
,  // measure 11
1000
1100
0101
1100
,  // measure 12
0010
0000
0100
0001
1000
0000
0010
0000
,  // measure 13
1000
0001
0010
0000
0001
0000
0100
0000
,  // measure 14
0010
0000
1000
0001
0100
0000
0010
0000
,  // measure 15
1000
0100
0010
0000
0001
0000
0100
0000
,  // measure 16
0001
0000
0010
0100
1000
0000
0010
0000
,  // measure 17
1000
0001
0100
0000
0010
0000
1000
0000
,  // measure 18
0001
0000
0100
0010
1000
0000
0001
0000
,  // measure 19
0010
0100
1000
0000
0010
0000
0100
0000
,  // measure 20
0001
0000
1000
0100
1000
0000
0010
0000
,  // measure 21
1000
0001
0010
0000
0001
0100
0001
0000
,  // measure 22
0010
0000
0001
0100
0001
0000
1000
0000
,  // measure 23
0010
0100
0001
0000
1000
0100
1000
0000
,  // measure 24
0010
0000
0100
0000
0100
0000
0010
0100
,  // measure 25
0010
0000
0100
0000
0100
0010
0100
0010
,  // measure 26
1000
0000
0001
0000
0010
0100
1000
0001
,  // measure 27
2000
3010
1010
0000
,  // measure 28
0101
0000
0010
0001
0010
0000
0100
0000
,  // measure 29
1000
0010
0100
0000
0010
1000
0100
0000
,  // measure 30
1000
0000
0001
0010
0001
0000
0100
0000
,  // measure 31
0001
0100
0010
0000
0100
0010
1000
0000
,  // measure 32
0100
0000
1000
0010
0100
0000
0001
0000
,  // measure 33
1000
0001
0010
0000
0001
0010
0100
0000
,  // measure 34
1000
0000
0010
1000
0100
0000
1000
0000
,  // measure 35
0010
1000
0001
0000
1000
0100
0010
0000
,  // measure 36
0001
0000
0100
0010
0100
0001
0100
0000
,  // measure 37
0010
1000
0100
0000
1000
0000
0001
0000
,  // measure 38
1000
0000
0010
0100
0010
1000
0010
0000
,  // measure 39
0100
0001
0010
0000
0100
1000
0001
0000
,  // measure 40
1000
0000
1000
0000
0001
0000
0001
1000
,  // measure 41
0001
0000
0100
0010
1000
0001
0010
0100
,  // measure 42
2000
3000
0000
0000
0022
0033
0000
0000
2020
3030
0000
0000
0022
0033
0000
0000
,  // measure 43
1010
0000
0100
0001
0000
0010
0001
1000
0100
1000
0010
0100
,  // measure 44
0001
0000
1000
0100
0000
1000
0010
0100
0001
0010
0100
1000
,  // measure 45
0010
0000
0100
0001
0000
0010
0001
1000
0100
0010
0100
1000
,  // measure 46
0010
0000
1000
0001
0000
0010
0001
0100
0010
1000
0100
0010
,  // measure 47
0100
0000
1000
0001
0000
0100
0010
1000
0010
0100
0001
0010
,  // measure 48
0001
0000
1000
0010
0000
1000
0100
1000
0001
0010
0001
1000
,  // measure 49
0010
0000
0100
0001
0000
0010
0001
1000
0010
0100
0001
0010
,  // measure 50
0100
0000
1100
0000
0001
0010
0011
0000
,  // measure 51
1001
0000
0000
0000
0100
0000
0010
0100
0001
0000
0010
0000
0100
0000
1000
0000
,  // measure 52
0001
0000
0010
0000
0100
0000
1000
0010
1000
0000
0010
0000
0100
0000
0001
0000
,  // measure 53
0010
0000
0100
0000
1000
0000
0010
0100
0001
0000
1000
0000
0010
0000
0100
0000
,  // measure 54
0001
0000
1000
0000
0100
0000
1000
0010
0100
0000
0001
0000
1001
0000
0000
0000
,  // measure 55
0010
0000
0100
0000
0010
0000
1000
0100
0010
0000
0100
0000
1000
0000
0001
0000
,  // measure 56
0100
0000
0010
0000
1000
0000
0001
0010
0100
0000
0010
0000
0100
0000
1000
0000
,  // measure 57
0010
0000
1000
0000
0100
0000
1000
0001
0010
0000
0001
0000
0100
0000
0010
0000
,  // measure 58
1000
0000
0100
0000
0001
0000
0100
0000
1000
0010
0100
0001
0020
0000
0000
0000
,  // measure 59
0031
0000
0100
0000
0010
0000
1000
0100
0010
0000
0100
1000
0010
0000
0100
0000
,  // measure 60
0001
0000
0010
0000
0100
0000
1000
0001
0100
0000
0001
1000
0100
0000
1000
0000
,  // measure 61
0010
0000
0100
0000
0001
0000
0010
0100
1000
0000
0010
0100
0001
0000
1000
0000
,  // measure 62
0010
0000
0100
0000
0001
0000
0010
0001
1000
0000
0100
0000
1100
0000
0000
0000
,  // measure 63
0001
0000
0100
0000
0010
0000
1000
0010
0100
0000
0001
0010
0100
0000
1000
0000
,  // measure 64
0010
0000
0100
0000
0001
0000
1000
0001
0010
0000
0001
1000
0100
0000
1000
0000
,  // measure 65
0010
0000
0100
0000
0001
0000
1000
0001
0010
0000
0001
1000
0010
0000
0100
0000
,  // measure 66
0010
0000
0010
0000
0010
0000
0010
0000
1000
0001
0100
0010
2000
0000
0000
0000
,  // measure 67
3001
0000
0010
0000
1000
0000
0010
0000
0100
0000
1000
0001
0100
0000
0010
0000
,  // measure 68
1000
0000
0100
0000
0001
0000
1000
0000
0010
0000
0001
0100
0001
0000
1000
0000
,  // measure 69
0010
0000
0100
0000
1000
0000
0100
0000
0001
0000
0010
0001
0100
0000
0010
0000
,  // measure 70
1000
0000
0100
0000
0001
0000
0010
0000
0100
0000
0100
0000
0010
0100
0010
0100
,  // measure 71
1000
0000
0100
0000
0001
0000
0100
0000
0010
0000
0001
1000
0010
0000
0100
0000
,  // measure 72
0001
0000
0010
0000
1000
0000
0001
0000
0100
0000
1000
0010
1000
0000
0001
0000
,  // measure 73
0100
0000
0010
0000
0001
0000
0010
0000
1000
0000
0100
1000
0010
0000
0100
0000
,  // measure 74
0001
0000
1000
0000
0100
0000
0010
0000
0001
0000
0001
0000
1000
0010
0100
0010
,  // measure 75
1000
0000
0001
0010
0001
0000
0100
0000
0000
0000
0100
0010
0100
0000
0001
0000
,  // measure 76
1000
0000
0100
1000
0100
0000
0010
0000
0100
0000
1000
0000
0100
0000
0001
0000
,  // measure 77
0100
0000
1000
0010
1000
0000
0100
0000
0001
0000
0100
0010
0100
0000
0010
0000
,  // measure 78
0100
0000
1000
0100
1000
0000
0100
0000
0001
0010
0100
1000
0010
0000
0010
0000
,  // measure 79
0001
0000
1000
0100
1000
0000
0010
0000
0000
0000
0010
0100
0010
0000
1000
0000
,  // measure 80
0001
0000
0010
0001
0010
0000
0100
0000
0010
0000
0001
0000
0010
0000
1000
0000
,  // measure 81
0010
0000
0001
0100
0001
0000
0010
0000
1000
0000
0010
0100
0010
0000
0100
0000
,  // measure 82
0010
0010
0010
0010
0110
0000
1001
0000
,  // measure 83
0100
0000
0010
0100
0010
0000
1000
0000
,  // measure 84
0001
0010
0001
0100
0010
0000
1000
0000
,  // measure 85
0010
0000
1000
0100
1000
0000
0001
0000
,  // measure 86
0100
0001
1000
0010
0100
0000
0010
0000
,  // measure 87
1000
0000
0001
0010
0001
0000
0100
0000
,  // measure 88
0010
0100
0001
1000
0100
0000
1000
0000
,  // measure 89
0001
0000
0010
0001
0010
0000
0002
0000
,  // measure 90
1003
0000
0102
0000
,  // measure 91
1003
0000
0010
1000
0010
0000
1000
0000
,  // measure 92
0001
0010
0100
0010
0001
0000
1000
0000
,  // measure 93
0010
0000
0100
0010
0100
0000
0001
0000
,  // measure 94
1000
0100
0010
0100
1000
0000
0001
0000
,  // measure 95
0100
0000
0010
0100
0001
0000
1000
0000
,  // measure 96
0001
0010
0100
1000
0010
0000
0100
0000
,  // measure 97
0110
0000
0000
0000
1000
0010
0100
0001
,  // measure 98
0010
0100
1000
0001
0020
0000
0000
0000
,  // measure 99
0031
0100
0001
0100
0001
1000
0010
1000
,  // measure 100
0010
1000
0100
0000
1000
0000
0010
0100
,  // measure 101
0010
1000
0010
1000
0001
0100
0001
0100
,  // measure 102
0010
1000
0100
0010
0001
0000
1000
0010
,  // measure 103
1000
0100
1000
0100
0010
0001
0010
0001
,  // measure 104
1000
0100
0010
0001
0100
0000
0010
0000
,  // measure 105
1000
0100
0001
0100
1000
0100
0001
0100
,  // measure 106
1000
0000
0110
0000
,  // measure 107
0001
0010
0100
0010
0001
1000
0010
0100
,  // measure 108
0001
1000
0100
0010
0001
0000
1000
0000
,  // measure 109
0010
0100
0001
1000
0010
0100
0010
1000
,  // measure 110
0100
1000
0010
0100
0001
0000
0010
0000
,  // measure 111
0001
0100
0010
1000
0001
0010
0100
1000
,  // measure 112
0010
0100
0010
0100
0001
0000
1000
0000
,  // measure 113
0001
0010
0100
1000
0001
0010
0100
1000
,  // measure 114
0010
0100
0001
1000
0010
0001
1000
0100
,  // measure 115
0010
0000
0000
0000
;
