#TITLE:A.DOGMA;
#SUBTITLE:;
#ARTIST:あさき;
#TITLETRANSLIT:ADOGMA;
#SUBTITLETRANSLIT:;
#ARTISTTRANSLIT:Asaki;
#GENRE:;
#CREDIT:;
#BANNER:A.DOGMA_banner.png;
#BACKGROUND:A.DOGMA.png;
#LYRICSPATH:;
#CDTITLE:;
#MUSIC:A.DOGMA.ogg;
#OFFSET:-0.380000;
#SAMPLESTART:81.330002;
#SAMPLELENGTH:12.000000;
#LASTBEATHINT:289.985718;
#SELECTABLE:YES;
#DISPLAYBPM:147.000000;
#BPMS:0.000000=147.000000
,48.000000=36.750000
,48.250000=73.500000
,48.500000=147.000000
,48.750000=294.000000
,49.250000=588.000000
,50.000000=147.000000
,191.000000=146.699997
;
#STOPS:
;
#BGCHANGES:;
#KEYSOUNDS:;
#ATTACKS:;

//---------------dance-single - ----------------
#NOTES:
     dance-single:
     :
     Easy:
     12:
     0.462399,0.498669,0.291312,0.121380,0.068782,400.000000,364.000000,36.000000,15.000000,0.000000,0.000000,0.462399,0.498669,0.291312,0.121380,0.068782,400.000000,364.000000,36.000000,15.000000,0.000000,0.000000:
0000
0000
0000
0000
,
0000
0000
0000
0000
,
0000
0000
0000
0000
,
0000
0000
0000
0000
,
0000
0000
0000
0000
,
2000
0000
0000
0000
3010
0000
0100
0001
,
0010
0001
1000
0010
0100
0000
0010
0000
,
0100
0001
0010
0100
1000
0000
0010
0000
,
0110
0000
0000
0000
0001
0000
1000
0000
0001
0000
1000
0000
0010
0100
0000
0100
,
0000
0000
0001
0000
1000
0000
0010
0000
1000
0000
0100
0000
0010
0001
0000
0001
,
0000
1100
0001
0101
,
0220
0000
0000
0000
,
0330
0000
0000
0000
1000
1000
0000
0001
,
0000
0110
0000
1000
0000
0100
0010
0010
,
0000
1100
0000
0101
0000
0010
0000
1000
,
0001
0010
0001
0000
1000
0010
1000
0000
,
0010
0100
0010
1000
0001
1000
0010
0000
,
0100
1001
0020
0000
,
1030
0000
0100
0000
1000
0000
0001
0010
,
0100
0000
0000
1000
0000
0000
0001
1000
0001
1000
0001
1000
,
0010
0100
0000
0110
0000
1001
0000
0110
,
0000
0000
1000
0001
0000
1001
0000
0110
,
0000
1001
0000
0000
0100
0010
0100
0001
,
0100
0010
0100
0000
0001
1000
0010
1000
,
0001
1000
0010
0000
0100
0000
1010
0000
,
0102
0000
0000
0013
,
0001
0000
0000
1000
0000
0000
0010
0000
0100
0000
0000
0010
0000
0000
1000
0000
,
0001
0101
2000
0000
,
3010
0100
0010
1000
0100
0000
1001
0000
,
0010
0001
0100
0010
0100
0000
1000
0010
,
1000
0001
1000
0010
1000
0000
0001
0100
,
0001
1000
0001
0100
0001
0000
0100
0001
,
1000
0010
1000
0000
1100
0000
0001
0000
,
0011
0000
1000
0001
0100
0000
0020
0000
,
1030
0000
0000
0001
0000
0000
1000
0000
0010
0000
0100
0000
0010
0000
0000
0000
,
0100
0000
0001
0000
0010
0000
1000
0000
0010
0000
0000
0001
0000
0000
1000
0000
,
0000
0010
0000
0000
0100
0000
0010
0000
2000
0000
0000
0000
0000
0000
0000
0000
,
0000
3000
0101
0000
,
0000
0000
0000
0110
0000
0000
2002
0000
,
0000
0000
3003
0000
,
0001
0010
0100
1000
,
0010
0000
0100
0000
0010
0000
0000
0000
1000
0000
0000
0000
0001
0000
0000
0100
,
0000
0000
0010
0000
1000
0000
0100
0000
0010
0000
0000
0001
0000
0000
1000
0000
,
0010
0100
0020
0000
1030
0000
0011
0000
,
1100
0011
1100
1010
,
0101
0000
1010
0000
0101
0000
0100
0010
,
0100
1000
0100
0010
0100
0000
0001
0010
,
0100
0010
0001
1000
0001
0000
0100
0010
,
1000
0000
0010
0000
0100
0000
0001
0000
0010
0000
0000
0001
0000
0000
1000
0000
,
0000
0001
0000
0000
0100
0000
0000
0000
1000
0000
0100
0000
0001
0000
0100
0000
,
1000
0100
0001
0100
1000
0100
0001
0100
,
1000
0010
0000
1000
0010
1000
0010
0001
,
0010
1000
0010
0001
0010
1000
0010
0001
,
0010
0100
0000
0010
1000
0001
0100
0001
,
0010
0100
1000
0001
0100
0010
1000
0001
,
0100
0000
0010
0000
1001
0000
0100
0010
,
0100
0000
0110
0000
0001
0010
0100
1000
,
0010
0100
0010
0000
1000
0100
1000
0000
,
0001
0100
0001
0000
0010
0100
1000
0001
,
0100
0010
1000
0000
0001
0010
0001
0000
,
1000
0010
1000
0000
0100
0010
0001
1000
,
0010
0100
0001
0000
2000
0000
0001
0000
,
0100
3001
0002
1000
,
0100
0000
1003
0000
0100
0000
0010
1000
,
0001
0000
0010
0100
1000
0000
0001
0010
,
0100
0000
1001
0000
0100
0010
1000
0010
,
0100
0001
0010
0000
0001
1000
0010
1000
,
0100
0010
0001
0000
1000
0010
0100
0000
,
0001
0010
0100
0000
1000
0001
1000
0000
,
0010
0100
0010
0000
1000
0010
0100
0001
,
0010
0000
0110
0000
0100
1000
0001
0010
,
0001
0100
2020
0000
,
0000
0000
3030
0000
;

//---------------dance-single - ----------------
#NOTES:
     dance-single:
     :
     Medium:
     15:
     0.690131,0.733337,0.534071,0.121380,0.352002,597.000000,531.000000,66.000000,15.000000,0.000000,0.000000,0.690131,0.733337,0.534071,0.121380,0.352002,597.000000,531.000000,66.000000,15.000000,0.000000,0.000000:
0000
0000
0000
0000
,
0000
0000
0000
0000
,
0000
0000
0000
0000
,
0000
0000
0000
0000
,
0000
0000
0000
0000
,
2000
0000
3001
0010
0001
0100
0010
1000
,
0010
0100
0001
0010
0100
1000
0010
0100
,
0001
0000
1000
0000
0010
0000
0100
0000
0001
0000
1000
0010
0100
0000
0001
0000
,
0101
0000
0000
0000
0010
0000
1000
0000
0100
0000
1000
0000
0001
0010
0000
0110
,
0000
0000
1000
0000
0010
0000
0100
0000
0001
0000
0010
0000
0001
1000
0000
1100
,
0000
0000
0000
0000
0001
0000
0010
0000
0101
0000
0000
0000
0010
0100
0010
0100
,
0020
0000
0000
0000
,
0030
0000
0000
0000
0000
0000
0000
0000
1100
0000
1100
0000
0000
0000
0001
0100
,
0001
1000
0000
1010
0000
0101
0110
0110
,
0000
0000
1000
0010
0100
0000
0101
0000
0000
0000
1010
0000
0000
0000
1000
0000
,
0001
0000
0010
0000
0001
1000
0001
0000
1000
0000
0010
0000
1000
0001
1000
0000
,
0010
0000
0100
0000
0010
1000
0010
0000
0100
0000
0001
0000
1001
0000
0000
0000
,
0100
0000
0010
0000
0100
0001
0100
0000
0020
0000
0000
0000
1030
0000
0100
0000
,
0010
0001
1000
0010
0110
0000
1001
0000
,
0100
0010
1000
0001
0010
0100
1000
0001
0100
0010
0100
0001
,
1000
0000
1010
0000
0000
0000
0011
0000
0000
0000
0110
0000
0000
0000
0100
0010
,
0100
0001
1001
1001
0000
0110
0000
0101
,
0000
0000
1010
0000
1000
0000
0001
0000
0100
0000
0010
0000
1000
0100
1000
0000
,
0001
0000
0010
0000
0001
0100
0001
0000
1000
0000
0010
0000
0100
0001
0100
0000
,
0010
0000
1000
0000
1001
0000
0000
0000
0100
0010
0100
0010
0100
0000
0001
0000
,
2000
0000
0000
0000
3010
0000
0100
0010
0100
0000
0001
0000
0010
0000
0001
0000
,
1000
0010
1000
0000
0001
0000
1000
0010
0000
0010
1000
0000
0100
0000
0001
0000
,
0100
1000
0010
0100
0001
1000
0010
1000
,
0100
1000
0100
0000
1100
0000
0000
0000
0010
0000
0100
0000
0110
0000
0000
0000
,
0001
0000
0010
0000
0011
0000
0000
0000
1000
0000
0001
1000
0001
0000
1010
0000
,
0001
1010
1000
0000
1100
0000
0011
1000
,
0011
0000
1000
0000
0001
0000
0100
0000
0010
0000
0100
0000
0001
1000
0001
1000
,
0010
1000
0100
1000
0010
0100
0001
0010
,
0001
0000
1000
0000
0100
0010
0100
0000
1000
0001
1000
0000
0020
0000
0000
0000
,
0130
0000
0000
1010
0000
0000
0001
0000
0100
0000
0010
0000
1000
0000
0010
0000
,
1000
0100
1000
0000
0001
0100
0001
0000
1000
0000
0010
0100
0001
0000
1000
0000
,
0010
0100
1001
0000
0120
0000
1000
0000
,
1000
1030
0210
0001
,
0001
0000
0301
1001
0000
0000
0210
0000
,
0001
0000
0001
0000
0301
1000
0020
0000
,
0100
0000
0100
0000
0130
0000
1000
0100
,
0001
0100
0000
0010
0001
1000
0000
0010
,
0100
0001
0010
0100
1000
0000
1001
0000
,
0110
0000
0000
0000
1000
0001
1000
0000
0001
1000
0001
0000
0110
0000
0100
0000
,
0110
0010
0110
0100
0110
0000
1001
0001
,
1001
0000
1000
0000
1001
0000
0001
0000
1001
0000
0000
0000
0100
0010
0100
0000
,
0001
0010
0001
0000
1000
0100
1000
0000
0001
0010
0001
0000
1000
0000
0000
0101
,
0000
0000
0010
0000
0000
1010
0000
0000
0101
0000
0000
0000
0001
0000
1000
0000
,
0010
0000
1000
0000
0100
0000
0010
0000
0001
0000
1000
0001
1000
0001
0100
0000
,
0010
0000
0100
0001
0010
0000
0001
0000
1000
0000
0010
0000
0100
0010
0100
0000
,
0001
0000
0010
0000
0100
0010
0100
0000
1000
0000
0001
0000
0100
0010
0100
0000
,
0101
0000
1010
0000
0000
0000
1001
0000
0001
0000
0100
0000
0010
0100
0010
0000
,
1000
0000
0100
0000
0010
0100
0010
0000
0001
0000
1000
0000
0010
0100
0010
0000
,
1010
0000
0101
0000
0000
0000
1001
0000
1000
0000
0001
0000
0010
0001
0100
0000
,
0010
0000
1000
0000
0100
1000
0010
0000
0100
0000
0001
0000
1000
0010
0100
0000
,
0001
0000
0010
0000
1001
0000
0000
0000
0100
0000
0001
0000
0010
0001
1000
0000
,
0010
0000
0100
0000
0001
1000
0010
0000
0100
0000
0001
0000
1000
0010
0100
0010
,
1000
0001
0010
0001
0100
0110
0101
0000
,
0001
0000
1000
0000
0010
0100
0010
0000
1000
0000
0001
0000
0100
0010
0100
0010
,
1000
0001
0010
0100
1100
1001
1100
0000
,
1000
0000
0010
0000
0100
0010
0100
0001
0010
0000
0001
0000
1000
0000
0010
0000
,
0100
0010
0100
0000
0220
0000
0330
0000
1000
0000
0010
0000
0100
0010
0100
0000
,
0001
0000
0010
0000
0100
0010
0100
0000
1000
0000
0010
0000
0100
0001
0100
0000
,
0001
0000
0010
0000
0100
1000
0100
0000
1000
0000
0001
0000
0010
0000
0001
0000
,
1000
0000
0100
0000
0001
0000
0100
0000
1000
0000
0010
0000
0100
0001
0100
0010
,
1000
0000
0010
0000
0100
0000
0000
0000
0001
0010
0001
0010
0001
0000
1000
0000
,
0100
1000
0001
1000
0100
0000
1000
0000
0010
0000
0100
0000
0001
0000
0010
0000
,
0001
1000
0020
0000
1030
0001
0010
0001
,
0100
0010
0100
0000
0010
0100
0010
0000
1000
0000
0100
0000
1000
0001
1000
0001
,
0010
0001
1000
0100
1100
0000
0001
0010
,
0002
0000
0103
0010
1000
0001
0010
0100
,
1000
0100
1000
0000
0001
0100
0001
0000
2020
0000
0000
0000
0000
0000
0000
0000
,
0000
0000
3030
0000
;

//---------------dance-single - ----------------
#NOTES:
     dance-single:
     :
     Hard:
     18:
     0.884339,0.938671,0.647359,0.121380,0.829429,765.000000,685.000000,80.000000,15.000000,0.000000,0.000000,0.884339,0.938671,0.647359,0.121380,0.829429,765.000000,685.000000,80.000000,15.000000,0.000000,0.000000:
// measure 0
0000
0000
0000
0000
,  // measure 1
0000
0000
0000
0000
,  // measure 2
0000
0000
0000
0000
,  // measure 3
0000
0000
0000
0000
,  // measure 4
2002
0000
0000
0000
0000
0000
0000
0000
3003
0000
0000
0000
0000
0000
0100
0010
,  // measure 5
0100
0000
0001
0010
0001
0000
1000
0100
1000
0000
0010
0100
0010
0000
1000
0001
,  // measure 6
1000
0000
0010
0100
0010
0000
1000
0100
1000
0000
0001
0010
0001
0000
0100
0010
,  // measure 7
0100
0000
0001
0000
1000
0000
0010
0000
0100
0000
0010
0100
0010
0100
0010
0100
,  // measure 8
0001
0000
1000
0000
0100
0000
0010
0000
0100
0000
0001
0000
0100
1000
0000
0011
,  // measure 9
0000
0000
0100
0010
0100
0000
0001
0000
1000
0010
1000
0000
0010
1000
0000
0101
,  // measure 10
0000
0000
0010
1000
0001
0000
0100
0010
1000
0000
0001
1000
0001
0000
0100
0010
,  // measure 11
0200
0000
0000
0000
0010
0010
0010
0310
,  // measure 12
0000
0000
0000
0000
0000
0000
0000
0000
1000
0010
0100
0000
0000
0010
0100
0000
,  // measure 13
0001
0000
1001
0000
0000
0000
0100
0010
0100
0000
0001
0000
1000
0010
0100
0000
,  // measure 14
0000
0100
0010
0000
0100
0000
0101
0000
1000
0000
0001
0010
0100
0000
1000
0000
,  // measure 15
0010
0000
0100
0000
0001
0010
0100
1000
0010
0000
0100
0000
0010
1000
0100
0010
,  // measure 16
0001
0000
0100
0000
0010
1000
0100
0010
0001
0000
1000
0000
1001
0000
0000
0000
,  // measure 17
0010
1000
0010
1000
0001
0100
0001
0100
0001
0000
0010
0000
0011
0000
1000
0000
,  // measure 18
1100
0000
0000
0010
0000
0000
0110
0000
0000
0100
0000
0000
0001
0000
0100
0000
1000
0000
0100
0000
0001
0000
1000
0000
,  // measure 19
0010
0001
0010
1000
0010
0100
0010
0100
0010
0110
0110
0110
,  // measure 20
0100
0000
0101
0000
0001
1000
0010
0000
1000
0000
1010
0000
0100
0000
0110
0000
,  // measure 21
0010
1000
0001
0000
1001
0000
0110
0000
1000
0001
0100
0000
0010
0000
1010
0000
,  // measure 22
0100
0000
0101
0000
1000
0010
0100
0010
1000
0000
0001
0000
0010
0001
0100
0001
,  // measure 23
0010
0000
1000
0000
0010
1000
0100
1000
0010
0000
0100
0000
0001
1000
0100
0010
,  // measure 24
0100
0000
1000
0000
1001
0000
0000
0000
0010
0100
0010
0100
0001
1000
0001
1000
,  // measure 25
0010
0000
0100
0000
0001
0000
0100
0000
0010
0000
1000
0100
0010
0000
0001
0010
,  // measure 26
0001
0000
0100
0010
1000
0000
0100
1000
0001
0000
0100
0010
0100
0000
0010
0000
,  // measure 27
0110
0000
1000
0000
1001
0000
0000
0000
0110
0000
0100
0000
0001
0010
0100
1000
,  // measure 28
0010
0100
0010
0100
0020
0000
0000
0000
1030
0000
0001
0000
0011
0000
0000
0000
,  // measure 29
1000
0010
0100
0010
1000
0001
0010
0100
0010
0001
1000
0000
1000
0000
0101
0000
,  // measure 30
1000
0101
0001
1100
0001
1100
0010
0100
,  // measure 31
0010
1000
0001
0010
0001
0000
0100
0000
0010
1000
0100
1000
0001
0010
0001
0010
,  // measure 32
0001
0000
1000
0000
0010
0100
0010
0100
0010
0000
0100
0000
0001
1000
0001
1000
,  // measure 33
0010
0100
0010
0100
0001
0010
0100
2000
0000
0000
0010
0000
3010
0000
0100
0000
,  // measure 34
0101
0000
0000
1010
0000
0000
1001
0000
0010
0000
0100
0001
1000
0000
0100
0000
,  // measure 35
1000
0010
1000
0010
0100
0001
0100
0001
1000
0100
1000
0100
0010
0001
0010
0001
,  // measure 36
1000
0010
0100
0010
0001
0010
0100
1000
0200
0000
0000
0000
0010
0000
0000
0000
,  // measure 37
0010
0000
0310
0000
1001
0100
0010
0100
,  // measure 38
0001
0000
0010
0000
0100
0000
1001
0000
0000
0000
0010
0100
0020
0000
0000
0000
,  // measure 39
1000
0000
1000
0000
1030
0101
0000
0010
,  // measure 40
1000
0000
0100
0000
0001
0000
0100
0000
1000
0000
0010
0100
0001
0000
1000
0000
,  // measure 41
0000
1000
0000
0000
1001
0000
0000
0000
0010
0000
0100
0000
0010
0000
0000
0000
,  // measure 42
0100
0000
0010
0000
0100
0000
0000
0000
1010
0000
0000
0110
0000
0000
0101
0000
,  // measure 43
0000
0000
0001
1000
0001
0000
0100
0010
0100
0000
0010
0000
1010
0000
0001
0000
,  // measure 44
1010
0001
0011
1000
0011
1000
0101
1000
,  // measure 45
0101
0000
1000
0000
1100
0000
0001
0000
1100
0000
0001
0000
0100
0010
1000
0010
,  // measure 46
0100
0000
0001
0000
0010
0001
0100
0001
0010
0000
0001
0000
1000
0100
0010
0100
,  // measure 47
1000
0000
0010
0000
0100
0001
0010
0001
0100
0000
0010
0000
1000
0000
1010
0000
,  // measure 48
0001
0000
0011
0000
0001
0100
0010
1000
0010
0100
0010
0100
0001
1000
0001
1000
,  // measure 49
0010
1000
0001
1000
0100
0010
0200
0000
1300
0100
0010
0100
1000
0100
0010
0100
,  // measure 50
1000
0100
0010
0100
1000
0100
0010
0100
1000
0000
0001
0000
0010
0001
0010
0000
,  // measure 51
0101
0000
1010
0000
0000
0000
1010
0000
0001
0100
0010
0100
0001
0100
0010
0100
,  // measure 52
0001
0100
0010
0100
0001
0100
0010
0100
0001
0000
1000
0000
0010
0100
0010
0000
,  // measure 53
1010
0000
0110
0000
0000
0000
0101
0000
0100
0001
0100
1000
0100
0001
0100
1000
,  // measure 54
0100
0001
0100
1000
0100
0001
0100
1000
0100
0000
0010
0000
1000
0010
1000
0000
,  // measure 55
0110
0000
0101
0000
0002
0000
0000
0000
1003
0000
0110
0000
0100
0000
0001
0010
,  // measure 56
0001
0000
1000
0000
0110
0000
0001
0000
1000
0100
1000
0000
0001
0010
0001
0000
,  // measure 57
1000
0010
0100
0001
0010
0001
0010
0100
0010
0000
0011
0000
1010
0000
0110
0000
,  // measure 58
0010
1010
0010
0011
0010
0110
0010
0010
,  // measure 59
0010
1010
0011
1010
0101
1100
0101
0100
,  // measure 60
0100
0000
0110
0000
0100
0000
0100
0000
1100
0000
0010
0000
0100
0001
0010
0001
,  // measure 61
1000
0000
0001
0000
2001
0000
0000
0000
3010
0100
0010
0000
1000
0001
1000
0000
,  // measure 62
0001
0010
0001
0000
1000
0100
1000
0000
0010
0100
0001
0100
0010
0000
0100
0000
,  // measure 63
0010
1000
0100
1000
0010
0000
0100
0000
0001
0010
0001
0000
0010
0000
0001
0000
,  // measure 64
1000
0100
1000
0000
0100
0000
1000
0000
0010
1000
0010
1000
0001
0100
0001
0100
,  // measure 65
0010
1000
0100
0010
0200
0000
0000
0000
1300
0001
1000
0001
0100
0010
0100
0010
,  // measure 66
1000
0010
0100
0000
0001
0010
0100
0000
1000
0000
1100
0000
1001
0000
0000
0000
,  // measure 67
0011
0000
1001
0000
0101
0000
0000
0000
0010
1000
0100
1000
0001
0000
0010
0000
,  // measure 68
0001
1000
0100
1000
0010
0100
0001
0010
0001
1000
0001
1000
0020
0000
0000
0000
,  // measure 69
0130
0001
0100
0000
0010
0000
1010
0000
0011
0000
0000
0000
0100
0001
0010
0100
,  // measure 70
2000
0000
0000
0000
3010
0100
0001
0000
0010
0000
0001
0000
1000
0010
0100
0000
,  // measure 71
0010
1000
0100
0001
0100
0010
0100
0020
0002
0000
0000
0000
0000
0000
0000
0000
,  // measure 72
0000
0000
0033
0000
;
