#TITLE:7 Colors;
#SUBTITLE:;
#ARTIST:kors k feat.吉河順央;
#TITLETRANSLIT:;
#SUBTITLETRANSLIT:;
#ARTISTTRANSLIT:kors k feat.Sunao Yoshikawa;
#GENRE:PRISM EURO;
#CREDIT:;
#BANNER:7_Colors_banner.png;
#BACKGROUND:7_Colors.png;
#LYRICSPATH:;
#CDTITLE:;
#MUSIC:7 Colors.ogg;
#OFFSET:-0.490000;
#SAMPLESTART:52.299999;
#SAMPLELENGTH:12.500000;
#LASTBEATHINT:247.000580;
#SELECTABLE:YES;
#DISPLAYBPM:156.000000;
#BPMS:0.000000=156.000000
,205.000000=312.000000
,207.000000=156.000000
;
#STOPS:132.000000=0.769000
;
#BGCHANGES:;
#KEYSOUNDS:;
#ATTACKS:;

//---------------dance-single - ----------------
#NOTES:
     dance-single:
     :
     Easy:
     6:
     0.253625,0.279168,0.100874,0.131136,0.000000,176.000000,166.000000,10.000000,13.000000,0.000000,0.000000,0.253625,0.279168,0.100874,0.131136,0.000000,176.000000,166.000000,10.000000,13.000000,0.000000,0.000000:
0000
0000
0000
0000
,
0000
0000
0000
0000
,
0000
0000
0000
0000
,
0000
0000
0000
0000
,
0000
0000
0000
0000
,
0010
0000
0001
0000
,
0100
0000
1100
0000
,
1000
0001
0100
0000
,
0220
0000
0000
0000
0000
0330
0000
0000
,
0001
0010
0001
1000
,
0100
0010
0100
0000
,
1000
0001
0100
0010
,
1000
0100
0010
0000
,
0001
0100
0010
1000
,
0100
0010
0001
0000
,
1000
1000
0001
0001
,
0110
0000
1001
0000
,
0100
0010
1000
0000
,
0100
0010
0001
0000
,
1000
0001
0010
0100
,
2000
0010
3010
0000
,
0100
0010
0001
0000
,
1000
0100
0010
0000
,
0001
0100
0010
1000
,
0002
0000
0103
0100
,
0010
0000
1000
0001
,
1000
0100
0100
0000
,
0010
0001
0010
0000
,
0001
1000
0001
0000
,
0100
0010
0010
0000
,
1000
0100
0100
0000
,
1000
0100
0010
0001
,
2002
0000
0000
0000
0000
3003
0000
0000
,
0110
0000
0010
0000
,
0010
0100
0010
1000
,
0001
0000
0010
0000
,
0010
0001
1000
0100
,
0100
0000
1000
0000
,
0001
0100
0010
1000
,
0001
0010
0220
0000
,
0330
0000
0001
1000
,
0001
0000
0100
0000
,
0100
0010
1000
0001
,
0001
0000
0010
0000
,
0001
0010
0100
1000
,
1000
0000
0001
0100
,
1000
0000
1000
0100
,
0001
0000
0220
0000
,
0330
0000
1000
0000
,
1000
0001
0100
0100
,
0010
0010
1000
0001
,
0200
0300
0000
0100
,
0010
0100
0001
1000
,
0100
0010
0000
0001
,
0010
0100
1000
0101
,
0000
1010
0000
0100
,
0001
1000
0001
0010
,
0100
1000
0000
0001
,
0100
0010
1000
0010
,
0000
0010
0000
0000
0010
0000
0200
0000
,
0000
0000
0300
0020
,
0000
0000
0030
0000
;

//---------------dance-single - ----------------
#NOTES:
     dance-single:
     :
     Medium:
     10:
     0.482752,0.496298,0.161398,0.201747,0.070611,335.000000,319.000000,16.000000,20.000000,0.000000,0.000000,0.482752,0.496298,0.161398,0.201747,0.070611,335.000000,319.000000,16.000000,20.000000,0.000000,0.000000:
0000
0000
0000
0000
,
0000
0000
0000
0000
,
0000
0000
0000
0000
,
0000
0000
0000
0000
,
0000
0000
0000
0000
,
0001
1000
0010
0000
1000
0001
0100
0000
,
0010
1000
0100
0000
1000
0001
0010
0000
,
0001
1000
0100
0010
0100
1000
0001
0000
,
0100
0000
0000
0100
0000
0000
0220
0000
0000
0000
0000
0000
0330
0000
0000
0000
,
1000
0000
0000
0010
0000
0000
0100
0000
0000
0000
0010
0000
1000
0000
0000
0000
,
0001
0000
0010
0000
0100
0000
0000
0000
0010
0000
0000
0001
0000
0000
1000
0000
,
0010
0000
0000
0100
0000
0000
0001
0000
0000
0000
1000
0000
0100
0000
0000
0000
,
1000
0010
0100
0001
0010
0000
0101
0000
,
0010
0000
0000
1000
0000
0000
0100
0000
0000
0000
1000
0000
0001
0000
0000
0000
,
0010
0000
0001
0000
1000
0000
0010
0000
0100
0000
0000
0010
0000
0000
0100
0000
,
0001
0000
0000
1000
0000
0000
0010
0000
0000
0000
0100
0000
0010
0000
1000
0000
,
0001
0010
0000
1000
0100
0000
1001
0000
,
0010
0100
0001
1000
0200
0000
0310
0000
,
0001
1000
0010
0100
0002
0000
0013
0000
,
0100
1000
0010
0000
1000
0001
0010
0000
,
0100
1000
0010
0100
0001
0000
0110
0000
,
1000
0001
0010
0001
0200
0000
0310
0000
,
0010
1000
0001
1000
0200
0000
0310
0000
,
0001
0010
0100
0000
0010
0100
1000
0100
,
0010
0010
0000
0000
0100
0001
0100
0000
,
2000
0000
3010
0100
0010
0000
1000
0000
,
0001
0010
1000
0000
1000
0010
0001
0000
,
2000
0000
3001
0100
0010
0100
0000
1010
,
0000
0100
0001
0010
0100
0000
1000
0000
,
1000
0100
0001
0100
2000
0000
3001
0000
,
0001
0100
1000
0100
0002
0000
1003
0000
,
0100
0010
0100
0001
0000
0010
0000
0100
,
1000
0100
0010
0000
0100
0010
0001
1000
,
0002
0003
0000
0000
0000
0000
0000
0000
0110
0000
0000
0000
1000
0000
0001
0000
,
0010
0000
0001
0000
1000
0010
0100
0001
,
0020
0000
0130
0000
1100
0000
0001
1000
,
0010
0000
1000
0000
0100
1000
0010
0100
,
0002
0000
1003
0000
0110
0000
0001
1000
,
0100
0000
1000
0000
0010
0100
0001
0100
,
0010
1000
1002
0013
,
0100
0000
0000
0000
1000
0000
0000
0000
0010
0000
0000
0100
0000
0000
0010
0000
,
1000
0001
1000
0100
0010
0000
0001
1000
,
0010
1000
0001
0000
0100
0010
1000
0001
,
1000
0000
0010
0100
0010
0000
1000
0001
,
0100
0010
0001
0000
0010
1000
0100
0001
,
0100
0000
1000
0010
1000
0000
0101
0000
,
0001
0010
0100
0000
1000
0001
0100
0010
,
0002
0013
2020
0000
,
3030
0000
0001
1000
0100
1000
0000
0001
,
0010
0100
1000
0010
0100
0000
0100
0000
,
0100
0000
0100
0000
0001
1000
0001
1000
,
0010
0000
0100
0000
0020
0000
0000
0000
0000
0000
0000
0000
1030
0000
0000
0001
,
0000
1000
0000
0100
0010
0000
0001
1000
,
0010
0000
0000
0000
1000
0000
0000
0001
0000
0000
0010
0000
0100
0000
0000
1000
,
0000
0010
0000
1000
0001
0010
0001
1000
,
0100
0000
0001
0000
0100
0000
0000
0000
0110
0000
0000
0000
1000
0000
0000
0100
,
0000
0010
0000
0001
0100
0010
1000
0010
,
0100
0000
0001
0000
0010
0000
0000
0100
0000
0000
1000
0000
0010
0000
0000
0100
,
0000
0110
0000
1000
0001
0010
0110
0000
,
0000
1001
0000
0000
0110
0000
2000
0000
,
0010
0001
0100
3002
,
0010
0000
1003
0010
0100
0000
0000
0000
;

//---------------dance-single - ----------------
#NOTES:
     dance-single:
     :
     Hard:
     15:
     0.716202,0.744447,0.151310,0.151310,0.544717,497.000000,482.000000,15.000000,15.000000,0.000000,0.000000,0.716202,0.744447,0.151310,0.151310,0.544717,497.000000,482.000000,15.000000,15.000000,0.000000,0.000000:
// measure 0
0000
0000
0000
0000
,  // measure 1
0000
0000
0000
0000
,  // measure 2
0000
0000
0000
0000
,  // measure 3
0000
0000
0000
0000
,  // measure 4
0000
0000
0000
0000
,  // measure 5
0001
0100
0001
0100
0010
1000
0010
1000
,  // measure 6
0100
0010
0100
0010
0001
1000
0010
0100
,  // measure 7
0001
0010
1000
0010
0001
1000
0100
0001
,  // measure 8
0100
0000
0000
0110
0000
0000
2002
0000
0000
0000
3003
0000
0020
0000
0000
0000
,  // measure 9
1030
0000
0100
1000
0000
0001
1000
0000
0010
0100
0000
0010
0100
0000
0001
0000
,  // measure 10
1000
0010
0000
0100
0010
0000
1000
0000
0001
0000
0010
0100
0000
0010
0001
0000
,  // measure 11
1000
0000
0001
0100
0000
0010
0100
0000
0001
0010
0000
0010
0100
0000
1000
0000
,  // measure 12
0001
0010
0001
0010
0001
0000
1000
0000
1020
0000
0000
0000
0130
0001
0100
0000
,  // measure 13
0010
0000
1000
0001
0000
1000
0010
0000
0100
0010
0000
0010
1000
0000
0001
0000
,  // measure 14
0010
0001
0000
1000
0100
0000
1000
0000
0010
0000
0100
0010
0000
0100
0001
0000
,  // measure 15
1000
0000
0001
0010
0000
0100
1000
0000
0010
0100
0000
0100
0010
0000
1000
0000
,  // measure 16
0001
1000
0001
1000
0001
0000
0100
0010
0100
0010
0100
0000
0002
0000
0000
0000
,  // measure 17
0013
0000
0100
0000
1000
0000
0100
0010
0000
0000
0100
0000
1000
0000
0001
0000
,  // measure 18
0100
0000
0010
0000
1000
0000
0010
0100
0000
0000
0001
0000
0010
0000
0100
0000
,  // measure 19
1000
0000
0010
0000
1000
0000
0001
0010
0000
0000
0100
0000
1000
0000
0010
0000
,  // measure 20
1000
0010
0001
1000
0100
0001
1001
0000
,  // measure 21
0100
0000
0010
0000
1000
0000
0001
0010
0000
0000
0001
0000
1000
0000
0010
0000
,  // measure 22
0100
0000
0010
0000
1000
0000
0001
0010
0000
0000
0100
0000
1000
0000
0001
0000
,  // measure 23
0100
0010
1000
0001
0010
1000
0010
0001
,  // measure 24
1001
0000
0100
0000
0010
1000
0001
0010
,  // measure 25
0002
0000
0000
0000
0013
0000
1000
0000
0010
0000
0001
1000
0001
0000
0100
0000
,  // measure 26
0010
0000
1000
0000
0001
0000
1000
0010
0100
0000
0010
0000
1000
0000
0001
0000
,  // measure 27
0020
0000
0130
1000
0001
1000
0010
0110
,  // measure 28
0000
0000
1000
0000
0001
0000
1000
0000
0010
0000
0100
0010
0100
0000
0001
0000
,  // measure 29
1000
0000
0010
0000
0100
0000
0010
1000
0000
1000
0001
0000
0010
0000
0001
0000
,  // measure 30
1000
0000
0010
0000
0100
0000
0001
0010
0000
0010
0001
0000
1000
0000
0100
0000
,  // measure 31
0010
0011
0000
1100
0000
0010
0100
0010
,  // measure 32
1000
0000
0001
0000
0010
0000
0100
0000
1000
0010
1000
0010
0100
0001
0100
0001
,  // measure 33
0020
0030
0000
0000
0001
0000
1000
0000
1001
0000
0000
0000
0010
0000
0100
0001
,  // measure 34
0000
0000
1000
0000
0100
0000
0010
0000
0001
0000
1000
0000
0010
0000
0100
0010
,  // measure 35
0000
0010
1000
0000
0001
0000
0010
0000
0100
0000
1000
0000
0001
0000
0100
0010
,  // measure 36
0000
0010
1000
0000
0001
0000
0010
0000
0100
0000
0010
0000
0001
0000
1000
0001
,  // measure 37
0000
0000
0100
0000
0010
0100
0010
0100
0001
0000
1000
0000
0010
0000
0100
0001
,  // measure 38
0000
0001
0100
0000
0010
0000
1000
0000
0100
0000
0001
0000
0100
0000
1000
0000
,  // measure 39
0020
0031
2001
0010
,  // measure 40
3001
0000
0010
0000
0100
0000
0010
0000
0001
0000
1000
0100
0000
0100
1000
0000
,  // measure 41
0010
0000
1000
0000
0001
0010
0001
0010
0001
0000
1000
0000
0010
0000
0100
0010
,  // measure 42
0000
0010
1000
0000
0001
0000
0010
0000
1000
0000
0100
0000
0010
0000
0001
1000
,  // measure 43
0000
1000
0001
0000
0100
0000
0010
0000
0110
0000
0000
0000
1000
0000
0001
0010
,  // measure 44
0000
0001
0010
0000
0100
0000
1000
0000
0010
0000
1000
0000
0010
0000
0100
0001
,  // measure 45
0000
0000
1000
0000
0100
0010
0100
0010
0200
0000
0000
0000
1300
0000
0001
1000
,  // measure 46
0000
1000
0010
0000
0100
0000
0001
0000
1000
0000
0010
0000
0001
0000
1000
0000
,  // measure 47
0200
0301
1002
0100
,  // measure 48
0013
0100
1000
0001
0100
0110
0000
1001
,  // measure 49
0000
1000
0010
0001
0010
0010
0100
0100
,  // measure 50
0001
0001
1000
1000
0001
0010
0100
1000
,  // measure 51
0001
0010
0100
1000
0020
0000
0000
0000
0000
0000
0000
0000
0130
0000
0001
1000
,  // measure 52
0000
0001
0100
0000
0010
1000
0000
1000
0010
0000
0100
0000
0001
0000
0010
0001
,  // measure 53
0000
1000
0100
0000
1000
0000
0010
0100
0000
0001
0010
0000
0100
0000
1000
0010
,  // measure 54
0000
1000
0100
0000
0010
0100
0000
0100
0010
0000
0001
0000
1000
0010
1000
0010
,  // measure 55
1000
0000
0001
0000
0101
0000
0000
0000
0001
1000
0001
0000
0100
0000
0001
1000
,  // measure 56
0000
0001
0010
0000
0100
1000
0000
1000
0001
0000
0100
0000
0010
0000
1000
0010
,  // measure 57
0000
0100
0001
0000
0010
0000
0001
1000
0000
0100
0010
0000
0100
0000
1000
0010
,  // measure 58
0000
1000
0001
0000
0100
0010
0000
0010
1000
0000
0001
0000
0010
0100
0010
0100
,  // measure 59
0010
0000
0001
1000
0001
1000
0001
0000
0010
0000
0100
0000
2000
0000
0000
0000
,  // measure 60
0010
0000
0001
0000
3100
0000
0010
0001
,  // measure 61
1000
0000
0100
0000
1000
0010
0100
0001
0010
0000
0000
0000
0000
0000
0000
0000
;
