#TITLE:666;
#SUBTITLE:;
#ARTIST:RoughSketch;
#TITLETRANSLIT:;
#SUBTITLETRANSLIT:;
#ARTISTTRANSLIT:;
#GENRE:;
#CREDIT:;
#BANNER:666_banner.png;
#BACKGROUND:666.png;
#LYRICSPATH:;
#CDTITLE:;
#MUSIC:666.ogg;
#OFFSET:-0.470000;
#SAMPLESTART:0.480000;
#SAMPLELENGTH:12.000000;
#LASTBEATHINT:501.031677;
#SELECTABLE:YES;
#DISPLAYBPM:666.000000;
#BPMS:0.000000=166.500000
,32.000000=333.000000
,92.000000=666.000000
,96.000000=333.000000
,175.000000=166.500000
,199.000000=333.000000
,201.000000=166.500000
,279.000000=333.000000
,404.000000=166.500000
,404.500000=666.000000
,405.500000=333.000000
,500.000000=166.500000
;
#STOPS:92.000000=0.060000,
92.666664=0.060000,
93.333336=0.060000,
94.000000=0.060000,
94.666664=0.060000,
95.333336=0.060000,
143.666672=0.180000,
199.000000=0.180000,
199.500000=0.180000,
335.000000=1.261000,
445.750000=0.360000,
451.750000=0.360000,
500.000000=0.541000
;
#BGCHANGES:;
#KEYSOUNDS:;
#ATTACKS:;

//---------------dance-single - ----------------
#NOTES:
     dance-single:
     :
     Easy:
     12:
     0.506362,0.676041,0.183051,0.174731,0.000000,426.000000,404.000000,22.000000,21.000000,0.000000,0.000000,0.506362,0.676041,0.183051,0.174731,0.000000,426.000000,404.000000,22.000000,21.000000,0.000000,0.000000:
0000
0000
0000
0000
,
0000
0000
0000
0000
,
0000
0000
0000
0000
,
0000
0000
0000
0000
,
0001
0100
0010
1000
,
0100
0010
0001
0000
,
1000
0001
0010
0100
,
2002
3003
0220
0330
,
0001
0010
0001
0000
,
0001
0000
0001
0000
,
1000
0010
1000
0000
,
0101
0000
1100
0000
,
0010
0100
0010
1000
,
0100
0010
0001
0000
,
1000
0001
0010
0100
,
1000
0010
0100
0000
,
0001
1000
0010
1000
,
0001
1000
0002
0000
,
0103
0010
1000
0100
,
1000
0010
0200
0000
,
0310
1000
0001
1000
,
0010
1000
0001
0000
,
0010
0100
1000
0100
,
0020
0000
0030
0000
,
0100
1000
0100
1000
,
0001
0010
0001
0010
,
0200
0000
0300
0000
,
0220
0000
0330
0000
,
1000
0100
1000
0100
,
0010
0001
0010
0001
,
1000
0001
1000
0001
,
0010
0100
0010
0000
,
0001
0100
0001
0100
,
0010
1000
0010
1000
,
0100
0010
0100
1000
,
0001
0000
1001
0000
,
0000
0010
0100
0010
,
0100
0010
0000
1000
,
0100
1000
0001
0010
,
0001
0100
0000
0010
,
1000
0001
0100
0010
,
1000
0100
0000
0010
,
0001
0100
0010
1000
,
0100
0010
0000
0011
,
1000
0000
0100
0000
0100
0000
0100
0100
,
0100
0220
0330
0011
,
0100
0001
1000
0100
,
1000
0000
0010
0100
0001
0000
0010
0000
,
0001
0000
1000
0010
0100
0000
0001
0000
,
0010
0000
0001
1000
0100
0000
0020
0000
,
0030
0000
1001
0010
,
0100
0000
0001
0000
0010
0000
0100
1000
,
0001
0000
0100
0000
0010
0000
1000
0001
,
0100
0010
2000
3100
,
1000
0010
1000
0100
,
1000
0010
0000
0200
,
0301
0010
0001
0100
,
0001
0010
0000
0001
,
0010
0100
1000
0010
,
0100
0001
0000
1000
,
0100
0010
0001
0100
,
0010
0001
0000
0220
,
0000
0000
0000
0330
,
0000
0000
0000
0001
,
0000
1000
0000
0100
,
0000
0010
0000
0001
,
0010
0000
0100
1000
0100
0000
1000
0000
,
0010
0000
0100
0001
0100
0000
0001
0010
,
0100
0000
0010
0100
1000
0000
2002
0000
,
0000
0000
3003
0010
,
0100
0010
0000
0110
,
0000
1001
0000
0100
,
0010
0100
0000
0001
,
0010
0100
0000
1000
,
0010
0100
0000
0010
,
0100
0001
0000
0010
,
0100
1000
0001
1000
,
0000
0110
0000
1000
,
0100
1000
0000
0001
,
0010
0001
0000
1000
,
0010
0100
0000
0001
,
0010
0100
0000
1000
,
0001
0010
0001
1000
,
0100
0010
0001
0100
,
0010
0000
0100
0000
,
0001
1000
0001
0000
,
1000
0010
0100
0010
,
1000
0001
0010
0000
,
0001
0100
0010
0100
,
0001
1000
0100
0000
,
0010
0100
1000
0010
,
0100
0001
0010
0000
,
0001
0100
0010
1000
,
0100
1000
0010
0000
,
0200
0000
0310
1000
,
0001
0010
0100
0000
,
1000
0010
0100
0001
,
0010
0100
1000
0000
,
0010
1000
0100
1000
,
0001
0010
0100
0010
,
0001
0000
1001
0000
,
0200
0000
0310
0000
,
0010
1000
0010
1000
,
0001
0010
0001
0010
,
0001
0100
0010
1000
,
0001
0010
0100
0000
,
1000
0010
1000
0010
,
0100
0001
0100
0001
,
1000
0100
0010
0001
,
1000
0010
0100
0000
,
0001
0010
0100
0010
,
0001
0000
1000
0010
,
0100
0010
1000
0000
,
0010
0100
0001
1000
,
0010
0100
0001
0010
,
0100
0000
1100
0000
,
0101
0000
0011
0000
,
0010
0100
0010
0100
,
0010
0100
0010
0100
,
1000
0001
1000
0001
,
1000
0001
1000
0000
,
0001
0010
0100
1000
,
0001
0010
0100
1000
,
0010
0100
0001
0000
,
0011
0000
1001
0000
,
1010
0000
0000
0000
;

//---------------dance-single - ----------------
#NOTES:
     dance-single:
     :
     Medium:
     16:
     0.826107,1.196272,0.241295,0.174731,0.108167,695.000000,666.000000,29.000000,21.000000,0.000000,0.000000,0.826107,1.196272,0.241295,0.174731,0.108167,695.000000,666.000000,29.000000,21.000000,0.000000,0.000000:
0000
0000
0000
0000
,
0000
0000
0000
0000
,
0000
0000
0000
0000
,
0000
0000
0000
0000
,
1000
0001
0010
0000
0100
0010
0001
0000
,
1000
0010
0001
0000
0110
0000
0000
0001
,
0001
0010
0100
0000
0010
0001
1000
0001
,
2002
0000
0000
3003
,
1000
0000
0010
0000
1000
0100
0000
0000
,
1000
0001
0000
0010
0001
0000
0100
0010
,
1000
0000
0001
0000
0010
0001
0000
0100
,
0010
0000
1010
0000
,
0001
0000
0010
0001
1000
0010
1000
0001
,
0010
0001
1000
0000
0001
1000
0001
1000
,
0010
0100
0010
0000
1000
0001
1000
0000
,
0001
0100
0220
0330
,
1000
0000
0010
1000
0010
1000
0010
1000
,
0001
0010
0100
1000
,
0001
0010
0001
0010
0001
0010
0001
0010
,
0001
1000
0200
0000
,
1300
0000
0010
0100
0010
0100
0010
0100
,
0010
1000
0100
1000
,
0001
1000
0001
1000
0001
1000
0001
1000
,
0001
0000
0010
0000
0100
0000
1000
0000
0001
0000
0010
0000
,
0100
0000
1000
0010
1000
0010
1000
0010
,
1000
0000
0001
0100
0001
0010
0000
0001
,
0020
0000
0030
0000
,
0110
0000
1100
0000
,
1000
0000
0001
0000
0010
0001
1000
0000
,
0010
0000
0100
0000
0001
0010
0100
0000
,
1000
0000
0010
0000
0100
0001
1000
0000
,
0010
0100
0010
0100
0010
0000
1000
0000
,
0001
0000
1000
0000
0100
1000
0010
0000
,
0100
0000
0000
0001
0000
0000
0010
0000
0001
0000
0100
0000
,
0010
0000
1000
0100
1000
0000
0001
0000
,
1000
0000
0000
1001
0000
0000
0001
0000
,
0000
0000
0010
0000
0100
0010
0100
0000
,
0010
0000
1000
0100
1000
0000
0001
0000
,
0010
0001
0010
0000
0100
0000
1000
0001
,
1000
0001
1000
0000
0100
0000
0010
0000
,
0001
0010
0001
0000
0010
0000
0001
0000
,
1000
0100
1000
0000
0001
0000
1000
0000
,
0001
0010
0000
0100
2000
0000
0000
0000
,
3010
0000
0100
0010
0100
0000
0001
0000
,
0100
0000
0000
0000
0011
0000
0000
0000
1100
0000
0000
0000
0010
0000
0100
0010
,
0100
0010
1000
1000
1001
0000
0011
0000
,
1000
0010
1000
0000
0001
0010
0001
0000
0100
0010
0100
0000
0010
1000
0010
0000
,
1000
0100
1000
0000
0001
0000
0010
0000
0100
0000
1000
0000
0110
0000
0000
0000
,
0001
0010
0001
0000
1000
0100
1000
0000
0010
0100
0010
0000
1000
0010
1000
0000
,
0001
0010
0001
0000
1000
0000
0100
0000
0010
0000
0001
0000
1000
0000
1001
0000
,
0001
0000
0000
0000
0200
0000
0000
0000
0310
1000
0010
0000
0100
0000
0001
0000
,
0010
0001
0010
0000
0100
0000
1000
0000
0010
0100
0010
0000
1000
0000
0001
0000
,
0010
0000
0001
0000
1000
0000
0100
0000
0001
0000
0100
0000
1000
0000
0001
0010
,
0001
0100
0001
0010
1000
0010
0001
1000
,
0010
0100
0110
0000
1000
0100
1000
0010
,
0100
0000
0011
0000
0100
0000
0010
0100
,
0001
0010
0011
0000
1000
0000
0010
0100
,
0010
1000
0100
0010
0001
0000
1100
0000
,
0001
0100
0010
0000
0101
0000
1000
0100
,
0010
0100
1000
0010
0010
0000
1001
0000
,
0010
0100
0001
0000
0011
0000
1000
0100
,
1000
0000
0001
0000
0010
0000
0100
0000
1000
0001
0010
0000
0200
0000
0000
0000
,
0000
0000
0000
0302
,
0000
0000
0000
2003
,
0000
0000
0000
3020
,
0000
0000
0000
0000
0000
0000
0130
0001
,
0010
0001
1000
0010
0100
0000
0001
0010
,
0100
0000
1000
0000
0010
0000
0100
0000
0001
0000
0000
0000
1000
0000
0010
0100
,
0010
0000
1000
0000
0001
0000
0010
0000
0100
0000
0000
0000
0010
0000
0001
1000
,
0001
0100
0010
0100
0110
0000
0001
0000
,
1000
0000
0001
0100
0000
0010
1000
0000
,
0100
0000
1000
0010
0000
0100
0001
0000
,
1000
0000
0001
0010
0000
0010
0100
0000
,
1000
1010
0000
0100
,
0001
0000
0010
0100
0000
1000
0100
0000
,
0010
0000
0100
1000
0000
0001
0010
0000
,
0001
0000
0100
0010
0000
1000
0100
0000
,
0010
1100
0000
0202
,
0000
0000
0000
0000
,
0000
0303
0000
2020
,
0000
0000
0000
0000
,
0000
3030
0000
0001
,
0010
0000
0100
0000
1000
0000
0001
0100
,
0001
0000
1000
0010
1000
0010
0100
0000
,
1000
0000
0100
0000
0010
0001
0010
0001
,
0100
0000
0001
0000
1000
0010
1000
0010
,
0100
0000
0001
0000
0010
0001
0010
0001
,
1000
0000
0010
0000
0100
0001
0100
0001
,
1000
0000
0001
0000
0010
0100
0010
0100
,
1000
0000
0001
0010
0100
1000
0010
0000
,
1000
0000
0100
0000
1000
0010
1000
0010
,
0100
0000
0001
0000
0010
0001
0010
0001
,
1000
0000
0001
0010
0000
0001
0100
0010
,
0100
0010
2002
3003
,
0000
0000
0100
0010
0100
0000
0010
0000
,
1000
0100
1000
0010
0100
0000
0001
0000
,
0010
0000
0001
0100
0001
0000
1000
0000
,
0001
0000
0000
0100
0000
0000
0010
0000
0000
1000
0000
0000
0100
0000
0000
0000
1000
0000
0000
0000
0001
0000
0000
0000
,
0010
0000
0001
1000
0001
0000
0100
0000
,
0010
0000
1000
0100
1000
0000
0001
0000
,
1000
0010
0100
0001
0010
0100
1000
0001
,
1000
0000
2002
3003
,
0010
0100
0010
0000
1000
0100
1000
0000
,
0001
0100
0010
1000
0001
0010
0100
0000
,
1000
0010
1000
0000
0001
0010
0001
0000
,
1000
0100
0010
0001
0100
0010
1000
0000
,
0001
0010
0100
0000
1000
0010
0100
0000
,
0001
1000
0100
1000
0010
0100
0001
0000
,
0010
0100
1000
0000
0001
0010
0100
0000
,
1000
0010
0100
0010
1000
0001
0010
0000
,
0100
1000
0010
0000
0100
0001
0010
0000
,
0001
0010
0100
1000
0010
0100
0001
0000
,
1000
0100
0010
0000
0001
1000
0010
0100
,
0010
1000
0100
0000
0010
0001
0100
0000
,
0001
0010
0001
0100
0010
0100
0001
0000
,
1000
0100
1000
0010
0100
0010
1000
0000
,
0001
0000
1001
0000
,
1000
0000
0001
1000
0001
1000
0001
1000
,
0001
1000
0001
1000
0001
1000
0001
1000
,
0001
1000
0001
1000
0001
1000
0001
1000
,
0010
0010
0110
0010
,
0100
0010
0100
0010
0100
0010
0100
0010
,
0100
0010
0100
0010
0100
0010
0100
0010
,
0100
0000
0010
0000
0010
0001
0000
0010
,
1000
0000
0000
0100
0010
0000
0000
0001
,
2000
3000
0000
0000
0000
0000
0000
0000
0000
0000
0000
0000
0000
0000
0000
0000
0000
0000
0000
0000
0000
0000
0000
0000
0000
0000
0000
0000
0000
0000
0000
0000
0000
0000
0000
0000
0000
0000
0000
0000
0000
0000
0000
0000
0000
0000
0000
0000
;

//---------------dance-single - ----------------
#NOTES:
     dance-single:
     :
     Hard:
     18:
     1.043629,1.352308,0.349461,0.341141,0.416025,878.000000,836.000000,42.000000,41.000000,0.000000,0.000000,1.043629,1.352308,0.349461,0.341141,0.416025,878.000000,836.000000,42.000000,41.000000,0.000000,0.000000:
0000
0000
0000
0000
,
0000
0000
0000
0000
,
0000
0000
0000
0000
,
0000
0000
0000
0000
,
0001
0100
0010
1000
0001
0010
0100
1000
,
0010
0100
1000
0100
0001
0010
0110
0000
,
1000
0010
1000
0010
1000
0000
0001
0000
0010
0001
0010
0001
0010
0000
0100
0000
,
1000
0001
0010
0100
1000
0010
0100
0001
1000
0000
0001
0000
0110
0000
0000
0000
,
0011
0000
0000
0000
0000
0000
0001
0000
0000
0000
0000
0000
1000
0000
0100
0000
0010
0000
0000
0000
0000
0100
0000
0000
,
1000
0000
0001
0000
0010
0000
0000
0000
0000
0001
0000
0000
0100
0000
0010
0000
1000
0000
0000
0000
0000
0100
0000
0000
,
1000
0000
0000
0000
0000
0000
1001
0000
0000
0000
0000
0000
0010
0000
0100
0000
0001
0000
0000
0000
0000
0010
0000
0000
,
0022
0000
0033
0000
1000
0100
0002
0000
,
0103
0000
1000
0010
0100
0001
0010
0100
,
1000
0010
0100
0001
1000
0100
0010
0001
,
0100
0010
1000
0001
0010
0100
1000
0010
,
0100
0110
0010
0110
,
2000
0000
3001
0010
0001
0100
0001
0010
,
0001
1000
0010
1000
0100
1000
0001
1000
,
0010
0100
0001
0100
0010
1000
0100
1000
,
0001
0011
1000
1100
,
0001
0000
1000
0010
0100
0001
0010
0001
,
0100
0010
1000
0100
1000
0001
0010
0100
,
1000
0001
1000
0001
0010
0100
0010
0100
,
2000
0000
3200
0000
0302
0000
2003
0000
3020
0000
0032
0000
,
0103
0000
0010
1000
0001
0010
0100
1000
,
0010
0100
0001
0010
0100
1000
0000
0010
,
0200
0000
0300
0000
,
2020
0000
3030
0000
0010
0100
0001
0000
,
0010
0100
0010
0100
1000
0010
1000
0010
,
0100
0001
0100
0001
1000
0100
1000
0100
,
0010
0001
0010
0001
1000
0010
1000
0010
,
0100
0001
0020
0000
0031
0100
0020
0000
,
0130
0001
0100
0001
0010
0001
0010
0001
,
1000
0000
0000
0010
0000
0000
1000
0000
0000
0010
0000
0000
1000
0000
0000
0000
0100
0000
0000
0000
0010
0000
0000
0000
,
0100
1000
0100
1000
0001
0010
0001
0010
,
0001
0000
0000
1001
0000
0000
0100
0010
,
0000
0010
0100
0010
0100
0001
0010
0001
,
0010
0100
1000
0100
1000
0010
0100
0010
,
0100
0001
0010
0001
0010
0001
0010
0100
,
1001
0010
0100
1000
0000
1000
0001
1000
,
0001
1000
0100
0010
0100
0010
0001
0100
,
0001
0100
0010
1000
0010
1000
0001
0000
,
0100
1000
0000
0100
0001
0000
0000
0000
,
0011
0000
0000
0000
1000
0000
0100
0000
0010
0000
0001
0000
1000
0000
0001
0010
,
0001
0000
0100
0000
0010
1000
0100
0000
0010
0100
1000
0000
0001
0100
0010
1000
,
0001
0100
0010
1000
0200
0000
0300
0000
0110
0000
0000
0000
0011
0000
0000
0000
,
1000
0010
0100
0000
0001
0010
0100
0000
1000
0001
0010
0000
0001
1000
0010
0000
,
0100
0001
1000
0000
0001
1000
0100
0000
0010
0100
1000
0001
0100
0000
0100
0000
,
0010
1000
0100
0000
0010
0001
0100
0000
0001
0010
0100
0000
1000
0010
0100
0000
,
0010
1000
0100
0000
2000
0000
3002
0000
0023
0000
0130
0000
0110
0000
1001
0000
,
0110
0000
0000
0000
0010
0000
1000
0000
0001
1000
0100
0000
1000
0010
0100
0000
,
0001
0010
0100
0000
0010
0100
1000
0000
0010
0100
0001
0000
0010
0000
0001
0000
,
1000
0010
0100
0010
1000
0000
0001
0000
0010
0000
1000
0000
0010
0000
0001
0000
,
1000
0001
0010
0001
1000
0000
0100
0000
0001
0000
0100
0000
1000
0000
0000
0000
,
0001
0000
0100
0000
0110
0000
0000
0000
0001
1000
0100
0000
1000
0000
0010
0100
,
0000
0010
0100
0010
1000
0000
0001
0000
0010
0000
0001
0000
0101
0000
0000
0000
,
0010
1000
0001
0000
0010
0000
0100
0000
1000
0001
1000
0000
0010
0000
0100
0001
,
0000
0100
0001
0100
0010
0000
1000
0000
0100
0000
0010
0000
0100
0000
0000
0000
,
1000
0000
0001
0000
0011
0000
0000
0000
0100
0010
1000
0000
0001
0000
1000
0010
,
0000
1000
0010
0100
0010
0000
1000
0000
0001
0000
0010
0000
0100
0000
0000
1000
,
0010
0000
0100
0000
0110
0000
0000
0000
0001
0010
0100
0000
1000
0000
0010
0000
,
0100
0001
0000
1000
0010
0000
0100
0000
0001
1000
0100
0010
0002
0000
0000
0000
,
0000
0000
0000
0203
,
0000
0000
0000
2300
,
0000
0000
0000
3020
,
0000
0000
0000
0000
0000
0000
0031
1000
,
0100
0010
0100
0000
1000
0000
0001
0000
0010
0000
0100
0000
1000
0000
0001
0000
,
0100
0010
0100
0000
0001
0000
1000
0000
0010
0000
0100
0000
0001
0100
0010
1000
,
0001
0100
0010
1000
0001
0010
0100
1000
0100
0010
0001
1000
0020
0000
0000
0000
,
0000
0030
0110
1000
,
1001
0000
0000
0000
0000
0000
0001
0000
0100
0000
0010
0000
0000
0000
0000
1000
0000
0000
0100
0000
0000
0000
0000
0000
,
1100
0000
0000
0000
0000
0000
0001
0000
0010
0000
0100
0000
0000
0000
0000
1000
0000
0000
0010
0000
0000
0000
0000
0000
,
0110
0000
0000
0000
0000
0000
1000
0000
0001
0000
1000
0000
0000
0000
0000
0100
0000
0000
0010
0000
0000
0000
0000
0000
,
0011
2002
3003
0110
,
0010
0000
0000
0000
0000
0000
1000
0000
0010
0000
0100
0000
0000
0000
0000
0100
0000
0000
0001
0000
0000
0000
0000
0000
,
0011
0000
0000
0000
0000
0000
0001
0000
1000
0000
0010
0000
0000
0000
0000
0100
0000
0000
0001
0000
0000
0000
0000
0000
,
1001
0000
0000
0000
0000
0000
1000
0000
0001
0000
0010
0000
0000
0000
0000
0100
0000
0000
1000
0000
0000
0000
0000
0000
,
0110
1001
0000
0100
,
0001
0000
0010
0000
0001
0100
0010
0000
,
1000
0000
0100
0000
1000
0010
0100
0000
,
0010
0000
1000
0000
0001
0010
0001
0000
,
1000
0000
0100
0000
1000
0010
1000
0100
,
1000
0100
0010
0001
0010
0001
1000
0001
,
0010
0000
0000
0000
0000
0000
0100
0000
0000
0000
0000
0000
1000
0000
0000
0000
0000
0000
0001
0000
0000
0000
0000
0000
0010
0000
0000
0000
0000
0000
0100
0000
0000
0000
0000
0000
0020
0030
0000
0000
0000
0000
0000
0000
0000
0000
0000
0000
,
0001
0000
1000
0000
0010
0100
0001
1000
,
0100
0000
0010
0000
0100
1000
0001
0010
,
0001
0100
0001
0100
0010
1000
0010
1000
,
0001
1000
0100
1000
,
0010
0100
0010
0100
0001
0010
0001
0010
,
0100
0000
1000
0000
0001
0000
0010
0001
,
1000
0010
1000
0010
0100
0001
0100
0001
,
1000
0100
0001
0100
,
0010
0001
0100
0010
1000
0100
0010
0001
,
1000
1001
0001
2002
,
3003
0000
0100
0010
0100
0000
0001
0000
,
1000
0010
0100
0010
1000
0001
0010
0000
,
0001
0000
0100
0010
1000
0000
0100
0000
,
1000
0000
0000
0001
0000
0000
0010
0000
0000
0001
0000
0000
1000
0000
0000
0000
0010
0000
0000
0000
0100
0000
0000
0000
,
0001
0010
0001
0010
0100
1000
0100
0000
,
1000
0000
0010
0000
0100
0001
1000
0010
,
0100
0000
0001
0010
0100
1000
0010
0100
,
0010
0100
0000
0000
2002
0000
3003
0000
,
1000
0001
0010
0001
1000
0100
0010
0001
,
0100
0010
0100
0001
0010
0001
0100
0000
,
0001
0010
0001
0010
0100
1000
0010
0100
,
0001
0010
0002
0000
1003
0010
2000
0000
,
3100
0010
0100
1000
0010
0100
0001
0000
,
0010
0001
0100
0000
0010
1000
0100
0000
,
0010
0001
0100
0010
1000
0100
0010
0001
,
1000
0001
2002
3003
,
0010
0100
0010
0100
0001
0010
0001
0010
,
0100
1000
0001
0010
0001
0100
0001
0100
,
0010
1000
0010
1000
0100
1000
0010
0100
,
0001
0010
0001
1000
0100
1000
0010
0100
,
0010
0000
1000
0100
1000
0001
1000
0000
,
0001
0100
0010
0000
1000
0100
0010
0000
,
0022
0033
2200
3300
,
0001
0100
0010
1000
0001
0100
0010
1000
,
0001
0010
0100
1000
0001
0010
0100
1000
,
0010
0100
0010
0100
0001
0010
0001
0010
,
0100
1000
0101
0010
,
1000
0010
1000
0010
0100
0001
0100
0001
,
1000
0010
0100
0001
1000
0010
0100
0001
,
1000
0000
0000
0000
0000
0000
0011
0000
0000
0000
0000
0000
1000
0000
0001
0000
0010
0000
0000
0000
0000
0001
0000
0000
,
0100
0000
0010
0000
1000
0000
0000
0000
0000
0100
0000
0000
1000
0000
0010
0000
0100
0000
0000
0000
0000
0001
0000
0000
,
2002
3003
0000
0000
0000
0000
0000
0000
0000
0000
0000
0000
0000
0000
0000
0000
0000
0000
0000
0000
0000
0000
0000
0000
0000
0000
0000
0000
0000
0000
0000
0000
0000
0000
0000
0000
0000
0000
0000
0000
0000
0000
0000
0000
0000
0000
0000
0000
;

//---------------dance-single - ----------------
#NOTES:
     dance-single:
     :
     Challenge:
     19:
     1.182701,1.612367,0.374423,0.282897,0.628198,995.000000,950.000000,45.000000,34.000000,0.000000,0.000000,1.182701,1.612367,0.374423,0.282897,0.628198,995.000000,950.000000,45.000000,34.000000,0.000000,0.000000:
// measure 0
0000
0000
0000
0000
,  // measure 1
0000
0000
0000
0000
,  // measure 2
0000
0000
0000
0000
,  // measure 3
0000
0000
0000
0000
,  // measure 4
1000
0100
0001
0100
0010
0001
1000
0010
,  // measure 5
0100
0001
1000
0100
0010
1000
0010
0001
,  // measure 6
1000
0010
0100
0001
0010
0100
1000
0001
0100
0010
1000
0100
1000
0010
0100
0001
,  // measure 7
0010
0100
1000
0100
0001
0100
1000
0010
0100
0000
1000
0000
1001
0000
0000
0000
,  // measure 8
0110
0000
0000
0000
0000
0000
0110
0000
0000
0000
0000
0000
0001
0000
0010
0000
0100
0000
1000
0000
0000
0010
0000
0000
,  // measure 9
1000
0000
0010
0000
0100
0000
0001
0000
0000
0010
0000
0000
0001
0000
1000
0000
0100
0000
0010
0000
0000
0001
0000
0000
,  // measure 10
1001
0000
0000
0000
0000
0000
1001
0000
0000
0000
0000
0000
0010
0000
0100
0000
0001
0000
1000
0000
0000
0100
0000
0000
,  // measure 11
2200
0000
3300
0000
0001
0100
0010
1000
,  // measure 12
0001
0000
0010
0001
1000
0100
0010
0100
,  // measure 13
1000
0001
0100
0010
1000
0100
0010
0001
,  // measure 14
0010
0100
1000
0001
0010
0100
1000
0010
,  // measure 15
0100
0110
1001
0110
,  // measure 16
2000
0000
3010
0100
0010
1000
0100
1000
,  // measure 17
0010
0000
0100
0000
1000
0000
0100
0000
0010
0100
0001
0000
0010
0000
0100
0000
,  // measure 18
1000
0001
0010
0000
0100
0000
1000
0001
0100
0000
0010
1000
0001
0000
0100
0000
,  // measure 19
0010
1001
0100
1001
,  // measure 20
0010
0000
1000
0001
0010
0100
0010
0001
,  // measure 21
1000
0010
0100
0000
0001
0000
0010
0000
0001
0000
1000
0000
0010
0000
0001
0000
,  // measure 22
0010
0100
0010
1000
0001
0010
0100
1000
,  // measure 23
0002
0000
0023
0000
2030
0000
3002
0000
0203
0000
2300
0000
,  // measure 24
3020
0000
0000
0000
0000
0000
0130
0000
0000
0001
0000
0000
1000
0000
0010
0000
0100
0000
0010
0000
0000
1000
0000
0000
,  // measure 25
0001
0010
0100
1000
0001
0010
0000
1010
,  // measure 26
0200
0000
0000
0300
,  // measure 27
0011
0000
0000
0000
1000
0010
0200
0000
,  // measure 28
0310
1000
0010
1000
0001
0010
0001
0010
,  // measure 29
0100
1000
0100
1000
0010
0100
0010
0100
,  // measure 30
0001
1000
0001
1000
0010
0100
0010
0100
,  // measure 31
0001
0010
0100
1000
0010
1000
0100
0010
,  // measure 32
0001
0010
0001
0010
0100
1000
0100
1000
,  // measure 33
0010
0000
0000
1000
0000
0000
0010
0000
0000
1000
0000
0000
0001
0000
0000
0000
0101
0000
0000
0000
0100
0000
0000
0000
,  // measure 34
0010
0000
1000
0100
1000
0000
0010
0000
0100
0000
0001
0000
0000
0000
0001
0000
,  // measure 35
1001
0000
0000
0100
0010
1000
0001
0010
,  // measure 36
0000
0100
1000
0100
1000
0001
0010
0001
,  // measure 37
0010
0001
0100
0001
0100
0010
1000
0010
,  // measure 38
1000
0100
1000
0100
1000
0001
0100
0001
,  // measure 39
0100
0010
1000
0100
0010
0001
2000
0000
,  // measure 40
3010
0100
0010
0100
0001
0100
0001
0100
,  // measure 41
0010
1000
0010
1000
0001
1000
0010
0000
,  // measure 42
1000
1100
0000
0001
0011
0000
0000
0000
,  // measure 43
1001
0000
0000
0000
0010
0000
0100
0000
0001
0000
1000
0000
0100
0000
1000
0010
,  // measure 44
0100
0000
0001
0000
0010
0001
1000
0000
0100
1000
0010
0000
0100
0001
0010
0001
,  // measure 45
1000
0010
0100
0010
1000
0001
0010
0100
1000
0000
0000
0000
0011
0000
0000
0000
,  // measure 46
1000
0100
0010
0100
1000
0100
0010
0100
1000
0001
0100
0010
0100
0001
0100
0010
,  // measure 47
1000
0100
0010
0100
1000
0000
0001
0000
0010
0000
0100
0000
1001
0000
0000
0000
,  // measure 48
0010
1000
0100
0000
0010
0001
0100
0001
0010
0001
0100
0001
0010
0100
1000
0100
,  // measure 49
0010
0100
1000
0100
0010
0000
0011
0000
1000
0000
1100
0000
1010
0000
0101
0000
,  // measure 50
0011
0000
0000
0000
1000
0001
0010
0001
1000
0010
0100
0010
1000
0001
0010
0100
,  // measure 51
1000
0010
0100
0000
0001
0010
0100
0010
0001
0100
0010
0100
0001
0000
1000
0000
,  // measure 52
0100
0000
1000
0010
0100
0000
0001
0000
0010
0000
0100
0000
1000
0000
0001
0000
,  // measure 53
0010
0000
0001
1000
0010
0000
0100
0000
0101
0000
0000
0000
1000
0010
0100
0000
,  // measure 54
0001
0010
0100
0000
1000
0100
0010
0000
0001
0100
0010
0000
0100
0010
1000
0000
,  // measure 55
0001
0100
0010
0000
1000
0010
0100
0000
0001
0010
0100
0000
1000
0100
0010
0000
,  // measure 56
0100
1000
0010
0000
0100
0010
1000
0000
0010
0100
1000
0000
0100
0001
0010
0000
,  // measure 57
0001
0100
0010
0000
0100
0001
0010
0000
0100
0010
0001
0000
1000
0000
0001
0000
,  // measure 58
0010
0001
1000
0000
0110
0000
0000
0000
1000
0000
0001
0000
0010
0000
0001
0100
,  // measure 59
0000
0010
1000
0100
1000
0000
0010
0000
0100
0001
0010
0000
0001
0000
1000
0000
,  // measure 60
0010
0100
0001
0000
1001
0000
0000
0000
0010
0100
0001
0000
0010
0000
0100
1000
,  // measure 61
0000
0010
0100
0010
1000
0000
0001
0010
0100
1000
0010
0000
0200
0000
0000
0000
,  // measure 62
0000
1000
0000
2300
,  // measure 63
0000
0010
0000
3020
,  // measure 64
0000
0001
0000
0032
,  // measure 65
0000
0000
1000
0000
0000
0000
1003
0001
,  // measure 66
0010
0000
0001
1000
0010
0000
0100
0000
0001
0000
0010
0000
0001
0000
1000
0000
,  // measure 67
0100
0000
1000
0010
0100
0000
0001
0000
0010
0000
0100
0000
1000
0010
1000
0010
,  // measure 68
0100
0001
0100
0001
0010
0100
1000
0001
0100
0010
1000
0100
0010
0000
0001
0000
,  // measure 69
0010
0000
1000
0010
0001
0000
0100
0000
0110
0000
0000
0000
1000
0000
0000
0000
,  // measure 70
1100
0000
0000
0000
0000
0000
0001
0000
0010
0000
0100
0000
1000
0000
0000
0001
0000
0000
1000
0000
0000
0000
0000
0000
,  // measure 71
0101
0000
0000
0000
0000
0000
0010
0000
0100
0000
0001
0000
1000
0000
0000
0010
0000
0000
0100
0000
0000
0000
0000
0000
,  // measure 72
1010
0000
0000
0000
0000
0000
0100
0000
0001
0000
0010
0000
0100
0000
0000
1000
0000
0000
0001
0000
0000
0000
0000
0000
,  // measure 73
0011
2002
3003
1010
,  // measure 74
0100
0000
0000
0000
0000
0000
0001
0000
1000
0000
0100
0000
0010
0000
0000
0001
0000
0000
0010
0000
0000
0000
0000
0000
,  // measure 75
0110
0000
0000
0000
0000
0000
1000
0000
0010
0000
0100
0000
0001
0000
0000
0100
0000
0000
0010
0000
0000
0000
0000
0000
,  // measure 76
1010
0000
0000
0000
0000
0000
0100
0000
0010
0000
1000
0000
0100
0000
0000
0010
0000
0000
0001
0000
0000
0000
0000
0000
,  // measure 77
0011
0220
0330
1000
,  // measure 78
0010
0000
1000
0000
0001
0010
0100
0000
,  // measure 79
1000
0000
0010
0000
0100
0001
0010
0000
,  // measure 80
0001
0000
1000
0000
0010
0100
0001
0000
,  // measure 81
1000
0000
0100
0000
0010
0100
1000
0001
,  // measure 82
0010
0001
1000
0010
0100
0010
1000
0100
,  // measure 83
0010
0000
0000
0000
0000
0000
0001
0000
0000
0000
0000
0000
0100
0000
0000
0000
0000
0000
0010
0000
0000
0000
0000
0000
0001
0000
0000
0000
0000
0000
0010
0000
0000
0000
0000
0000
0200
0300
0000
0000
0000
0000
0000
0000
0000
0000
0000
0000
,  // measure 84
0010
1000
0100
0000
0010
0001
0100
0000
,  // measure 85
0001
0000
0010
0000
0100
0000
1000
0000
0010
0000
0100
0000
0010
0100
0010
0000
,  // measure 86
1000
0100
1000
0100
0010
0001
0010
0001
,  // measure 87
1000
0001
1000
0001
0010
0100
1000
0010
,  // measure 88
0100
0001
0010
0001
1000
0010
0100
0001
,  // measure 89
1000
0010
0100
0001
0010
0100
2000
0000
,  // measure 90
3001
0010
0100
0010
0001
1000
0010
0100
,  // measure 91
0010
1000
0100
1000
0001
0010
0100
1000
,  // measure 92
0010
0000
0100
0010
1000
0001
0020
0000
,  // measure 93
0031
0000
1000
0001
0010
0100
2000
0000
,  // measure 94
3000
0000
0010
0100
0001
1000
0100
0010
,  // measure 95
0001
1000
0001
0010
0100
0010
0001
0000
,  // measure 96
1000
0010
0100
0010
1000
0100
0010
0100
,  // measure 97
1000
0000
0000
0100
0000
0000
0001
0000
0000
0100
0000
0000
1000
0000
0000
0000
0001
0000
0000
0000
0010
0000
0000
0000
,  // measure 98
0001
1000
0001
1000
0010
1000
0010
1000
,  // measure 99
0001
0100
0001
0100
0010
1000
0001
0100
,  // measure 100
0010
0100
1000
0001
0010
0100
1000
0000
,  // measure 101
2000
3010
0000
0000
0202
0000
0303
0000
,  // measure 102
0010
1000
0100
1000
0001
0010
0100
1000
,  // measure 103
0010
0100
0001
0000
0010
0000
0100
0000
1000
0000
0010
0000
0100
0000
0010
0000
,  // measure 104
1000
0001
0010
0000
0100
0000
1000
0000
0001
0000
0100
0000
0010
0000
1000
0000
,  // measure 105
0010
1000
0010
1000
0010
0000
0100
0000
0001
0010
0001
0010
0001
0000
0100
0000
,  // measure 106
1000
0001
0100
0010
1000
0100
0010
0001
,  // measure 107
0100
0010
1000
0000
0001
0000
0010
0000
0100
0000
1000
0000
0100
0000
0010
0000
,  // measure 108
0001
1000
0010
0000
0100
0000
0010
0000
1000
0000
0001
0000
0010
0000
0100
0000
,  // measure 109
1000
0010
1000
0010
1000
0000
0100
0000
0001
0010
0001
0010
0001
0000
0100
0000
,  // measure 110
0010
0001
0100
0001
1000
0010
0100
0010
,  // measure 111
1000
0001
0010
0100
0010
0001
0100
0001
,  // measure 112
0010
0100
1000
0001
0010
0001
0100
0010
,  // measure 113
1000
0010
1000
0100
0010
0100
1000
0010
,  // measure 114
0100
0000
0001
0010
0001
1000
0010
0100
,  // measure 115
0010
1000
0001
0020
0000
0000
0031
1000
0001
0200
0000
0000
,  // measure 116
0310
0110
2002
3003
,  // measure 117
0100
0010
1000
0010
0100
0001
0010
0100
,  // measure 118
1000
0010
0100
0010
1000
0100
0010
0001
,  // measure 119
0100
0001
0010
0100
1000
0010
0100
0001
,  // measure 120
0010
0011
1000
1010
,  // measure 121
0100
0001
0100
0001
1000
0010
1000
0010
,  // measure 122
0100
0010
0100
0010
1000
0001
1000
0001
,  // measure 123
0100
0000
0000
0000
0000
0000
0001
0000
0000
0000
0000
0000
0010
0000
0100
0000
1000
0000
0001
0000
0000
0100
0000
0000
,  // measure 124
0010
0000
1000
0000
0001
0000
0100
0000
0000
0010
0000
0000
1000
0000
0100
0000
0010
0000
0001
0000
0000
0010
0000
0000
,  // measure 125
0220
0330
0000
0000
0000
0000
0000
0000
0000
0000
0000
0000
0000
0000
0000
0000
0000
0000
0000
0000
0000
0000
0000
0000
0000
0000
0000
0000
0000
0000
0000
0000
0000
0000
0000
0000
0000
0000
0000
0000
0000
0000
0000
0000
0000
0000
0000
0000
;
