#TITLE:Turkish March (Classic vs. Jazz Mix);
#SUBTITLE:;
#ARTIST:Xenoscar;
#TITLETRANSLIT:;
#SUBTITLETRANSLIT:;
#ARTISTTRANSLIT:;
#GENRE:Classical Crossover;
#CREDIT:;
#BANNER:Turkish March Banner.png;
#BACKGROUND:Turkish March BG.png;
#LYRICSPATH:;
#CDTITLE:;
#MUSIC:Turkish March.mp3;
#OFFSET:-0.050000;
#SAMPLESTART:34.599998;
#SAMPLELENGTH:12.000000;
#SELECTABLE:YES;
#BPMS:0.000000=150.000000
,102.000000=200.001007
;
#STOPS:102.000000=1.795000
;
#BGCHANGES:4.000=Turkish March Coffee.png=1.000=1=0=0=StretchNoLoop==CrossFade==,
102.000=Turkish March Orange.png=1.000=1=0=0=StretchNoLoop==CrossFade==,
310.000=Turkish March BG.png=1.000=1=0=0=StretchNoLoop==CrossFade==,
99999=-nosongbg-=1.000=0=0=0 // don't automatically add -songbackground-
;
#KEYSOUNDS:;
#ATTACKS:;

//---------------dance-single - ----------------
#NOTES:
     dance-single:
     :
     Hard:
     9:
     0.680364,0.731133,0.389334,0.181086,0.434605,463.000000,43.000000,20.000000,0.000000,0.000000,0.000000,0.680364,0.731133,0.389334,0.181086,0.434605,463.000000,43.000000,20.000000,0.000000,0.000000,0.000000:
// measure 0
0000
0000
0000
0000
,  // measure 1
0000
0000
0000
0000
0000
0000
1000
0001
,  // measure 2
1000
0000
0001
1000
0001
0000
0001
0010
,  // measure 3
0001
0010
0100
1000
0002
0003
0001
1000
,  // measure 4
0100
1000
0001
1000
0100
1000
0001
1000
,  // measure 5
0100
1000
0001
0100
0110
0000
0010
1000
,  // measure 6
0001
0000
0100
0001
1000
0000
1000
0100
,  // measure 7
1000
0100
0010
0001
2000
3000
1000
0001
,  // measure 8
0100
0001
1000
0001
0100
0001
1000
0001
,  // measure 9
0100
0001
1000
0100
0110
0000
0010
0100
,  // measure 10
1000
1000
0001
1000
0010
0100
0010
0100
,  // measure 11
0001
0001
1000
0001
0020
0030
0100
0010
,  // measure 12
0001
0001
1000
0001
0100
0010
0100
0010
,  // measure 13
1000
1000
0001
1000
0200
0300
1000
0001
,  // measure 14
1000
1001
0001
1000
0001
0011
0001
0010
,  // measure 15
0001
0010
0100
1000
0002
1003
0001
1000
,  // measure 16
0100
0100
0010
0010
0001
0001
1000
0001
,  // measure 17
0020
0000
0000
0000
0230
0000
0000
1300
0001
0000
0000
0000
0010
0000
0001
0000
,  // measure 18
0011
0000
1000
0100
0010
0010
0100
1000
,  // measure 19
0010
1000
0100
0010
0001
0010
0100
1000
,  // measure 20
1010
0000
0001
0100
0010
0010
0100
0001
,  // measure 21
0010
0001
0100
0010
2002
3003
0001
1000
,  // measure 22
1100
0000
0001
0010
0100
0100
0010
0001
,  // measure 23
0100
0001
0010
0100
1000
0100
0010
0001
,  // measure 24
0101
0000
1000
0010
0100
0100
0010
1000
,  // measure 25
0100
1000
0010
0100
1001
0000
1001
0000
,  // measure 26
1000
0100
0010
1000
,  // measure 27
0001
0100
0010
0001
,  // measure 28
1000
0100
0010
0001
,  // measure 29
0010
0100
1000
0001
,  // measure 30
1000
1100
0010
0011
,  // measure 31
0100
0110
1000
1010
,  // measure 32
0100
0101
1000
1100
,  // measure 33
0001
0000
0000
0001
0000
0000
0010
0000
0010
0100
0000
0100
,  // measure 34
1000
0000
0000
0000
0000
0000
0010
0000
0010
0100
0000
0100
,  // measure 35
0001
0000
0000
0000
0000
0000
0100
0000
0100
0010
0000
0010
,  // measure 36
1000
0000
1000
0001
0000
0001
0010
0000
0010
0100
0000
0100
,  // measure 37
0010
0000
0010
0100
,  // measure 38
1000
0000
0000
1100
0000
1000
0100
0000
1000
0100
0000
0000
,  // measure 39
0010
0000
0000
0101
0000
0001
0100
0000
0001
0100
0000
0000
,  // measure 40
0010
0000
0000
1001
0000
1000
0001
0000
1000
0001
0000
0000
,  // measure 41
2002
0000
0000
3003
0000
0000
0100
0000
0100
0010
0000
0010
,  // measure 42
0001
0000
0000
0000
0000
0000
0100
0000
0100
0010
0000
0010
,  // measure 43
1000
0000
0000
0000
0000
0000
0010
0000
0010
0100
0000
0100
,  // measure 44
0001
0000
0001
1000
0000
1000
0100
0000
0100
0010
0000
0010
,  // measure 45
0100
0000
0100
0010
,  // measure 46
0001
0000
0000
0011
0000
0001
0010
0000
0001
0010
0000
0000
,  // measure 47
0100
0000
0000
1010
0000
1000
0010
0000
1000
0010
0000
0000
,  // measure 48
0100
0000
0000
1001
0000
0001
1000
0000
0001
1000
0000
0000
,  // measure 49
2002
3003
1000
0001
,  // measure 50
1000
0000
0010
1000
0000
0001
1000
0000
0001
1000
0000
1000
,  // measure 51
0100
0000
0100
0010
0000
0010
0001
0000
0001
1000
0000
1000
,  // measure 52
0001
0000
0010
0001
0000
1000
0001
0000
1000
0001
0000
0001
,  // measure 53
0100
0000
0100
0010
0000
0010
1000
0000
1000
0001
0000
0001
,  // measure 54
1000
0000
0100
1000
0000
0001
1000
0000
0001
1000
0000
1000
,  // measure 55
0010
0000
0010
0100
0000
0100
0001
0000
0001
0010
0000
0010
,  // measure 56
0100
1100
0010
0011
,  // measure 57
0110
1001
0001
1000
,  // measure 58
0100
0000
0000
0100
0000
0100
1000
0000
0000
1100
0000
0000
,  // measure 59
1000
0000
0000
0010
0000
0100
0001
0000
0100
0001
0000
0100
,  // measure 60
0001
0000
0000
1001
0000
0001
1000
0000
0001
1000
0000
0000
,  // measure 61
1000
0000
0000
1100
0000
1000
0100
0000
0000
0010
0000
0000
,  // measure 62
0001
0000
0000
0100
0000
0100
0001
0000
0000
0101
0000
0000
,  // measure 63
0001
0000
0000
0010
0000
0100
1000
0000
0100
1000
0000
0100
,  // measure 64
1000
0000
0000
1001
0000
1000
0001
0000
1000
0001
0000
0000
,  // measure 65
0001
0000
0000
0101
0000
0001
0100
0000
0000
0110
0000
0000
,  // measure 66
0001
0000
0000
0010
0000
0010
0001
0000
0000
0011
0000
0000
,  // measure 67
0001
0000
0000
0100
0000
0010
1000
0000
0010
1000
0000
0010
,  // measure 68
1000
0000
0000
1001
0000
1000
0001
0000
1000
0001
0000
0000
,  // measure 69
0001
0000
0000
0011
0000
0001
0010
0000
0000
0100
0000
0000
,  // measure 70
1000
0000
0000
0010
0000
0010
1000
0000
0000
1010
0000
0000
,  // measure 71
1000
0000
0000
0100
0000
0010
0001
0000
0010
0001
0000
0010
,  // measure 72
0001
0000
0000
1001
0000
0001
1000
0000
0001
1000
0000
0000
,  // measure 73
1000
0000
0000
1010
0000
1000
0002
0000
0000
2000
3003
0000
,  // measure 74
0001
0000
0001
0010
0000
0000
0100
0000
0100
1000
0000
0000
,  // measure 75
0001
0000
0000
2001
0000
0002
3003
0000
0010
0100
0000
2000
,  // measure 76
0002
0000
0000
0000
,  // measure 77
0000
0000
0000
0000
,  // measure 78
0000
0000
0000
0003
0000
0001
0000
0001
0000
0000
0001
0000
,  // measure 79
0000
0001
0000
0000
0000
0001
0000
0000
0000
0001
0000
0000
,  // measure 80
0000
0000
0000
0000
0000
0000
0000
0000
0002
3003
0000
0000
;

//---------------dance-single - ----------------
#NOTES:
     dance-single:
     :
     Medium:
     5:
     0.452714,0.548350,0.380280,0.181086,0.004527,288.000000,42.000000,20.000000,0.000000,0.000000,0.000000,0.452714,0.548350,0.380280,0.181086,0.004527,288.000000,42.000000,20.000000,0.000000,0.000000,0.000000:
0000
0000
0000
0000
,
0000
0000
0000
1000
,
1000
0001
0001
0001
,
0001
0000
0100
0000
0002
0003
0001
0000
,
0100
0001
0100
0001
,
0100
0001
0110
0010
,
0001
0100
1000
1000
,
1000
0000
0010
0000
2000
3000
1000
0000
,
0100
1000
0100
1000
,
0100
1000
0110
0010
,
1000
0001
0010
0010
,
0001
0000
1000
0000
0020
0030
0100
0000
,
0001
1000
0100
0100
,
1000
0000
0001
0000
0200
0300
1000
0000
,
1000
0001
0001
0001
,
0001
0000
0100
0000
0002
0003
1001
0000
,
0100
0010
0001
1000
,
0020
0000
0000
0000
0230
0000
0000
0300
0001
0000
0000
0000
0010
0000
0000
0000
,
0011
1000
0010
0100
,
0010
0100
0001
0100
,
1010
0001
0010
0100
,
0010
0000
0100
0000
2002
3003
0001
0000
,
1100
0001
0100
0010
,
0100
0010
1000
0010
,
0101
1000
0100
0010
,
0100
0010
1001
0000
,
1000
0100
0010
1000
,
0001
0100
0010
0001
,
1000
0100
0010
0001
,
0010
0100
1000
0001
,
1000
1100
0010
0011
,
0100
0110
1000
1010
,
0100
0101
1000
1100
,
0001
0001
0010
0100
,
1000
0000
0010
0100
,
0001
0000
0100
0010
,
1000
0001
0010
0100
,
0010
0000
0010
0100
,
1000
1100
0100
0100
,
0010
0101
0100
0100
,
0010
1001
0001
0001
,
2002
3003
0100
0010
,
0001
0000
0100
0010
,
1000
0000
0010
0100
,
0001
1000
0100
0010
,
0100
0000
0100
0010
,
0001
0011
0010
0010
,
0100
1010
0010
0010
,
0100
1001
1000
1000
,
2002
3003
1000
0001
,
1000
1000
1000
1000
,
0100
0010
0001
1000
,
0001
0001
0001
0001
,
0100
0010
1000
0001
,
1000
1000
1000
1000
,
0010
0100
0001
0010
,
0100
1100
0010
0011
,
0110
1001
0001
1000
,
0100
0100
1000
1100
,
1000
0010
0001
0001
,
0001
1001
1000
1000
,
1000
1100
0100
0010
,
0001
0100
0001
0101
,
0001
0010
1000
1000
,
1000
1001
0001
0001
,
0001
0101
0100
0110
,
0001
0010
0001
0011
,
0001
0100
1000
1000
,
1000
1001
0001
0001
,
0001
0011
0010
0100
,
1000
0010
1000
1010
,
1000
0100
0001
0001
,
0001
1001
1000
1000
,
1000
0000
0000
1010
0000
0000
0002
0000
0000
2000
3003
0000
,
0001
0010
0100
1000
,
0001
2002
3003
2002
,
0000
0000
0000
0000
,
0000
0000
0000
0000
,
0000
0000
0000
0000
,
0000
0000
0000
0003
,
0000
0000
0000
0000
0000
0000
0000
0000
0002
3003
0000
0000
;

//---------------dance-single - ----------------
#NOTES:
     dance-single:
     :
     Easy:
     3:
     0.213422,0.292453,0.063380,0.081489,0.000000,149.000000,7.000000,9.000000,0.000000,0.000000,0.000000,0.213422,0.292453,0.063380,0.081489,0.000000,149.000000,7.000000,9.000000,0.000000,0.000000,0.000000:
0000
0000
0000
0000
,
0000
0000
0000
1000
,
0000
0001
0000
0001
,
0000
0100
0000
0001
,
0000
0001
0000
0001
,
0000
0001
0000
0010
,
0000
0100
0000
1000
,
0000
0010
0000
1000
,
0000
1000
0000
1000
,
0000
1000
0000
0010
,
0000
0001
0000
0010
,
0000
1000
0000
0100
,
0000
1000
0000
0100
,
0000
0001
0000
1000
,
0000
0001
0000
0001
,
0000
0100
0000
1001
,
0000
0010
0000
1000
,
0000
0000
0000
0000
0200
0000
0000
0300
0000
0000
0000
0000
0010
0000
0000
0000
,
0000
1000
0000
0100
,
0000
0100
0000
0100
,
0000
0001
0000
0100
,
0000
0100
0000
0001
,
0000
0001
0000
0010
,
0000
0010
0000
0010
,
0000
1000
0000
0010
,
0000
0010
1001
0000
,
1000
0000
0010
0000
,
0001
0000
0010
0000
,
1000
0000
0010
0000
,
0010
0000
1000
0000
,
1000
0000
0010
0000
,
0100
0000
1000
0000
,
0100
0000
1000
0000
,
0001
0000
0010
0000
,
1000
0000
0010
0000
,
0001
0000
0100
0000
,
1000
0000
0010
0000
,
0010
0000
0010
0000
,
1000
0000
0100
0000
,
0010
0000
0100
0000
,
0010
0000
0001
0000
,
2002
3003
0100
0000
,
0001
0000
0100
0000
,
1000
0000
0010
0000
,
0001
0000
0100
0000
,
0100
0000
0100
0000
,
0001
0000
0010
0000
,
0100
0000
0010
0000
,
0100
0000
1000
0000
,
2002
3003
1000
0000
,
1000
0000
1000
0000
,
0100
0000
0001
0000
,
0001
0000
0001
0000
,
0100
0000
1000
0000
,
1000
0000
1000
0000
,
0010
0000
0001
0000
,
0100
0000
0010
0000
,
0110
0000
0001
0000
,
0100
0000
1000
0000
,
1000
0000
0001
0000
,
0001
0000
1000
0000
,
1000
0000
0100
0000
,
0001
0000
0001
0000
,
0001
0000
1000
0000
,
1000
0000
0001
0000
,
0001
0000
0100
0000
,
0001
0000
0001
0000
,
0001
0000
1000
0000
,
1000
0000
0001
0000
,
0001
0000
0010
0000
,
1000
0000
1000
0000
,
1000
0000
0001
0000
,
0001
0000
1000
0000
,
1000
0000
2002
3003
,
0001
0000
0100
0000
,
0001
0000
0000
2002
,
0000
0000
0000
0000
,
0000
0000
0000
0000
,
0000
0000
0000
0000
,
0000
0000
0000
0000
,
0000
0000
0000
3003
;
