#TITLE:Summer;
#SUBTITLE:;
#ARTIST:☺;
#TITLETRANSLIT:;
#SUBTITLETRANSLIT:;
#ARTISTTRANSLIT:;
#GENRE:;
#CREDIT:Lisek;
#BANNER:bn.png;
#BACKGROUND:bg.png;
#LYRICSPATH:;
#CDTITLE:;
#MUSIC:Summer.ogg;
#OFFSET:-0.055000;
#SAMPLESTART:43.560001;
#SAMPLELENGTH:12.120000;
#SELECTABLE:YES;
#BPMS:0.000000=160.000000
;
#STOPS:
;
#BGCHANGES:;
#KEYSOUNDS:;
#ATTACKS:;

//---------------dance-single - Lisek----------------
#NOTES:
     dance-single:
     Lisek:
     Medium:
     7:
     0.443664,0.455619,0.204564,0.000000,0.111580,312.000000,22.000000,0.000000,0.000000,0.000000,0.000000,0.443664,0.455619,0.204564,0.000000,0.111580,312.000000,22.000000,0.000000,0.000000,0.000000,0.000000:
// measure 0
0000
0000
0000
0000
,  // measure 1
0000
0000
0000
0000
,  // measure 2
0000
0000
0000
0000
,  // measure 3
0000
0000
0000
0000
,  // measure 4
0001
0100
0010
0000
1000
0000
0010
0000
,  // measure 5
0100
0010
1000
0000
0100
0000
0010
0000
,  // measure 6
1000
0010
0001
0000
0100
0000
0001
0000
,  // measure 7
1000
0001
0110
1001
,  // measure 8
0001
0100
0010
0000
1000
0000
0010
0000
,  // measure 9
1000
0100
0010
0000
0001
0000
1000
0000
,  // measure 10
0001
0010
0100
0000
1000
0000
0001
0000
,  // measure 11
1000
0100
1000
0000
0100
0000
0000
0000
,  // measure 12
1000
0001
0100
0000
0001
0000
0010
0000
,  // measure 13
0100
1000
0001
0000
0100
0000
0010
0000
,  // measure 14
1000
0100
1000
0000
0001
0000
0100
0000
,  // measure 15
0010
1000
0100
0000
0010
0000
0100
0000
,  // measure 16
1000
0000
0000
0010
0000
0000
0100
0000
0000
0000
0000
0000
0100
0000
0000
0000
,  // measure 17
0001
0000
0000
0100
0000
0000
0010
0000
0000
0000
0000
0000
1000
0000
0100
0000
,  // measure 18
1000
0000
0000
0100
0000
0000
1000
0000
0000
0000
0000
0000
0000
0000
0010
0000
,  // measure 19
0100
0001
0100
1000
0100
0000
0000
0000
,  // measure 20
0001
0000
1000
0000
0001
0000
1000
0001
,  // measure 21
1001
0000
1000
0000
0010
0000
1000
0010
,  // measure 22
1010
0000
0100
0000
0001
0000
0100
0001
,  // measure 23
0101
0000
0000
0001
0000
0000
0100
0000
0000
0000
0010
0000
1000
0000
0000
0000
,  // measure 24
0001
0000
0000
1000
0001
0000
0000
0000
0001
0000
0000
0100
0010
0000
0000
0000
,  // measure 25
0010
0000
0000
0010
1000
0000
0000
0000
1000
0000
0000
1000
0001
0000
0000
0000
,  // measure 26
0001
0000
0000
1000
0001
0000
0000
0000
0001
0000
0000
0100
0010
0000
0000
0000
,  // measure 27
1000
0000
0000
1000
0001
0000
0000
0000
1000
0000
0000
0000
0001
0000
0000
0000
,  // measure 28
1000
0100
0010
0001
1000
0001
1000
0000
,  // measure 29
0010
0000
0000
0000
0100
0000
0000
0001
0000
0000
1000
0000
0010
0000
0000
0000
,  // measure 30
0100
0000
0000
0000
0001
0000
0000
0001
0000
0000
0100
0000
0010
0000
0000
0000
,  // measure 31
1000
0000
0000
0000
0100
0000
0000
1000
0000
0000
0010
0000
0100
0000
0000
0000
,  // measure 32
0010
0000
0000
0000
1000
0000
0000
0010
0000
0000
0100
0000
0010
0000
0000
0000
,  // measure 33
1000
0000
0000
0000
1000
0000
0000
0100
0000
0000
0000
0000
0100
0000
0000
0000
,  // measure 34
0010
0000
0000
0000
0100
0000
0000
1000
0000
0000
0000
0000
1000
0000
0000
0000
,  // measure 35
0001
0000
0000
0000
0001
0000
0000
1000
0000
0000
0001
0000
0001
0000
0000
0000
,  // measure 36
0001
0001
1010
0110
,  // measure 37
1001
0001
0100
0001
,  // measure 38
1000
0010
0000
0010
0100
0000
0001
0000
,  // measure 39
1000
0100
0010
0001
,  // measure 40
1000
0100
0000
0100
1000
0000
0000
0000
,  // measure 41
1000
0100
1000
0010
,  // measure 42
1000
0100
0000
0010
0100
0000
1000
0000
,  // measure 43
0001
0100
0010
1000
,  // measure 44
1000
0100
0000
1000
0001
0000
0000
0000
,  // measure 45
0100
0000
0000
0010
0000
0000
1000
0000
0000
0000
0000
0000
0000
0000
0000
0000
,  // measure 46
0001
0000
0100
0000
,  // measure 47
0001
0000
0000
0100
0000
0000
0010
0000
0000
1000
0000
0000
0000
0000
0001
0000
,  // measure 48
0100
0010
1000
0000
,  // measure 49
0001
0000
0000
1000
0000
0000
0001
0000
0000
0000
0000
0000
0001
0000
0000
0000
,  // measure 50
1000
0000
0000
0010
0000
0000
1000
0000
0000
0000
0000
0000
1000
0000
0010
0000
,  // measure 51
0010
0000
0000
0100
0000
0000
0010
0000
0000
0000
0000
0000
0000
0000
0010
0000
,  // measure 52
0100
1000
0100
0001
0100
0000
0000
0000
,  // measure 53
0001
0000
0100
0000
0010
0000
1000
0001
,  // measure 54
1001
0000
1000
0000
0010
0000
1000
0010
,  // measure 55
1010
0000
1000
0000
0100
0000
1000
0001
,  // measure 56
1001
0100
0010
0100
,  // measure 57
0010
1000
0010
0100
0010
1000
0010
0000
,  // measure 58
1000
0100
0010
0001
1000
0001
1000
0000
,  // measure 59
0001
0010
0100
1000
0100
0010
0001
0000
,  // measure 60
0001
1000
0001
0100
,  // measure 61
0010
1000
0010
0100
0001
0100
0010
0000
,  // measure 62
1001
1000
0001
1000
,  // measure 63
1010
1000
0010
1000
,  // measure 64
1100
1000
0100
1000
,  // measure 65
1001
0001
1000
0001
,  // measure 66
0101
0001
0100
0001
,  // measure 67
0011
0001
0010
0001
,  // measure 68
1001
1000
0010
1000
,  // measure 69
1001
0001
0101
0110
,  // measure 70
1010
0000
0000
0000
;

//---------------dance-single - Lisek----------------
#NOTES:
     dance-single:
     Lisek:
     Beginner:
     1:
     0.123535,0.130177,0.009298,0.167370,0.000000,74.000000,1.000000,18.000000,0.000000,0.000000,0.000000,0.123535,0.130177,0.009298,0.167370,0.000000,74.000000,1.000000,18.000000,0.000000,0.000000,0.000000:
// measure 0
0000
0000
0000
0000
,  // measure 1
0000
0000
0000
0000
,  // measure 2
0000
0000
0000
0000
,  // measure 3
0000
0000
0000
0000
,  // measure 4
1000
0000
0000
0000
,  // measure 5
0001
0000
0000
0000
,  // measure 6
1000
0000
0000
0000
,  // measure 7
0002
0000
0000
0000
,  // measure 8
1003
0000
0000
0000
,  // measure 9
0010
0000
0000
0000
,  // measure 10
0100
0000
0000
0000
,  // measure 11
0001
0000
0000
0000
,  // measure 12
1000
0000
0000
0000
,  // measure 13
0100
0000
0000
0000
,  // measure 14
0010
0000
0000
0000
,  // measure 15
0001
0000
0000
0000
,  // measure 16
2000
0000
0000
3000
,  // measure 17
0020
0000
0000
0030
,  // measure 18
0200
0000
0000
0300
,  // measure 19
0002
0000
0000
0003
,  // measure 20
1000
0000
0000
0000
,  // measure 21
1000
0000
0000
0000
,  // measure 22
0001
0000
0000
0000
,  // measure 23
0001
0000
0000
0000
,  // measure 24
1000
0000
0000
0000
,  // measure 25
1000
0000
0000
0000
,  // measure 26
0010
0000
0000
0000
,  // measure 27
0010
0000
0000
0000
,  // measure 28
2000
0000
0000
3000
,  // measure 29
0001
0000
0000
0000
,  // measure 30
1000
0000
0000
0000
,  // measure 31
0001
0000
0000
0000
,  // measure 32
0100
0000
0000
0000
,  // measure 33
0010
0000
0000
0000
,  // measure 34
1000
0000
0000
0000
,  // measure 35
0001
0000
0000
0000
,  // measure 36
0100
0000
0000
0000
,  // measure 37
0001
0000
0000
0000
,  // measure 38
0100
0000
0000
0000
,  // measure 39
0010
0000
0000
0000
,  // measure 40
0100
0000
0000
0000
,  // measure 41
0001
0000
0000
0000
,  // measure 42
0010
0000
0000
0000
,  // measure 43
0100
0000
0000
0000
,  // measure 44
0010
0000
0000
0000
,  // measure 45
0002
0000
0003
0000
,  // measure 46
0000
0000
0000
0000
,  // measure 47
2000
0000
3000
0000
,  // measure 48
0002
0000
0000
0003
,  // measure 49
1000
0000
0000
0000
,  // measure 50
0100
0000
0000
0000
,  // measure 51
0010
0000
0000
0000
,  // measure 52
0100
0000
0000
0000
,  // measure 53
0020
0000
0000
0030
,  // measure 54
0002
0000
0000
0003
,  // measure 55
0020
0000
0000
0030
,  // measure 56
0200
0000
0000
0300
,  // measure 57
2000
0000
0000
3000
,  // measure 58
0020
0000
0000
0030
,  // measure 59
0200
0000
0000
0300
,  // measure 60
0002
0000
0000
0003
,  // measure 61
2000
0000
0000
0000
,  // measure 62
3001
0000
1000
0000
,  // measure 63
0001
0000
1000
0000
,  // measure 64
0001
0000
0100
0000
,  // measure 65
0001
0000
0100
0000
,  // measure 66
0001
0000
1000
0000
,  // measure 67
0001
0000
1000
0000
,  // measure 68
0001
0000
0100
0000
,  // measure 69
0001
0000
1000
0000
,  // measure 70
1001
0000
0000
0000
;

//---------------dance-single - Lisek----------------
#NOTES:
     dance-single:
     Lisek:
     Hard:
     9:
     0.630959,0.650884,0.232459,0.000000,0.316144,450.000000,25.000000,0.000000,0.000000,0.000000,0.000000,0.630959,0.650884,0.232459,0.000000,0.316144,450.000000,25.000000,0.000000,0.000000,0.000000,0.000000:
// measure 0
0000
0000
0000
0000
,  // measure 1
0000
0000
0000
0000
,  // measure 2
0000
0000
0000
0000
,  // measure 3
0000
0000
0000
0000
,  // measure 4
1000
0100
1000
0100
0010
0001
0010
0001
,  // measure 5
1000
0001
1000
0001
0100
0001
0100
0001
,  // measure 6
1000
0010
1000
0010
0100
0010
0100
0010
,  // measure 7
1000
0100
0010
0001
1001
0000
0110
0000
,  // measure 8
1001
0001
0100
0010
1000
0000
1001
0000
,  // measure 9
1000
0100
0010
0001
1000
0000
1001
0000
,  // measure 10
0001
0100
0010
1000
0010
1000
0001
0100
,  // measure 11
0010
1000
0010
1000
0001
0000
1000
0000
,  // measure 12
0001
0000
0100
0000
0010
0000
0100
0000
0001
0000
1000
0010
1000
0000
0001
0000
,  // measure 13
1000
0000
0010
0000
0100
0000
0010
0000
1000
0000
0010
0100
0001
0000
1000
0000
,  // measure 14
0001
0000
1000
0000
0010
0000
0100
0000
0001
0000
1000
0010
0100
0000
0001
0000
,  // measure 15
1000
0000
0001
0000
0100
0000
0010
0000
1000
0000
0001
1000
0001
0000
0000
0000
,  // measure 16
1010
0000
0000
0010
0000
0000
0100
0000
0000
0000
0000
0000
0101
0000
0000
0000
,  // measure 17
1001
0000
0000
0001
0000
0000
1000
0000
0000
0000
0000
0000
1010
0000
0010
0000
,  // measure 18
1000
0000
0000
0010
0000
0000
1000
0000
0000
0000
0000
0000
0000
0000
0001
0000
,  // measure 19
0010
0100
0010
0001
1000
0000
0000
0000
,  // measure 20
1000
0000
0010
1000
0010
0000
1000
0010
0000
0010
0100
0001
0100
0001
1000
0000
,  // measure 21
0001
0000
0001
0100
0010
0000
1000
0000
0000
0010
0000
0000
0100
0000
0001
0000
,  // measure 22
1000
0000
0010
0100
0001
0000
1000
0010
0000
0010
0100
0001
0100
0010
1000
0000
,  // measure 23
0001
0000
0000
0100
0000
0000
0010
0000
0000
0000
1000
0000
1000
0000
0000
0000
,  // measure 24
0001
0000
0000
0100
0010
0000
0000
0000
1000
0000
0000
0010
0100
0000
0000
0000
,  // measure 25
0001
0000
0000
0100
0010
0000
0000
0000
1000
0000
0000
0010
0100
0000
0000
0000
,  // measure 26
0001
0000
0000
0100
0010
0000
0000
0000
1000
0000
0000
0010
0100
0000
0000
0000
,  // measure 27
0001
0000
0000
1000
0000
0000
0001
0000
0000
0000
0100
0000
0010
0000
0000
0000
,  // measure 28
1000
0100
0010
0100
1000
0001
1000
0000
,  // measure 29
0001
0000
0010
0000
0100
0000
0010
0000
0001
0000
0100
0001
0100
0000
0001
0000
,  // measure 30
0100
0000
0010
0000
1000
0000
0100
0000
0010
0000
0100
1000
0001
0000
0100
0000
,  // measure 31
0001
0000
0100
0000
0010
0000
1000
0000
0010
0000
0100
0001
0100
0000
0001
0000
,  // measure 32
1000
0010
0100
0001
1000
0000
0001
0000
,  // measure 33
1000
0000
0100
0000
1000
0000
0010
0000
0100
0000
0001
1000
0010
0000
0100
0000
,  // measure 34
0001
0000
1000
0000
0010
0000
0100
0000
0010
0000
1000
0010
0100
0000
0001
0000
,  // measure 35
0100
0000
0010
0000
1000
0000
0100
0000
0010
0000
0001
1000
0001
0000
0100
0000
,  // measure 36
0010
1000
0001
1000
1001
0000
0110
0000
,  // measure 37
1001
0000
0000
1000
0001
0000
0000
0001
0100
0000
0000
0100
0010
0000
1000
0000
,  // measure 38
0001
0000
0100
0000
0010
0000
1000
0001
0100
0000
0000
0000
1001
0000
0000
0000
,  // measure 39
0001
0000
0000
1000
0010
0000
0000
0100
0010
0000
0000
1000
0010
0000
1000
0000
,  // measure 40
0001
0000
0100
0000
0010
0000
1000
0001
1000
0000
0000
0000
0010
0000
0000
0000
,  // measure 41
1000
0000
0000
0001
0100
0000
0000
0001
0010
0000
0000
0001
1000
0000
0001
0000
,  // measure 42
0100
0000
0010
0000
1000
0000
0001
1000
0010
0000
0000
0000
1001
0000
0000
0000
,  // measure 43
1000
0000
0000
0001
0010
0000
0000
0010
0100
0000
0000
0100
1000
0000
0001
0000
,  // measure 44
0100
0000
0010
0000
1000
0000
0100
0010
0001
0000
0000
0000
1000
0000
0000
0000
,  // measure 45
0001
0000
0000
0100
0000
0000
0010
0000
0000
0000
0000
0000
0000
0000
0000
0000
,  // measure 46
0000
0000
0000
0000
,  // measure 47
0001
0000
0000
1000
0000
0000
0010
0000
0000
0100
0000
0000
0000
0000
0000
0000
,  // measure 48
1001
0000
0110
0000
1001
0001
0000
0000
,  // measure 49
1000
0100
0010
0100
0000
0000
1000
0000
,  // measure 50
1000
0010
0001
0010
0000
0000
1000
1000
,  // measure 51
0001
0010
0100
0010
0000
0000
0000
0001
,  // measure 52
0100
0010
1000
0001
1000
0000
0000
0000
,  // measure 53
0001
0100
0001
0000
0100
0001
0000
0001
0100
0000
0001
0000
1000
0000
0001
0000
,  // measure 54
1000
0010
1000
0000
0010
0100
0000
0100
0010
0000
1000
0000
0001
0000
0100
0000
,  // measure 55
0001
0100
0001
0000
0100
0010
0000
0010
1000
0000
1000
0000
0100
0000
0010
0000
,  // measure 56
0001
0100
0001
0000
0100
0010
0000
0010
1000
0000
0001
0000
1000
0100
0010
0100
,  // measure 57
1000
0000
0001
0000
0100
0000
0010
0010
,  // measure 58
0010
0000
1000
0000
0100
0000
0010
0010
,  // measure 59
0010
0001
0100
0010
,  // measure 60
1001
1010
0110
0101
,  // measure 61
1000
0000
0010
0100
0010
0000
1000
0000
0001
0100
0001
0000
0001
0000
0010
0000
,  // measure 62
0001
1000
0001
1000
0001
0100
0001
0100
,  // measure 63
0001
0010
0001
0010
0001
0100
0010
1000
,  // measure 64
0100
0010
0100
0010
0100
0001
0100
0001
,  // measure 65
0100
0010
0100
0010
0001
0000
0000
0000
,  // measure 66
1001
1000
0010
0100
,  // measure 67
0001
0010
0001
0100
,  // measure 68
0010
1000
0100
0010
,  // measure 69
0001
1000
1100
1010
,  // measure 70
1001
0000
0000
0000
;

//---------------dance-single - Lisek----------------
#NOTES:
     dance-single:
     Lisek:
     Easy:
     4:
     0.341382,0.423075,0.120879,0.232459,0.000000,219.000000,13.000000,25.000000,0.000000,0.000000,0.000000,0.341382,0.423075,0.120879,0.232459,0.000000,219.000000,13.000000,25.000000,0.000000,0.000000,0.000000:
// measure 0
0000
0000
0000
0000
,  // measure 1
0000
0000
0000
0000
,  // measure 2
0000
0000
0000
0000
,  // measure 3
0000
0000
0000
0000
,  // measure 4
1000
0001
2000
0000
,  // measure 5
3010
0100
0002
0000
,  // measure 6
1003
0100
0020
0000
,  // measure 7
0031
1000
1001
1001
,  // measure 8
1000
0010
1000
0010
,  // measure 9
0100
0001
0100
0001
,  // measure 10
1000
0010
1000
0010
,  // measure 11
1000
0001
1000
0000
,  // measure 12
1000
0100
2000
0000
,  // measure 13
3001
0100
0002
0000
,  // measure 14
1003
0010
0200
0000
,  // measure 15
0301
0100
0020
0000
,  // measure 16
1030
0001
1000
0001
,  // measure 17
1000
0010
1000
0010
,  // measure 18
0100
0000
0010
0000
1000
0000
0000
1000
,  // measure 19
0001
1000
0001
1000
0001
0000
0000
0000
,  // measure 20
1000
0100
0010
0001
,  // measure 21
1000
0001
0100
0010
,  // measure 22
1000
0100
0010
0001
,  // measure 23
1000
0010
0100
0010
,  // measure 24
1000
1001
0000
1001
,  // measure 25
0000
0101
0000
0110
,  // measure 26
0000
0101
0000
0110
,  // measure 27
0000
1001
0000
1001
,  // measure 28
1000
0000
0001
0000
1000
0001
1000
0000
,  // measure 29
0001
0001
0100
0100
,  // measure 30
0010
0010
1000
1000
,  // measure 31
0100
0010
0001
0010
,  // measure 32
0100
1000
0001
0000
,  // measure 33
1000
1000
0010
0010
,  // measure 34
0100
0100
0010
0010
,  // measure 35
1000
0100
0010
0001
,  // measure 36
0010
0100
1000
0001
,  // measure 37
1001
0001
0100
0010
,  // measure 38
0200
0000
0302
0000
,  // measure 39
1003
0010
0100
0010
,  // measure 40
2000
0000
3001
0000
,  // measure 41
1000
0010
0100
0001
,  // measure 42
2000
0000
3020
0000
,  // measure 43
0130
0001
0100
0010
,  // measure 44
2000
0000
3001
0000
,  // measure 45
1000
0000
0000
0001
0000
0000
0000
0000
,  // measure 46
0000
0000
0000
0000
,  // measure 47
0001
0000
0000
1000
0000
0000
0000
0000
,  // measure 48
0001
0100
0001
0000
,  // measure 49
1000
0010
1000
0000
,  // measure 50
0001
0100
0001
0100
,  // measure 51
0010
0000
1000
0000
0001
0000
0000
1000
,  // measure 52
0001
1000
0001
1000
0001
0000
0000
0000
,  // measure 53
0002
0000
0000
0000
0000
0000
0000
1003
,  // measure 54
2000
0000
0000
0000
0000
0000
0000
3010
,  // measure 55
0020
0000
0000
0000
0000
0000
0000
0130
,  // measure 56
0200
0000
0000
0000
0000
0000
0000
0301
,  // measure 57
0002
0000
0000
0000
0000
0000
0000
1003
,  // measure 58
2000
0000
0000
0000
0000
0000
0000
3000
,  // measure 59
0002
0000
2003
0000
,  // measure 60
3002
0023
0230
2300
,  // measure 61
3001
0000
1000
0000
0001
1000
0001
0000
,  // measure 62
1000
0001
1000
0001
,  // measure 63
1000
0010
1000
0010
,  // measure 64
0100
0001
0100
0001
,  // measure 65
0100
0001
1000
0000
,  // measure 66
0110
0100
0100
0100
,  // measure 67
0010
0010
0010
0010
,  // measure 68
0100
0100
0100
0100
,  // measure 69
0010
0010
0100
0010
,  // measure 70
0110
0000
0000
0000
;

//---------------dance-single - Lisek----------------
#NOTES:
     dance-single:
     Lisek:
     Challenge:
     12:
     0.897955,1.000000,0.316144,0.102282,0.901940,631.000000,34.000000,11.000000,0.000000,0.000000,0.000000,0.897955,1.000000,0.316144,0.102282,0.901940,631.000000,34.000000,11.000000,0.000000,0.000000,0.000000:
// measure 0
0000
0000
0000
0000
,  // measure 1
0000
0000
0000
0000
,  // measure 2
0000
0000
0000
0000
,  // measure 3
0000
0000
0000
0000
,  // measure 4
1000
0100
0010
0100
1000
0010
0001
0010
,  // measure 5
1000
0001
1000
0001
0100
0010
0100
0010
,  // measure 6
1000
0100
0010
0001
1000
0001
0010
0100
,  // measure 7
1000
0001
0110
1001
,  // measure 8
1000
0100
1000
0100
1000
0010
1000
0010
1000
0100
0010
0001
1000
0000
0000
0000
,  // measure 9
0001
0100
0001
0100
0001
0010
0001
0010
0001
0010
0100
1000
0001
0000
0000
0000
,  // measure 10
1000
0001
1000
0001
1000
0010
1000
0010
1000
0100
1000
0100
1000
0010
1000
0010
,  // measure 11
1000
0100
0010
0001
1000
0001
0010
0100
1000
0001
1000
0001
1000
0000
0000
0000
,  // measure 12
0001
0100
0010
1000
0001
0100
0010
1000
0001
0000
0100
0000
0001
0000
0100
0000
,  // measure 13
0010
1000
0010
1000
0010
0100
0010
0100
0010
0000
1000
0000
0001
0000
0100
0000
,  // measure 14
0010
1000
0010
1000
0100
0010
0001
1000
0001
0000
0100
0000
0010
0000
1000
0000
,  // measure 15
0001
1000
0001
1000
0001
0100
0001
0100
0001
0000
0010
0000
0100
0000
1000
0000
,  // measure 16
0011
0000
0000
0101
0000
0000
1001
0000
0000
0000
0000
0000
1100
0000
0000
0000
,  // measure 17
1010
0000
0000
0110
0000
0000
0101
0000
0000
0000
0000
0000
1001
0000
1100
0000
,  // measure 18
1010
0000
0000
0101
0000
0000
1001
0000
0000
0000
0000
0000
0000
0000
0011
0000
,  // measure 19
0101
0110
1010
1100
0110
0000
0000
0000
,  // measure 20
1000
0010
0000
0010
1000
0000
1000
0100
0010
0100
1000
0000
0001
0000
0100
0000
,  // measure 21
0010
1000
0000
1000
0010
0000
0010
0100
0001
0100
0010
0000
1000
0000
0001
0000
,  // measure 22
1000
0001
0000
0001
1000
0000
0001
0100
0010
1000
0100
0000
0010
0000
0001
0000
,  // measure 23
0010
0100
1000
0000
0100
0000
0010
0000
0001
0000
0000
0000
1001
0000
0000
0000
,  // measure 24
1000
0100
1000
0000
0010
0000
0100
0000
0001
0010
0001
0000
0100
0000
0010
0000
,  // measure 25
1000
0100
1000
0000
0001
0000
1000
0000
0001
1000
0001
0000
0100
0000
0010
0000
,  // measure 26
1000
0100
1000
0000
0010
0000
0100
0000
0001
0010
0001
0000
1000
0001
1000
0000
,  // measure 27
0001
0000
0000
0100
0000
0000
0010
0000
0000
0000
1000
0000
1000
0000
0000
0000
,  // measure 28
1100
1010
1100
1010
1100
1010
1001
0000
,  // measure 29
0001
0100
0001
0100
0001
0010
0001
0010
0001
0100
0001
0100
0001
0010
0001
0010
,  // measure 30
0001
0100
0010
1000
0100
0010
0001
1000
0001
0100
0001
0100
0001
0010
0001
0010
,  // measure 31
0001
1000
0001
1000
0001
0100
0001
0100
0001
1000
0001
1000
0001
0010
0001
0010
,  // measure 32
0001
0010
0100
1000
0001
0010
0100
1000
0001
0000
0100
0000
0001
0000
0010
0000
,  // measure 33
0001
1000
0001
1000
0010
0100
0010
0100
0010
1000
0010
1000
0010
0100
0010
0100
,  // measure 34
0010
1000
0100
0010
0001
1000
0100
0010
0001
1000
0001
0100
0010
1000
0001
0100
,  // measure 35
0010
1000
0010
1000
0001
0100
0001
0100
0010
1000
0010
1000
0001
0100
0001
0100
,  // measure 36
0010
1000
0100
0010
0001
1000
0100
0000
1001
0000
0001
0000
0011
0000
0001
0000
,  // measure 37
1000
0100
0010
0001
1000
0100
0010
0001
1000
0100
1000
0100
0010
0001
0010
0001
,  // measure 38
1000
0100
0010
0001
1000
0000
0001
0100
0010
0000
1000
0000
1001
0000
1000
0000
,  // measure 39
0001
0010
0100
1000
0001
0010
0100
1000
0001
0010
0001
0010
0100
1000
0100
1000
,  // measure 40
0001
0010
0100
1000
0001
0000
1000
0001
1000
0000
0001
0000
1000
0000
0000
0000
,  // measure 41
0001
0010
0001
0010
0100
1000
0100
1000
0001
0010
0100
1000
0001
0100
0010
1000
,  // measure 42
0001
0010
0001
0010
0100
1000
0100
1000
0001
0010
0100
1000
0001
0100
0010
1000
,  // measure 43
0001
0010
0001
0010
0100
1000
0100
1000
0001
0100
0001
0100
0010
1000
0010
1000
,  // measure 44
0001
0000
0100
0000
0010
0000
1000
0001
1000
0000
0001
0000
1000
0000
0000
0000
,  // measure 45
2000
0000
0000
3002
0000
0000
0203
0000
0000
0000
0300
0000
0000
0000
0000
0000
,  // measure 46
0000
0000
0000
0000
,  // measure 47
0002
0000
0000
0203
0000
0000
0320
0000
0000
0000
2030
0000
3002
0000
0000
0000
,  // measure 48
0203
0000
0320
0000
2030
3001
0000
0000
,  // measure 49
0001
0100
0001
0100
0001
1000
0001
0000
,  // measure 50
1000
0100
1000
0100
1000
0010
1000
0000
,  // measure 51
0001
0100
0001
1000
0001
0100
0001
0000
,  // measure 52
1000
0100
1000
0010
0100
0000
0000
0000
,  // measure 53
0001
1000
0001
0000
0001
1000
0001
0000
0001
1000
0001
0000
0001
1000
0001
0000
,  // measure 54
1000
0001
1000
0000
1000
0001
1000
0000
1000
0001
1000
0000
1000
0001
1000
0000
,  // measure 55
1000
0010
1000
0000
1000
0010
1000
0000
1000
0010
1000
0000
1000
0010
1000
0000
,  // measure 56
0001
0100
0001
0000
0001
0100
0001
0000
0001
0100
0001
0000
0001
0100
0001
0000
,  // measure 57
1000
0000
0010
0100
0000
0000
0001
0000
0000
1000
0000
0000
0010
0000
0100
0000
,  // measure 58
0001
0000
0010
0100
0000
0000
1000
0000
0000
0000
0001
0000
0001
0000
0100
0000
,  // measure 59
0010
0000
1000
0010
0000
0000
1000
0000
0000
0000
0001
0000
0100
0000
0010
0000
,  // measure 60
1000
1000
1000
1000
,  // measure 61
0001
0100
0000
0100
0010
1000
0001
0000
0100
0010
1000
0000
0001
0000
0100
0000
,  // measure 62
0001
1000
0001
1000
0001
0001
1000
0001
,  // measure 63
1000
0010
1000
0010
0010
1000
0010
1000
,  // measure 64
0010
0100
0100
0010
0100
0010
0100
0010
,  // measure 65
0100
0001
0100
0001
0100
0001
0100
0001
,  // measure 66
0100
0010
1000
0001
,  // measure 67
0100
0010
0010
0100
,  // measure 68
0001
0100
0010
1000
,  // measure 69
0100
1000
0011
1100
,  // measure 70
1001
0000
0000
0000
;
