#TITLE:States of Mind;
#SUBTITLE:;
#ARTIST:Senser;
#TITLETRANSLIT:;
#SUBTITLETRANSLIT:;
#ARTISTTRANSLIT:;
#CREDIT:Plaguefox (gamecast.org/plaguemix);
#BANNER:statesofmind-bn.png;
#BACKGROUND:statesofmind-bg.png;
#LYRICSPATH:;
#CDTITLE:pm2cd.png;
#MUSIC:statesofmind.ogg;
#OFFSET:0.013;
#SAMPLESTART:9.980;
#SAMPLELENGTH:17.180;
#SELECTABLE:YES;
#BPMS:0.000=239.458;
#STOPS:192.000=1.750
;
#BGCHANGES:0.000=statesofmind.avi=1.000=1=0=0
,381.000=statesofmind-bg.png=1.000=1=0=1
;

//---------------dance-single - LIGHT----------------
#NOTES:
     dance-single:
     LIGHT:
     Easy:
     4:
     0.372,0.536,0.253,0.122,0.000:
0000
0000
0000
0000
,
0000
0000
0000
0000
,
0000
0000
0000
0000
,
0000
0000
0000
0000
,
0000
0000
0000
0000
,
0000
0000
0000
0000
,
0000
0000
0000
0000
,
0000
0000
0000
0000
,
0000
0000
0000
0000
,
0000
0000
0000
0000
,
0001
0000
0000
0001
,
0000
0001
0000
0000
,
0001
0000
0000
0001
,
0000
0001
0000
0000
,
1000
0000
0000
1000
,
0000
1000
0000
0000
,
1000
0000
0000
1000
,
0000
1000
0001
1000
,
1001
0000
0000
0001
,
0000
0100
0000
0000
,
1001
0000
0000
1000
,
0000
0100
0000
0000
,
1001
0000
0000
0100
,
0000
0001
0000
0000
,
2002
0000
0000
3003
,
1001
0001
1000
0001
,
1001
0000
1000
0010
,
0000
1000
0000
0001
,
1001
0000
0001
0010
,
0000
0001
0000
1000
,
1001
0000
1000
0100
,
0000
1000
0000
0001
,
1001
0000
0001
0100
,
0000
0001
1000
0001
,
0100
0001
0001
0100
,
0001
0100
0001
0001
,
1000
0100
0100
1000
,
0100
1000
0100
1000
,
0001
0100
0100
0001
,
0100
0001
0100
0100
,
0001
0010
0010
0001
,
0010
0001
0010
0010
,
0100
0000
0000
0010
0000
0000
0001
0000
,
0100
0000
0000
0010
0000
0000
1000
0000
,
0100
0000
0000
0010
0000
0000
0001
0000
,
0100
0000
0000
0010
0000
0000
1000
0000
,
1100
0000
0000
0000
,
0101
0000
0000
0000
,
0110
1001
0000
1000
,
0010
0000
1000
0000
,
0001
1001
0000
0001
,
0010
0000
0001
0000
,
1000
1001
0000
1000
,
0100
0000
1000
0000
,
0001
1001
0000
0001
,
0100
0000
0001
1000
,
0001
0200
0000
0000
,
0300
0002
0000
0000
,
0003
0200
0000
0000
,
0300
0020
0000
0000
,
0030
2000
0000
0000
,
3000
0002
0000
0000
,
0003
0020
0000
0000
,
0000
0200
0000
0330
,
0000
0000
0100
0000
0000
0100
0000
0000
,
0100
0000
1000
0001
,
0010
0000
0100
0000
0000
0100
0000
0000
,
0100
0000
1000
0001
,
0100
0000
0010
0000
0000
0010
0000
0000
,
0010
0000
0001
1000
,
0100
0000
0010
0000
0000
0010
0000
0000
,
0010
0000
1000
0010
,
0100
0000
0001
0000
0000
0001
0000
0000
,
0001
0000
0100
1000
,
0010
0000
0001
0000
0000
0001
0000
0000
,
0001
0000
0100
0010
,
0100
0000
1000
0000
0000
1000
0000
0000
,
1000
0000
0100
0010
,
0100
0000
1000
0000
0000
1000
0000
0000
,
1000
0000
0100
0010
,
1000
0000
1001
0000
0000
0100
0000
0000
,
0100
0000
0010
0001
,
0100
0000
1001
0000
0000
0100
0000
0000
,
0100
0000
0010
1000
,
0100
0000
1001
0000
0000
0010
0000
0000
,
0010
0000
0100
1000
,
0010
0000
1001
0000
0000
0010
0000
0000
,
0010
0000
0100
0001
,
0010
0000
0110
0000
0000
1000
0000
0000
,
1000
0000
0001
0010
,
0100
0000
0110
0000
0000
1000
0000
0000
,
1000
0000
0001
0100
,
0010
0000
0110
0000
0000
0001
0000
0000
,
0001
0000
1000
0100
,
0010
0220
0000
0000
,
0000
0330
0010
1000
,
0001
0110
0000
0000
;

//---------------dance-single - STANDARD----------------
#NOTES:
     dance-single:
     STANDARD:
     Medium:
     7:
     0.479,0.536,0.527,0.203,0.000:
0000
0000
0000
0000
,
0000
0000
0000
0000
,
0000
0000
0000
0000
,
0000
0000
0000
0000
,
0000
0000
0000
0000
,
0000
0000
0000
0000
,
0000
0000
0000
0000
,
0000
0000
0000
0000
,
0000
0000
0000
0000
,
0000
0000
0000
0000
,
1000
0100
0100
1000
,
0100
1000
0100
0100
,
0010
0001
0001
0010
,
0001
0010
0001
0001
,
0100
0010
0010
0100
,
0010
0100
0010
0010
,
1000
0001
0001
1000
,
0001
1000
0100
0010
,
1001
0100
0100
0001
,
0100
1000
0100
0100
,
1001
0010
0010
1000
,
0010
0001
0010
0010
,
1001
0100
0100
1000
,
0100
0001
0100
0100
,
2002
0000
0000
0000
,
3003
0010
1000
0100
,
0101
0000
1000
0010
,
0000
1100
0001
0010
,
0101
0000
1000
0010
,
0000
1100
0001
0010
,
0101
0000
1000
0010
,
0000
1100
0001
0010
,
0101
0000
1000
0010
,
0000
1100
1000
0010
,
1010
0000
0001
0100
,
0000
0011
1000
0100
,
1010
0000
0001
0100
,
0000
0011
1000
0100
,
1010
0000
0001
0100
,
0000
0011
1000
0100
,
1010
0000
0001
0100
,
0000
0011
1000
0100
,
2000
0000
0000
0001
0000
0000
3100
0000
,
0002
0000
0000
1000
0000
0000
0103
0000
,
2000
0000
0000
0001
0000
0000
3010
0000
,
0002
0000
0000
1000
0000
0000
0013
0000
,
2020
0000
0000
3030
,
0022
0000
0000
0033
,
1001
0100
1000
1000
,
0100
0001
0100
1000
,
1000
0010
0100
0100
,
0001
0010
0001
0100
,
0100
0001
0010
0010
,
0100
1000
0100
0010
,
0010
0001
1000
1000
,
0100
0001
0100
1000
,
1000
2000
0000
0000
,
0002
0000
0000
0000
,
3003
0200
0000
0000
,
0020
0000
0000
0000
,
0330
2000
0000
0000
,
0200
0000
0000
0000
,
3300
0020
0000
0000
,
0002
0000
0000
0000
,
0033
0000
1001
0000
0000
1000
0000
0001
,
0000
0000
1000
0100
0000
1000
0000
0100
,
0000
0000
0001
0100
0000
0001
0000
0100
,
0000
1000
0001
1000
0001
1000
0000
0001
,
0000
1001
0000
0000
,
0100
1001
0000
0000
,
0100
1001
0000
1000
,
0000
0001
0000
1001
,
0000
0000
1001
0000
0000
0010
0000
0000
,
1001
0000
1000
0010
,
0100
0000
0110
0000
0000
0001
0000
0000
,
0110
0000
1000
0010
,
0100
0000
0110
0000
0000
0001
0000
0000
,
0110
0000
1000
0010
,
0100
0000
0110
0000
0000
0001
0000
0000
,
0110
0000
1000
0100
,
0010
0000
0110
0000
0000
1000
0000
0000
,
0110
0000
0001
0010
,
0100
0000
0110
0000
0000
1000
0000
0000
,
0110
0000
0001
0010
,
0100
0000
0110
0000
0000
1000
0000
0000
,
0110
0000
0001
0010
,
0100
0000
0110
0000
0000
1000
0000
0000
,
0110
0000
0001
0100
,
0010
0000
1001
0000
0000
0100
0000
0000
,
1001
0000
0100
1000
,
0010
0000
1001
0000
0000
0100
0000
0000
,
1001
0000
0100
0001
,
0010
0000
1001
0000
0000
0100
0000
0000
,
1001
0000
0010
0001
,
0100
2002
0000
0000
,
0000
3003
0010
1000
,
0100
1001
0000
0000;

//---------------dance-single - HEAVY----------------
#NOTES:
     dance-single:
     HEAVY:
     Hard:
     9:
     0.611,0.780,0.294,0.192,0.000: // measure 1
0000
0000
0000
0000
,  // measure 2
0000
0000
0000
0000
,  // measure 3
0000
0000
0000
0000
,  // measure 4
0000
0000
0000
0000
,  // measure 5
0000
0000
0000
0000
,  // measure 6
0000
0000
0000
0000
,  // measure 7
0000
0000
0000
0000
,  // measure 8
0000
0000
0000
0000
,  // measure 9
0000
0000
0000
0000
,  // measure 10
0000
0000
0000
0000
,  // measure 11
1001
0000
0100
0000
0100
0000
0001
0010
,  // measure 12
0001
0000
1000
0100
1000
0000
0100
0000
,  // measure 13
0000
0001
0100
1000
,  // measure 14
1000
0000
0100
0000
0001
0000
0001
0010
,  // measure 15
0000
0010
0001
0000
0001
0010
0000
0010
,  // measure 16
0001
0010
0001
0010
0000
0010
0100
0010
,  // measure 17
0100
0010
0100
0010
0000
0000
0100
1000
,  // measure 18
0100
1000
0100
1000
0000
1000
0100
0000
,  // measure 19
1001
1001
0000
1000
,  // measure 20
0100
0001
0001
0100
,  // measure 21
0000
0100
1000
0100
1000
0100
1000
0100
,  // measure 22
0010
0100
0010
0100
0010
0100
0010
0000
,  // measure 23
1001
1001
0000
1000
,  // measure 24
0100
0010
0001
0000
,  // measure 25
2002
0000
0000
0000
,  // measure 26
0000
0000
0000
3003
,  // measure 27
1001
0000
0100
1000
0100
0000
0010
0001
,  // measure 28
0010
0001
0000
0010
0001
0000
1100
0000
,  // measure 29
1000
0100
1000
0100
1000
0000
2002
0000
,  // measure 30
0000
3003
1000
0001
,  // measure 31
1000
0100
1000
0100
0000
0011
0000
0000
,  // measure 32
0001
0100
0001
0100
0000
1010
0000
0000
,  // measure 33
1000
0010
1000
0010
0000
0101
0000
0001
,  // measure 34
0000
0001
0100
0001
0000
1010
0000
0000
,  // measure 35
0200
0001
0001
0010
,  // measure 36
1000
0010
0001
0301
,  // measure 37
0020
1000
1000
0100
,  // measure 38
0001
0100
1000
1030
,  // measure 39
0002
1000
1000
0100
,  // measure 40
0010
0100
1000
1003
,  // measure 41
2000
0000
3001
0000
,  // measure 42
0002
0000
0103
0000
,  // measure 43
0110
0000
1000
0001
0000
0001
1000
0000
,  // measure 44
0110
0000
0001
1000
0000
1000
0001
0000
,  // measure 45
0110
0000
1000
0001
0000
0001
1000
0000
,  // measure 46
0110
0000
0001
1000
0000
1000
0001
0000
,  // measure 47
1001
0000
0110
0000
,  // measure 48
1001
0000
0110
0000
,  // measure 49
1001
0000
0000
1000
0000
0100
1000
0000
,  // measure 50
1000
0001
0010
0100
1000
0000
1001
0000
,  // measure 51
0000
1010
0100
0011
,  // measure 52
0100
1010
0100
0011
,  // measure 53
0000
0000
0000
1000
0100
0000
0001
0000
,  // measure 54
0100
0001
0000
0001
0100
0001
0000
1000
,  // measure 55
0100
1000
0001
1000
0100
1000
0000
0001
,  // measure 56
0010
0000
0001
1000
0000
0001
0000
0010
,  // measure 57
0000
2000
0000
0000
,  // measure 58
0020
0000
0000
0000
,  // measure 59
3000
0200
0000
0030
,  // measure 60
0002
0000
0000
0300
,  // measure 61
0020
0003
0230
2300
,  // measure 62
0020
0000
0000
0000
,  // measure 63
3000
0200
0000
0030
,  // measure 64
0002
0000
0000
0000
,  // measure 65
0303
0000
1001
0000
0000
1000
0000
1000
,  // measure 66
0000
0000
1000
0001
0000
0001
0000
0001
,  // measure 67
0000
0000
0001
0100
0000
0100
0000
0100
,  // measure 68
0000
0100
0001
1000
0001
1000
0000
1000
,  // measure 69
0000
0000
1000
0001
0000
0001
0000
0001
,  // measure 70
0100
0000
0100
0010
0000
0010
0000
0010
,  // measure 71
0100
0010
0100
0001
0100
0001
0100
0001
,  // measure 72
1000
0001
1000
0010
0000
1000
0000
0010
,  // measure 73
0000
0000
0000
1000
0010
0000
1000
0000
,  // measure 74
0001
0100
0001
0100
0000
0001
0000
0100
,  // measure 75
0000
0001
0000
0000
1000
0001
1000
0001
,  // measure 76
1000
0001
1000
0000
0001
1000
0001
0000
,  // measure 77
1000
0010
0100
0010
,  // measure 78
0100
0000
0010
0100
0010
0100
0010
0100
,  // measure 79
0010
0000
1000
0001
1000
0001
1000
0001
,  // measure 80
1000
0000
0010
0100
0000
0010
0100
0000
,  // measure 81
0000
0000
0001
1000
0000
0001
1000
0000
,  // measure 82
0000
0000
0000
0000
,  // measure 83
0000
1000
0001
1000
0001
0100
0001
0100
,  // measure 84
0001
0100
0010
0100
0010
1000
0010
1000
,  // measure 85
0010
0000
1000
0010
1000
0001
0000
1000
,  // measure 86
0000
0001
1000
0001
0000
1000
0000
0001
,  // measure 87
0000
0000
0000
1000
0100
1000
0100
1000
,  // measure 88
0100
1000
0001
0100
0001
0100
0001
0000
,  // measure 89
0001
0100
0001
0000
0001
0000
0000
1000
,  // measure 90
0000
0001
0000
1000
0001
1000
0000
0001
,  // measure 91
0000
0000
0000
0100
0010
0000
1000
0001
,  // measure 92
0000
0100
0010
0000
1000
0001
0000
0100
,  // measure 93
0000
0000
0000
0001
1000
0001
1000
0000
,  // measure 94
0010
1000
0000
0100
1000
0100
0000
1000
,  // measure 95
0010
0000
1000
0000
0000
0001
1000
0000
,  // measure 96
0000
0010
0100
0000
0001
1000
0000
0010
,  // measure 97
0100
1001
0000
0000
;
