#TITLE:Let Mom Sleep;
#SUBTITLE:;
#ARTIST:長沼英樹;
#TITLETRANSLIT:;
#SUBTITLETRANSLIT:;
#ARTISTTRANSLIT:Hideki Naganuma;
#CREDIT:Plaguefox (gamecast.org/plaguemix);
#BANNER:letmomsleep-bn.png;
#BACKGROUND:letmomsleep-bg.jpg;
#LYRICSPATH:;
#CDTITLE:pm1cd.png;
#MUSIC:letmomsleep.ogg;
#OFFSET:0.000;
#SAMPLESTART:29.055;
#SAMPLELENGTH:14.087;
#SELECTABLE:YES;
#BPMS:0.000=136.295;
#STOPS:;
#BGCHANGES:;

//---------------dance-single - LIGHT----------------
#NOTES:
     dance-single:
     LIGHT:
     Easy:
     4:
     0.293,0.368,0.367,0.102,0.000:
0000
0000
0000
0000
,
0000
0000
0000
0000
,
0000
0000
0000
0000
,
0000
0000
0000
0000
,
0000
0000
0110
0000
,
0000
0000
0010
0001
,
0010
0000
1001
0000
,
0000
0000
0100
1000
,
0100
1000
1001
1000
,
1001
0001
1001
1001
,
0000
0000
1000
0010
,
1000
0001
2000
0000
,
3000
0000
1000
0010
,
0100
0000
1000
0010
,
0100
0000
1000
0010
,
0100
0000
0001
1000
,
0100
0000
0001
0010
,
0100
0000
0001
0010
,
0100
0000
0001
0010
,
0100
0000
1000
0001
,
0100
0000
0000
0010
,
0100
0001
0000
0000
0000
0000
0010
0000
,
0100
1000
0000
0000
0000
0000
0110
0000
,
0000
0110
1010
0011
,
1001
0000
1000
0001
,
0100
0000
0001
0001
,
0100
0000
0010
1000
,
0100
0000
0010
0010
,
0100
0000
0001
1000
,
0100
0000
1000
1000
,
0100
0000
0010
0001
,
0100
0000
0010
0010
,
0100
0000
1001
1001
,
1001
0000
0000
0110
0000
0110
0000
0110
,
0000
0110
0000
0000
1001
0000
1001
0000
,
1001
0000
0010
0010
,
0100
0000
1001
1001
,
1001
0000
0000
0110
0000
0110
0000
0110
,
0000
0110
0000
0000
2002
0000
0000
3003
,
0220
0000
0000
0330
0001
0000
1000
0000
,
0001
1000
0002
0000
,
0003
0000
1000
0010
,
0000
0100
1000
0010
,
0000
0010
0001
0100
,
0000
0010
0001
0100
,
0001
1000
0100
0100
,
0100
0000
0100
0100
,
1000
0001
0010
0010
,
0010
0000
0010
0010
,
1000
0001
0001
0100
,
0001
0001
1000
1000
,
0010
1000
1001
0100
,
1001
0010
1001
1001
,
0100
0000
2000
3100
,
0002
0103
2002
0000
,
3003
0010
1001
0000
;

//---------------dance-single - STANDARD----------------
#NOTES:
     dance-single:
     STANDARD:
     Medium:
     6:
     0.393,0.424,0.346,0.153,0.087:
0000
0000
0000
0000
,
0000
0000
0000
0000
,
0000
0000
0000
0000
,
0000
0000
0000
0000
,
0000
0000
1001
0010
,
0100
0001
0000
0000
0010
0000
0001
0000
,
0010
0000
1001
0010
,
0100
1000
0000
0000
0100
0000
1000
0000
,
0100
0000
1001
1000
,
1001
0001
0110
0110
,
0100
0010
0100
0001
1000
0000
0010
0000
,
1000
0000
0001
0000
1000
0100
0001
0100
,
1100
0000
0000
0000
0000
0000
0000
0000
1000
0000
0000
0000
0001
0000
0000
0100
,
0000
0000
0000
0000
0000
0000
0000
0000
1000
0000
0001
0000
1000
0000
0000
0100
,
0000
0000
0000
0000
0000
0000
0000
0000
0010
0000
0000
0000
0100
0000
0000
1000
,
0000
0000
0000
0000
0000
0000
0000
0000
0010
0000
0100
0000
0010
0000
0000
1000
,
0000
0000
0000
0000
0000
0000
0000
0000
0001
0000
0000
0000
1000
0000
0000
0010
,
0000
0000
0000
0000
0000
0000
0000
0000
0001
0000
1000
0000
0001
0000
0000
0010
,
0000
0000
0000
0000
0000
0000
0000
0000
0100
0000
0000
0000
0010
0000
0000
0001
,
0000
0000
0000
0000
0000
0000
0000
0000
0100
0000
0010
0000
0100
0000
0000
0001
,
0000
0000
0000
0000
1000
0000
0010
0100
,
0001
1000
0000
0000
0001
0000
0010
0100
,
1000
0001
0000
0000
0010
0000
1001
0000
,
0100
0000
1001
0000
0010
1000
0100
1000
,
0010
0000
0200
0000
0000
0000
0000
0000
0301
0000
0000
0000
1000
0000
0000
0010
,
0000
0000
0101
0000
0000
0000
0000
0000
0001
0000
1000
0000
0001
0000
0000
0010
,
0000
0000
0000
0000
0000
0000
0000
0000
0100
0000
0000
0000
0010
0000
0000
0001
,
0000
0000
1100
0000
0000
0000
0000
0000
0100
0000
0010
0000
0100
0000
0000
0001
,
0000
0000
0000
0000
0000
0000
0000
0000
1000
0000
0000
0000
0001
0000
0000
0100
,
0000
0000
0101
0000
0000
0000
0000
0000
1000
0000
0001
0000
1000
0000
0000
0100
,
0000
0000
0000
0000
0000
0000
0000
0000
0010
0000
0000
0000
0100
0000
0000
1000
,
0000
0000
1100
0000
0000
0000
0000
0000
0010
0000
0100
0000
0010
0000
0000
1000
,
0000
0000
1000
1001
,
1001
0000
0001
0100
1000
0000
1000
0100
,
0001
0000
0001
0100
1000
0000
1001
0000
,
1001
0000
0000
0001
1000
0100
0000
0001
,
0001
1000
0000
0000
0001
0000
1001
0000
,
1001
0000
1000
0100
0001
0000
0001
0100
,
1000
0000
1000
0100
2002
0000
0000
3003
,
0220
0000
0000
0330
0001
0000
1000
0000
,
0001
0000
1000
0000
0001
0100
1000
0100
,
0101
0000
0000
0000
0100
0000
1000
0001
,
0010
0100
1000
0001
0100
0000
0001
1000
,
0010
0100
0001
1000
0100
0000
0010
0001
,
0100
0010
1000
0100
0010
0000
0100
0000
,
2000
0000
0002
3003
1100
0000
0000
0101
,
0000
0000
0000
0000
1001
0000
0000
0002
,
0000
1003
0000
0000
0011
0000
0000
1010
,
0000
0000
0000
0000
1001
0000
0000
2000
,
0000
3001
0000
0000
1000
0001
1000
0100
,
2000
0000
0020
3030
0202
0000
0000
0000
,
0000
0303
0110
0000
1001
0000
0100
0000
,
1001
0010
1001
1001
,
0100
1000
0001
0010
0002
0000
0103
0000
,
2000
0000
3100
0000
1000
0100
1000
0001
,
0010
0000
0001
0000
1000
0100
0000
0000
0010
0000
0000
0000
0000
0000
0000
0000;

//---------------dance-single - HEAVY----------------
#NOTES:
     dance-single:
     HEAVY:
     Hard:
     9:
     0.525,0.566,0.245,0.245,0.214: // measure 1
0000
0000
0000
0000
,  // measure 2
0000
0000
0000
0000
,  // measure 3
0000
0000
0000
0000
,  // measure 4
0000
0000
0000
0000
,  // measure 5
0000
0000
1000
0000
0100
0001
0000
0000
0110
0000
0000
0000
1000
0000
0100
0000
,  // measure 6
0001
0101
0000
0000
0010
0000
1000
0000
,  // measure 7
0100
0010
0000
0001
0000
1000
0000
0000
1001
0000
0000
0000
0001
0000
0100
0000
,  // measure 8
1000
1100
0000
0000
1000
0100
1000
0000
,  // measure 9
0000
0000
0010
0000
0000
0001
0000
0000
1000
0000
0100
0000
0010
0000
0001
0000
,  // measure 10
1000
0100
0010
0001
1000
0100
1000
0100
,  // measure 11
0010
0001
0100
0001
1000
1000
0001
0001
,  // measure 12
1000
0100
1000
0100
1000
0001
1000
0001
2000
0000
0000
0000
0000
0000
0000
0000
,  // measure 13
3001
0000
0000
0000
0010
0001
0100
0001
,  // measure 14
0010
0000
0100
0000
1000
0000
0010
0000
1000
0000
0100
1000
0100
0000
0010
0000
,  // measure 15
0001
0010
1000
0010
0100
1000
0010
1000
,  // measure 16
0100
0000
0001
0000
0100
0000
1000
0000
0100
0000
0010
0100
0010
0000
0001
0000
,  // measure 17
1000
0100
0010
0001
0100
0010
1000
0010
,  // measure 18
0100
0000
0001
0000
0010
0000
0001
0000
0010
0000
0100
0010
0100
0000
1000
0000
,  // measure 19
0010
0001
0010
1000
0001
0100
1000
0100
,  // measure 20
0001
0000
0010
0000
0001
0000
0100
0000
0001
0000
1000
0001
1000
0000
0100
0000
,  // measure 21
0010
0001
1000
0100
0010
0000
0010
0100
,  // measure 22
1000
0001
0000
0000
0010
0000
0010
0100
,  // measure 23
0001
1000
0000
0000
0010
0000
1001
0000
,  // measure 24
0100
1001
1010
0011
,  // measure 25
1001
0000
0200
0000
0000
0000
0000
0000
0310
0000
0000
0000
0001
0000
0000
0100
,  // measure 26
0000
0000
0101
0000
0000
0000
0000
0000
1000
0000
0001
0000
1000
0000
0000
0100
,  // measure 27
0000
0000
2002
0000
0000
0000
3003
0000
0010
0000
0000
0000
0100
0000
0000
1000
,  // measure 28
0000
0000
1100
0000
0000
0000
0000
0000
0010
0000
0100
0000
0010
0000
0000
0001
,  // measure 29
0000
0000
0001
0000
0100
1000
0000
0000
1001
0000
0000
0000
1000
0000
0000
0010
,  // measure 30
0000
0000
0011
0000
0000
0000
0000
0000
0001
0000
1000
0000
0001
0000
0000
0010
,  // measure 31
0000
0000
2002
0000
0000
0000
3003
0000
0100
0000
0000
0000
0010
0000
0000
0001
,  // measure 32
0000
0000
1010
0000
0000
0000
0000
0000
0100
0000
0010
0000
0100
0000
0000
1000
,  // measure 33
0000
0000
0001
0000
0000
1000
0000
0000
0001
0000
0000
0000
1001
0000
0000
0000
,  // measure 34
1001
0000
0000
0001
0100
0010
1000
0010
,  // measure 35
0001
1000
0100
0000
1000
0000
1001
0000
,  // measure 36
1001
0000
0000
1000
0001
0100
0010
1000
,  // measure 37
1000
0002
0000
0003
1000
0000
1001
0000
,  // measure 38
1001
0000
0000
1000
0100
0010
0001
0010
,  // measure 39
1000
0001
0100
0000
2002
0000
0000
3003
,  // measure 40
0220
0000
0000
0330
0001
0000
0010
0000
,  // measure 41
1000
0010
0002
0000
,  // measure 42
1003
0000
1000
0000
0001
0100
0001
0010
,  // measure 43
1000
0010
0001
0100
0001
1000
0010
0100
,  // measure 44
0001
0010
1000
0010
0001
0100
1000
0100
,  // measure 45
0001
0000
0010
0000
0100
0000
1000
0000
0100
1000
0100
1000
0001
1000
0001
1000
,  // measure 46
0002
0000
0000
0000
2000
0000
3003
0000
2000
0000
0000
3010
0000
0000
0020
0000
,  // measure 47
0000
0130
0000
0000
0000
0000
0000
0000
0200
0000
0000
0301
0000
0000
0002
0000
,  // measure 48
0000
0000
0013
0000
0000
0000
0000
0000
0020
0000
0000
0130
0000
0000
0200
0000
,  // measure 49
0000
1300
0000
0000
0000
0000
0000
0000
2000
0000
0000
3010
0000
0000
0020
0000
,  // measure 50
0000
0130
0000
0000
1000
0100
0001
0100
,  // measure 51
1000
0010
0000
0100
0000
0001
0000
0001
0020
0000
0000
0000
0000
0000
0000
0000
,  // measure 52
0030
0000
0000
0000
0001
0100
0010
1000
,  // measure 53
0001
0100
0010
1000
0001
0100
0001
0100
,  // measure 54
0010
1000
0100
1000
0001
0001
1000
1000
,  // measure 55
0001
0100
0001
0100
0001
1000
0001
1000
0002
0000
0000
0000
0000
0000
0000
0000
,  // measure 56
0000
0000
1003
0000
0100
0001
0000
0000
1000
0000
0000
0000
0000
0000
0000
0000
;
