#TITLE:Fantasia;
#SUBTITLE:;
#ARTIST:Smiley;
#TITLETRANSLIT:;
#SUBTITLETRANSLIT:;
#ARTISTTRANSLIT:;
#CREDIT:;
#BANNER:fantasia-bn.png;
#BACKGROUND:fantasia-bg.png;
#LYRICSPATH:;
#CDTITLE:;
#MUSIC:Fantasia.mp3;
#OFFSET:-0.060;
#SAMPLESTART:79.76;
#SAMPLELENGTH:15.500;
#SELECTABLE:YES;
#BPMS:0.000=82.500,16.000=41.260,18.000=165.000,114.000=41.260,116.000=165.000,164.000=82.500,180.000=165.000;
#STOPS:;
#BGCHANGES:0.000=fantasia-bg1.png=1.000=0=0=1,
16.000=fantasia-bg.png=1.000=1=0=1,
17.000=fantasia-bg2.png=1.000=1=0=1,
18.000=fantasia-bg1.png=1.000=0=0=1,
114.000=fantasia-bg2.png=0.500=1=0=1,
116.000=fantasia-bg1.png=1.000=0=0=1,
164.000=fantasia-bg3.png=1.000=0=0=1,
178.000=fantasia-bg2.png=1.000=0=0=1,
178.250=fantasia-bg.png=1.000=0=0=1,
178.500=fantasia-bg3.png=1.000=0=0=1,
178.750=fantasia-bg2.png=1.000=0=0=1,
179.000=fantasia-bg3.png=1.000=0=0=1,
179.250=fantasia-bg.png=1.000=0=0=1,
179.500=fantasia-bg2.png=1.000=0=0=1,
179.625=fantasia-bg.png=1.000=0=0=1,
179.750=fantasia-bg2.png=1.000=0=0=1,
179.875=fantasia-bg3.png=1.000=0=0=1,
180.000=fantasia-bg1.png=1.000=1=0=1,
259.500=fantasia-bg.png=1.000=0=0=1,
260.000=fantasia-bg1.png=1.000=0=0=1,
268.000=fantasia-bg3.png=1.000=1=0=1,
99999=-nosongbg-=1.000=0=0=0 // don't automatically add -songbackground-
;

//---------------dance-single - Copied from----------------
#NOTES:
     dance-single:
     Copied from:
     Hard:
     9:
     0.610,0.915,0.370,0.476,0.154:
0000
0000
0000
0000
,
0000
0000
0000
0000
,
1001
1000
0001
0100
0010
0000
1000
0010
0200
0000
0301
0001
0000
0001
0100
0000
,
1001
1000
0001
0100
0100
0000
0001
1000
0200
0000
1300
1000
0000
0001
1000
0010
,
2010
0000
0000
0000
0000
0000
0000
0000
0000
0000
0000
0000
0000
0000
0000
0001
3001
0000
0000
0000
0010
0000
0000
0000
0100
0000
0000
0000
0010
0000
0000
0000
,
0001
0000
1000
0000
0010
0000
0200
0000
0000
0000
0300
0000
0000
0000
0001
0100
,
0001
0000
0101
0000
1000
0010
1000
0200
,
0000
0310
0001
2000
0010
3000
0001
0000
,
1000
1000
0002
0000
1003
1000
0001
0200
,
0000
0000
0310
0000
1000
0000
0010
0000
0000
0000
1000
0000
0000
0000
0001
1000
,
0001
0100
0020
0000
1030
1000
0100
0020
,
0000
0031
0100
0001
0000
0100
0001
0100
,
0000
0002
1000
1000
1003
0100
0010
0002
,
0000
0003
0000
2000
0000
3020
0000
0130
,
0001
0000
1100
0000
0001
0010
0001
0100
,
0000
0010
0010
0100
0200
0000
0001
0000
,
0301
0000
0010
0001
0101
0001
0001
0200
,
0000
0000
0301
0000
1000
0000
0010
0000
0000
0000
1010
0000
0000
0000
0010
0100
,
0001
0000
1100
0000
1010
0010
1000
0200
,
0000
1300
0001
0100
0002
0000
1003
0001
,
1000
0010
0010
0000
0101
0000
1000
0001
,
1000
0010
0000
0220
0000
0330
0000
2000
,
0000
3020
0000
0130
0101
0000
1000
0100
,
0010
0001
0000
2000
0100
0000
0001
0000
,
3001
0000
0000
0010
1010
0000
1000
0010
,
0100
0020
0000
0130
0002
0000
0003
2000
,
0000
3020
0000
0130
0002
0000
0000
1003
,
0000
1001
0000
1100
0000
0000
0000
1010
,
0000
0000
0000
0000
0000
0000
0000
0000
0000
0000
0000
0000
2002
0000
0000
0000
0000
0000
0000
0000
0000
0000
0000
0000
0000
0000
0000
0000
0000
0000
0000
0003
,
3001
1000
0010
0100
0001
0100
0000
1000
,
0010
0010
0100
0100
0001
0000
0001
0000
,
1000
0010
0000
0110
0000
1000
0010
0010
,
0200
0000
0000
0000
0300
0000
0001
0100
0010
0000
0100
0000
0100
0000
0000
0000
,
0001
1000
0000
1001
0000
1000
0010
0100
,
0001
0001
1000
1000
0010
0000
0010
0000
,
1000
0100
0000
1100
0000
0100
0010
0001
,
0020
0000
0000
0000
0030
0000
0001
1000
0001
0000
0010
0000
0010
0000
0000
0000
,
1100
0000
0011
0000
1000
0100
0001
0100
,
0000
0100
1000
0010
0000
0010
0000
0010
,
0100
0000
0101
0000
0001
0100
1000
0100
,
0000
0100
0001
0010
0000
0010
0011
0001
,
1001
0000
0000
1000
1000
0000
0010
1000
2000
0000
0000
0000
3200
0000
0000
0000
,
0320
0000
0000
0001
0031
0000
0001
1000
2000
0000
0010
0000
3020
0000
0100
0000
,
0230
0000
0000
0001
0301
0000
0001
0100
0200
0000
0000
0000
0320
0000
0000
0000
,
2030
0000
0000
0000
0000
0000
0100
0000
3100
0000
0000
0000
1100
0000
0000
0000
1000
0000
0100
0000
0010
0000
0001
0000
0010
0000
0001
0000
0010
0001
0010
0001
,
0010
0001
1000
0010
0000
2000
0000
3001
,
0010
0010
0001
0001
1000
0000
1001
0000
,
0010
1000
0000
1000
0010
0100
0100
0100
,
0020
0000
0000
0000
0030
0000
1000
0010
1000
0000
0001
0000
0100
0000
0000
0000
,
0010
0100
0001
0102
0000
0103
0010
0010
,
0200
0001
0301
0001
1000
0000
1001
0000
,
0010
1000
0000
1000
0010
0000
0010
0010
,
2000
0000
0000
0000
3001
0000
0010
0001
0010
0000
0001
0000
0200
0000
0000
0000
,
0310
0000
1000
0000
0000
0000
1000
0000
0100
0000
0010
0001
0010
0000
0001
0000
,
1002
0000
0000
1000
1003
0000
0110
0000
,
1000
0010
0000
0110
0000
0010
1000
1000
,
0002
0000
0000
0000
0003
0000
1000
0010
1000
0000
0100
0000
0100
0000
0000
0000
,
1000
0010
0000
0110
0000
0100
0001
1000
,
0200
0000
0300
0010
0001
1000
1010
0000
,
0001
0100
0000
0101
0000
0100
0010
0010
,
0200
0000
0000
0000
0300
0000
0001
1000
0001
0000
0100
0000
0120
0000
0100
0000
,
0130
0000
0101
0000
0001
0010
1000
0010
,
0000
0001
1000
0010
0000
0010
0000
0100
,
0110
0000
0101
0000
1000
0100
0001
0100
,
0000
0100
1000
1010
0000
1001
0000
1000
,
2200
0000
0000
0000
,
0000
0000
0000
0000
,
3300
0000
0000
0000
;

//---------------dance-single - ----------------
#NOTES:
     dance-single:
     :
     Challenge:
     10:
     0.630,0.915,0.590,0.211,0.216:
0000
0000
0000
0000
,
0000
0000
0000
0000
,
1000
0000
0100
0000
1000
0000
0010
0000
0100
0000
0001
0000
0100
0000
0001
0000
0100
0000
0000
0000
0010
0000
1000
0000
0000
0000
1000
0000
0010
0000
0100
0001
,
0100
0000
0010
0000
1000
0000
0100
0000
1000
0000
0010
0000
0100
0000
0001
0000
0100
0000
0000
0000
0010
0000
1000
0000
0000
0000
1000
0000
0010
0000
0100
0001
,
2000
0000
0000
0000
0000
0000
0000
0000
0000
0000
0000
0000
0000
0000
0000
0000
0000
0000
0000
0000
0000
0000
0000
0000
0000
0000
0000
0000
0000
0000
3001
0100
0001
0000
0000
0000
0000
0000
0000
0000
0100
0000
0000
0000
0000
0000
0000
0000
0010
0000
0000
0000
0000
0000
0000
0000
0100
0000
0000
0000
0000
0000
0000
0000
,
0001
0000
1000
0000
0010
0000
0100
0000
0000
0000
0000
0000
0000
0000
1000
0010
,
2000
0000
3100
0000
1000
0010
0001
0020
,
0000
0031
0010
1000
0000
0100
0100
0000
,
1000
0001
0021
0000
0031
0001
1000
1000
,
0010
0000
0100
0000
0001
0000
0101
0000
0000
0000
1010
0000
0000
0000
1000
0010
,
0200
0000
0301
0000
1000
0100
1000
0010
,
0000
0100
0001
0101
0000
0100
0010
0000
,
1010
0000
2100
0000
3001
0100
0010
2200
,
0000
3300
0000
0110
0000
1001
0000
1000
,
1100
0000
0110
0000
0010
0001
0100
0010
,
0000
1001
0100
0100
0200
0000
0010
0000
,
0301
0000
0001
1000
1001
1000
0010
0100
,
0000
0000
0001
0000
1000
0000
0010
0000
0000
0000
0110
0000
0000
0000
0100
0001
,
0100
0000
0101
0000
0010
1000
0010
0100
,
0000
0001
1000
0020
0000
0130
0000
0010
,
1000
1000
0010
0000
0110
0000
1000
0100
,
0010
0100
0000
0100
1100
0000
0000
0011
,
0000
0101
0000
0010
0110
0000
1000
0100
,
0001
0010
0000
1000
1100
0000
1000
0000
,
0020
0000
0000
0100
0130
0000
0001
1000
,
0100
1000
0000
0010
0100
0000
0100
0101
,
0000
1001
0000
1000
1100
0000
0000
0110
,
0000
0101
0000
0011
0000
0000
0000
1001
,
0000
0000
0000
0000
0000
0000
0000
0000
0010
0000
0000
0000
1002
0000
0000
0000
0000
0000
0000
0000
0000
0000
0000
0000
1000
0000
1000
2000
0000
0000
0000
0003
,
3001
0100
0010
1000
0100
1100
0000
0010
,
1000
1000
1000
1000
0010
0000
1010
0000
,
0010
0100
0000
0101
0000
0001
1000
0010
,
0110
0000
0000
0000
0010
0000
1000
0010
0100
0000
0001
0000
0001
0000
0000
0000
,
1000
0001
0000
1001
0000
0010
0100
0001
,
0100
0100
0100
0100
0010
0000
0101
0000
,
0100
0010
0000
1010
0000
1000
0100
1000
,
1010
0000
0000
0000
0010
0000
0100
0010
1000
0000
0001
0000
0002
0000
0000
0000
,
1003
0000
0010
0000
0100
0010
1000
1010
,
0000
1000
0100
1100
0000
1001
0000
0100
,
0101
0000
0011
0000
0010
0001
0100
0001
,
0000
0001
1000
1100
0000
1001
0000
0100
,
0101
0000
0000
0000
0000
0000
0100
0000
0000
0000
0000
0000
0010
0000
1000
0000
0010
0000
0000
0000
0000
0000
0000
0000
0001
0000
1000
0001
1000
0000
0010
0000
,
0100
0000
0000
0001
1001
0000
1000
0000
0010
0100
0001
0000
1000
0010
0200
0000
,
0301
0000
0000
0000
0000
0000
1000
0000
0000
0000
0000
0000
0010
0000
0100
0000
0010
0000
0000
0000
0000
0000
0000
0000
1000
0000
0010
1000
0010
0000
0100
0000
,
0001
0000
0000
0000
0000
0000
1000
0000
1010
0000
0000
0000
1100
0000
0000
0000
1000
0000
0100
0000
1000
0000
0010
0000
0100
0000
0001
0000
0010
0001
0010
0001
,
0100
0010
0100
0001
1000
1020
0000
1030
,
0010
0010
0010
0010
0100
0000
0101
0000
,
1000
0010
0000
0001
0010
1000
0100
1000
,
1100
0000
0000
0000
1000
0000
0001
0100
0010
0000
0100
0000
0100
0000
0000
0000
,
0010
1000
0010
0100
0000
0001
1000
0100
,
1000
1000
1000
1000
0001
0000
0011
0000
,
0001
0100
0000
1001
0000
1000
0100
1000
,
1010
0000
0000
0000
1000
0000
0001
0100
0010
0000
1000
0000
2000
0000
0000
0000
,
3001
0010
1000
0010
0000
0001
1000
0010
,
2010
0000
3000
0001
0101
0000
1100
0000
,
1000
0100
0001
0100
1000
0010
0010
0010
,
0100
0000
0000
0000
0100
0000
0001
0100
0010
0000
0100
0000
0100
0000
0000
0000
,
1000
0010
0000
0011
0000
0010
1000
0100
,
0020
0000
0000
0031
1000
0010
1010
0000
,
0010
0100
0000
0110
0000
0100
0100
0010
,
0020
0000
0000
0000
0000
0000
1030
0010
0100
0000
0001
0000
0001
0000
1000
0000
,
1001
0000
1001
0000
0001
0010
2000
0010
,
3000
0001
0010
1000
0000
0100
0000
1000
,
1010
0000
1100
0000
1000
0100
0002
0100
,
0003
1000
0010
0110
0000
0101
0000
0001
,
2002
0000
0000
0000
,
0000
0000
0000
0000
,
3003
0000
0000
0000
;

//---------------dance-single - ----------------
#NOTES:
     dance-single:
     :
     Medium:
     7:
     0.471,0.620,0.299,0.352,0.031:
0000
0000
0000
0000
,
0000
0000
0000
0000
,
1000
0000
0000
0000
0010
0000
1000
0000
0010
0000
0000
0100
0000
0000
0001
0000
,
1000
0000
0000
0000
0100
0000
1000
0000
0010
0000
0000
0100
0000
0000
0010
0000
,
2000
0000
0000
0000
3001
0000
1000
0001
,
1000
0010
0200
0000
,
0301
0000
1001
0000
0101
0000
0100
0010
,
0100
0010
2000
0000
,
3001
0001
0002
0000
0103
0000
0010
0100
,
0010
1000
0010
0010
,
0100
0001
0200
0000
0301
0000
1000
0001
,
1000
1010
0101
0000
,
1001
0000
1100
0000
1010
0000
1000
0010
,
0000
0000
0000
0100
0000
0001
0000
1000
,
1000
0000
0010
0000
0101
0000
0001
1000
,
0000
0010
0200
0000
0020
0000
0330
0000
,
1000
0000
0001
0000
1001
0000
1000
0010
,
0100
0000
0001
0010
0000
0100
0000
0100
,
0100
0000
2000
0000
3010
0000
0001
0100
,
0001
0010
0001
0000
0010
0000
0001
0000
,
1000
1000
1000
0000
2000
0000
0000
0010
,
3010
0000
0010
0000
0200
0000
0000
0001
,
0300
0001
0000
0001
2000
0000
0000
0010
,
3010
0100
0200
0010
,
0010
0000
0000
0010
0310
0000
1000
0010
,
1000
0001
0000
0001
0100
0000
0000
0010
,
0000
0100
0000
0100
0001
0000
0000
1000
,
0000
0010
0000
0100
0000
0000
0000
0001
,
0000
0000
0000
0202
0000
0000
0300
0000
,
1003
0000
0001
0000
1000
0010
0000
0010
,
0200
0302
0203
0320
,
1030
0000
1010
0000
0010
0100
0100
0000
,
0102
0000
0000
1000
1003
0001
1000
0000
,
1001
1000
0010
0100
,
0001
0100
0001
0000
1000
0010
1000
0000
,
0100
0010
0011
1001
,
2010
0000
0000
0010
3010
1000
0010
0100
,
0001
0000
1001
0000
1000
0000
0001
0100
,
0000
0100
0010
0100
0000
0001
0000
0001
,
1000
0000
1001
0000
1000
0000
0100
0010
,
0000
0010
0001
1000
0000
0010
0000
0010
,
1000
0000
0000
0010
0000
0000
0100
0000
0200
0000
0000
0000
0302
0000
0000
0000
,
2003
0000
0000
0100
3100
0000
1000
0000
0020
0000
0000
0000
0230
0000
0000
0000
,
0302
0000
0000
1000
1003
0000
1000
0000
2000
0000
0001
0000
3002
0000
1000
0000
,
0103
0000
0000
0100
0100
0000
0001
0000
1000
0000
0100
0000
0010
0000
0001
1000
,
0001
0000
1000
0010
0000
1000
0000
0010
,
0200
0301
0002
0103
,
0110
0000
0010
1000
0000
1000
0010
0010
,
0100
0000
0000
0001
1000
1000
0001
0000
,
1000
0000
0010
0000
0001
0100
0001
0000
,
2001
3002
0203
0302
,
1003
0001
0000
0100
0000
0010
2000
0000
,
3010
0000
0000
0100
0100
0001
2000
0000
,
3001
1001
1000
1010
,
0110
0000
0000
1000
0001
0000
1001
0000
,
2000
0001
3000
0001
0000
0001
0200
0000
,
0301
0000
0000
0010
0001
0001
0100
0000
,
0110
0000
1010
0000
1000
0010
1000
0000
,
0101
0000
0000
1000
0010
0100
0010
0000
,
1000
0001
0000
0100
0000
0010
0000
0010
,
1000
0000
0000
0001
1000
1000
0001
0000
,
1001
0000
0110
0000
1001
0000
1000
0001
,
0000
0000
1000
0001
0000
1000
0000
0010
,
0110
0000
1001
0000
0110
0000
0010
0100
,
0000
0000
0010
0100
0000
0001
0000
1000
,
2200
0000
0000
0000
,
0000
0000
0000
0000
,
3300
0000
0000
0000
;

//---------------dance-single - ----------------
#NOTES:
     dance-single:
     :
     Easy:
     5:
     0.338,0.384,0.238,0.432,0.000:
0000
0000
0000
0000
,
0000
0000
0000
0000
,
2000
0001
3001
1000
,
0020
0100
0130
0001
,
2000
0000
3010
0100
,
0001
0000
0201
0000
,
0301
0001
2000
0000
,
3010
0010
0200
0000
,
0301
0002
1003
0010
,
0100
0001
2000
3000
,
0001
0001
1000
0010
,
1010
1000
0002
0000
,
1003
0001
1001
0000
,
0110
0000
1000
1000
,
0001
0100
0020
0000
,
0230
0000
0302
0000
,
1003
1000
1001
0001
,
0100
0010
2000
3001
,
0001
2000
3020
0000
,
0230
0000
0320
0000
,
1030
0001
1001
0000
,
1000
0000
1020
0000
,
0030
0000
0101
0000
,
0001
0000
0201
0001
,
0301
0000
1001
0000
,
0010
0000
2001
0000
,
3000
0001
0001
0000
,
1000
0010
1000
0000
,
0110
0000
0200
0000
,
0310
0100
0010
0000
,
0100
0100
0200
0000
,
0301
0100
0010
0000
,
1000
1000
2000
0000
,
3001
1000
0001
0000
,
0100
0100
0200
0000
,
0310
1000
0010
0000
,
0010
0100
0002
0000
,
1003
0001
1000
0000
,
1001
0000
1001
0000
,
0010
0100
0010
0000
,
0110
0000
0110
0100
,
0002
0000
1000
1000
,
2003
0000
0000
0010
0010
0000
0010
0000
,
3020
0000
0000
0000
0100
0000
0000
0100
,
0230
0000
0001
0000
0010
0010
0001
0001
,
0301
1000
0010
0100
,
0020
0000
0200
0030
,
0301
0001
1000
1000
,
0020
0000
0230
0000
,
0301
1000
0001
1000
,
0002
0000
2003
0010
,
3001
0000
1001
0001
,
2000
0000
3010
0010
,
0110
0100
0001
1000
,
0020
0030
0100
0100
,
0001
1000
0100
1000
,
0020
0030
0200
0301
,
0101
1000
0010
0010
,
0200
0000
0301
0001
,
1001
1000
0100
1000
,
0020
0000
0130
0100
,
0210
0300
1002
0003
,
1100
1000
2000
3000
,
2001
3000
0201
0300
,
0012
0013
0010
0001
,
2002
0000
0000
0000
,
0000
0000
0000
0000
,
3003
0000
0000
0000
;

//---------------dance-single - ----------------
#NOTES:
     dance-single:
     :
     Beginner:
     1:
     0.082,0.115,0.053,0.132,0.000:
0000
0000
0000
0000
,
0000
0000
0000
0000
,
2000
0000
3001
0001
,
0002
0000
1003
1000
,
2000
0000
3010
0000
,
0010
0000
0200
0000
,
0300
0000
0001
0000
,
0001
0000
2000
0000
,
3000
0100
0100
0000
,
0100
0000
0020
0000
,
0030
0000
0001
0000
,
0001
0000
2000
0000
,
3000
0020
1030
0000
,
0000
0000
1001
0000
,
0000
0000
0110
0000
,
0000
0000
1000
0000
,
0010
0000
0200
0000
,
0300
0000
0001
0000
,
1000
0000
0002
0000
,
0003
1000
1000
0000
,
0010
0000
0200
0000
,
0300
0000
0020
0000
,
0030
0000
2000
0000
,
3000
0000
0002
0000
,
0003
0000
1001
0000
,
0000
0000
1001
0000
,
0000
0000
0110
0000
,
0100
0000
0101
0000
,
0001
0000
2000
0000
,
3000
0000
0000
0000
;
