#TITLE:Eat 'Em Up!;
#SUBTITLE:;
#ARTIST:Hiroshi Ohkuba;
#TITLETRANSLIT:;
#SUBTITLETRANSLIT:;
#ARTISTTRANSLIT:;
#CREDIT:Plaguefox (gamecast.org/plaguemix);
#BANNER:eatemup-bn.png;
#BACKGROUND:eatemup-bg.jpg;
#LYRICSPATH:;
#CDTITLE:pm2cd.png;
#MUSIC:eatemup.ogg;
#OFFSET:-0.010;
#SAMPLESTART:37.910;
#SAMPLELENGTH:15.000;
#SELECTABLE:YES;
#BPMS:0.000=151.998;
#STOPS:;
#BGCHANGES:;

//---------------dance-single - LIGHT----------------
#NOTES:
     dance-single:
     LIGHT:
     Easy:
     4:
     0.373,0.405,0.067,0.403,0.034:
0000
0000
0000
0000
,
0000
0000
0000
0000
,
0000
0000
0000
0000
,
0000
0000
0000
0000
,
1000
0100
0001
0001
,
0001
0100
1000
1000
,
1000
0100
0001
0001
,
0001
0000
0100
0000
,
1000
1000
0001
0001
,
1000
0100
0001
0001
,
1000
1000
0001
0001
,
1000
0000
0000
0010
0000
0000
0100
0000
0000
0001
0000
0000
1000
0000
0000
0000
,
0001
0001
1000
1000
,
0001
0100
1000
1000
,
0001
0001
1000
1000
,
0001
0000
0000
0100
0000
0000
0010
0000
0000
1000
0000
0000
0001
0000
0000
0000
,
1000
0200
0010
0310
,
0001
0200
0010
0310
,
1000
0200
0010
0310
,
0001
1000
0100
1000
,
0001
0020
0100
0130
,
1000
0020
0100
0130
,
0001
0020
0100
0130
,
1000
0001
0010
0001
,
1000
0100
1000
0100
,
1000
0100
1000
0100
,
0010
0010
0001
0001
,
1000
0000
0000
0001
0000
0000
1000
0000
,
0001
0100
0001
0100
,
0001
0100
0001
0100
,
0010
0010
1000
1000
,
0001
0000
0000
1000
0000
0000
0001
0000
,
0100
0100
0001
0001
,
0010
0010
0010
1000
,
0100
0100
0001
0001
,
0010
0010
0010
0001
,
0100
0100
1000
1000
,
0010
0000
0000
0020
0000
0000
0000
0000
,
0000
0000
0000
0000
0000
0030
0000
1001
,
0000
1001
0000
0100
0010
0100
0010
0000
,
2000
0000
0000
3000
0200
0000
0000
0300
,
0002
0000
0000
0003
0200
0000
0000
0300
,
2000
0000
0000
3000
0020
0000
0000
0030
,
0200
0000
0000
0000
0001
0000
0001
0300
,
0002
0000
0000
0003
0200
0000
0000
0300
,
2000
0000
0000
3000
0200
0000
0000
0300
,
0002
0000
0000
0003
,
1000
0000
0000
0001
0000
0000
1000
0000
0000
0001
0000
0000
1000
0000
0000
0000
,
0010
0020
0031
0002
,
0103
0200
0310
0020
,
1030
2000
3001
0002
,
0103
0100
0001
1000
,
0010
0020
1030
2000
,
3100
0200
0310
0020
,
0031
0002
0103
0100
,
0000
0000
1001
0000
0000
0010
0000
0000
0100
0000
0000
0000
2002
0000
0000
0000
,
0000
0000
0000
3003
,
1000
0200
0010
0310
,
0001
0200
0310
1001
,
0001
0200
0010
0310
,
1000
0200
0310
1001
,
1000
2000
3100
0200
,
0310
0020
0031
1001
,
0001
0002
0013
0020
,
0130
0000
0200
0000
1300
0001
1000
0100
;

//---------------dance-single - STANDARD----------------
#NOTES:
     dance-single:
     STANDARD:
     Medium:
     6:
     0.448,0.498,0.134,0.201,0.048:
0000
0000
0000
0000
,
0000
0000
0000
0000
,
0000
0000
0000
0000
,
0000
0000
0000
0000
,
0010
1000
0100
1000
0010
0000
0001
0000
,
0010
0001
0100
0001
0010
0000
1000
0000
,
0100
1000
0010
1000
0100
0000
0001
0000
,
0000
0000
1001
0000
,
1000
0100
0010
0000
0001
0000
0010
0000
,
0001
0100
0010
0000
1000
0000
0010
0000
,
1000
0100
0010
0000
0001
0000
0010
0000
,
1000
0000
0000
1000
0000
0000
0100
0000
0000
0001
0000
0000
0001
0000
0000
0000
,
0001
0010
0100
0000
1000
0000
0100
0000
,
1000
0010
0100
0000
0001
0000
0100
0000
,
0001
0010
0100
0000
1000
0000
0100
0000
,
0001
0000
0000
0001
0000
0000
0100
0000
0000
1000
0000
0000
1000
0000
0000
0000
,
1001
0000
0000
0000
0100
0000
0000
0000
1001
0000
0000
0000
0100
0000
0000
0010
,
1000
0000
0100
0000
1000
0001
0100
0001
,
0101
0010
1001
0010
,
0100
1000
0100
1000
0100
1000
1100
0000
,
1001
0000
0000
0000
0100
0000
0000
0000
1001
0000
0000
0000
0100
0000
0000
0010
,
0001
0000
0100
0000
0001
1000
0100
1000
,
1100
0010
1001
0010
,
0100
0001
0100
0001
0100
0001
0101
0000
,
0001
0001
0001
0000
0010
0000
0100
0000
,
1000
1000
1000
1000
0010
0000
0100
0000
,
0001
0001
0001
0000
0010
0000
0100
1000
,
0000
1000
1000
1000
0010
0000
0100
0001
,
0000
0001
0001
0000
0010
0000
0100
1000
,
1000
1000
0000
0000
0010
0000
0100
0000
,
0001
0001
0001
0000
0010
0000
0100
0000
,
1000
0001
0001
0100
0001
0001
0010
0001
,
2000
0100
0001
3100
,
0001
0100
0010
0100
0001
0000
0001
0000
,
0002
0100
1000
0103
,
1000
0100
0010
0100
1000
0000
1000
0000
,
2000
0100
0001
3100
,
0001
0100
0010
0200
0000
0000
0000
0000
,
0000
0000
0000
0000
0300
0000
0000
1001
,
0000
1001
0000
0010
0100
0001
1000
0000
,
0020
0000
2030
0000
,
3200
0000
2300
0000
,
3002
0000
0203
0000
,
0320
0000
0000
0000
0000
0000
0000
0000
0000
0000
0100
0000
0030
0100
0000
0000
,
0200
0000
0302
0000
,
2003
0000
3200
0000
,
0320
0000
0000
0030
,
0001
0000
0000
0001
0000
0000
0100
0000
0000
1000
0000
0000
1000
0000
0000
0000
,
1000
0100
0010
0000
0001
0000
0010
0000
,
0001
0010
0100
0000
1000
0000
0100
0000
,
1000
0100
0010
0000
0001
0000
0100
0000
,
0010
1000
0100
0010
0001
0100
0010
0000
,
1000
0100
0010
0000
0001
0000
0010
0000
,
0001
0010
0100
0000
1000
0000
0100
0000
,
1000
0100
0010
0000
0001
0000
0010
0000
,
0000
0000
1000
0000
0000
0001
0000
0000
1000
0000
0000
0000
2002
0000
0000
0000
,
0000
0000
0000
3003
,
1000
0001
0100
0000
0001
1000
0100
0000
,
1000
0001
0100
0001
2000
0000
3001
0000
,
0001
1000
0010
0000
0010
1000
0001
0000
,
0001
1000
0010
1000
0002
0000
1003
0000
,
1000
0100
1000
0000
0001
0010
0001
0000
,
1000
0100
0001
0100
2000
0000
3001
0000
,
1000
0100
0001
0000
0001
0100
1000
0000
,
1000
0100
0001
0100
1000
0001
0100
1000;

//---------------dance-single - HEAVY----------------
#NOTES:
     dance-single:
     HEAVY:
     Hard:
     8:
     0.573,0.529,0.163,0.134,0.106: // measure 1
0000
0000
0000
0000
,  // measure 2
0000
0000
0000
0000
,  // measure 3
0000
0000
0000
0000
,  // measure 4
0000
0000
0000
0000
,  // measure 5
1000
0000
0100
0000
0010
0000
0100
0000
1000
0010
0000
0000
0100
0000
0000
0000
,  // measure 6
0001
0000
0100
0000
0010
0000
0100
0000
0001
0010
0000
0000
0100
0000
0000
0000
,  // measure 7
1000
0000
0100
0000
0001
0000
0100
0000
1000
0001
0000
0000
0100
0000
0000
0000
,  // measure 8
0000
0000
0000
0000
,  // measure 9
1000
0100
0010
0100
1000
0010
0100
0010
,  // measure 10
1000
0100
0010
0100
1000
0010
0100
0010
,  // measure 11
1000
0100
0010
0100
1000
0010
0100
0010
,  // measure 12
1000
0000
0000
1000
0000
0000
1001
0000
0000
0001
0000
0000
0001
0000
0000
0000
,  // measure 13
0001
0100
0010
0100
0001
0010
0100
0010
,  // measure 14
0001
0100
0010
0100
0001
0010
0100
0010
,  // measure 15
0001
0100
0010
0100
0001
0010
0100
0010
,  // measure 16
0001
0000
0000
0001
0000
0000
1001
0000
0000
1000
0000
0000
1000
0000
0000
0000
,  // measure 17
1000
0100
0001
0100
1000
0010
0001
0010
,  // measure 18
1000
0100
0001
0100
1000
0010
0001
0010
,  // measure 19
1000
0100
0001
0100
1000
0010
0001
0010
,  // measure 20
1000
0100
0001
0100
1000
0010
0101
0000
,  // measure 21
0001
0100
1000
0100
0001
0010
1000
0010
,  // measure 22
0001
0100
1000
0100
0001
0010
1000
0010
,  // measure 23
0001
0100
1000
0100
0001
0010
1000
0010
,  // measure 24
0001
0100
1000
0100
0001
0010
1100
0000
,  // measure 25
0001
0010
0100
0010
0001
0010
0100
0010
,  // measure 26
0001
0010
0100
0010
0001
0010
0100
1000
,  // measure 27
0010
1000
0010
1000
0001
0100
0001
0100
,  // measure 28
0010
1000
0001
0100
0100
0001
1000
0010
,  // measure 29
1000
0010
0100
0010
1000
0010
0100
0010
,  // measure 30
1000
0010
0100
0010
1000
0010
0100
0001
,  // measure 31
0010
0001
0010
0001
1000
0100
1000
0100
,  // measure 32
0010
0001
1000
0100
0100
1000
0001
0010
,  // measure 33
0100
1000
0100
1000
0100
0010
0100
0010
,  // measure 34
0100
0001
0100
0001
0100
0001
0100
1000
,  // measure 35
0010
1000
0010
1000
0010
0100
0010
0100
,  // measure 36
0010
0001
0010
0001
0010
0001
0010
1000
,  // measure 37
0100
1000
0100
1000
0100
0010
0100
0010
,  // measure 38
0100
1000
0100
2000
0000
0000
0000
0000
,  // measure 39
0000
0000
0000
0000
0000
3000
0000
0001
,  // measure 40
0000
1001
0000
1001
0110
1001
0110
0000
,  // measure 41
0020
0000
0230
0000
,  // measure 42
2300
0000
3002
0000
,  // measure 43
0203
0000
0320
0000
,  // measure 44
2030
0000
0000
0000
3010
0100
0010
0100
,  // measure 45
0020
0000
0230
0000
,  // measure 46
0302
0000
2003
0000
,  // measure 47
3200
0000
0000
0000
,  // measure 48
1300
0000
0000
1100
0000
0000
0101
0000
0000
0101
0000
0000
1001
0000
0000
0000
,  // measure 49
1000
0000
0100
0000
0010
0000
0100
0000
1000
0010
0000
0100
0000
0000
0000
0000
,  // measure 50
0001
0000
0100
0000
0010
0000
0100
0000
0001
0010
0000
0100
0000
0000
0000
0000
,  // measure 51
1000
0000
0100
0000
0001
0000
0100
0000
1000
0001
0000
0100
0000
0000
0000
0000
,  // measure 52
0010
1000
0010
0100
0010
0001
0010
0000
,  // measure 53
1000
0000
0100
0000
0010
0000
0100
0000
1000
0010
0000
0100
0000
0000
0000
0000
,  // measure 54
0001
0000
0100
0000
0010
0000
0100
0000
0001
0010
0000
0100
0000
0000
0000
0000
,  // measure 55
1000
0000
0100
0000
0001
0000
0100
0000
1000
0001
0000
0100
0000
0000
0000
0000
,  // measure 56
0000
0000
1000
0000
0000
0100
0000
0000
0001
0000
0000
0000
0200
0000
0000
0000
,  // measure 57
0000
0000
0000
0300
,  // measure 58
1000
0100
0010
0100
1000
0010
0100
0010
,  // measure 59
1000
0100
0010
0100
1000
0000
1001
0000
,  // measure 60
0001
0100
0010
0100
0001
0010
0100
0010
,  // measure 61
0001
0100
0010
0100
0001
0000
1001
0000
,  // measure 62
1000
0010
0001
0010
1000
0100
0001
0100
,  // measure 63
1000
0010
0001
0010
1000
0000
1001
0000
,  // measure 64
0001
0100
1000
0100
0001
0010
1000
0010
,  // measure 65
0001
0100
1000
0100
0001
0010
0100
1100
;
