#TITLE:Black Betty;
#SUBTITLE:;
#ARTIST:Spiderbait;
#TITLETRANSLIT:;
#SUBTITLETRANSLIT:;
#ARTISTTRANSLIT:;
#GENRE:;
#CREDIT:;
#BANNER:black betty-banner.jpg;
#BACKGROUND:Black Betty-back.png;
#LYRICSPATH:;
#CDTITLE:;
#MUSIC:Black Betty.mp3;
#OFFSET:1.025000;
#SAMPLESTART:19.554996;
#SAMPLELENGTH:12.000000;
#SELECTABLE:YES;
#BPMS:0.000000=124.009995
,169.000000=124.110001
,177.500000=124.009995
,195.000000=124.310005
,202.000000=124.009995
;
#STOPS:
;
#BGCHANGES:0.000=Black Betty.avi=1.000=0=0=1=====,
99999=-nosongbg-=1.000=0=0=0 // don't automatically add -songbackground-
;
#KEYSOUNDS:;
#ATTACKS:;

//---------------dance-single - ----------------
#NOTES:
     dance-single:
     :
     Medium:
     9:
     0.231118,0.432059,0.262351,0.262351,0.003644,222.000000,186.000000,36.000000,36.000000,0.000000,0.000000,0.231118,0.432059,0.262351,0.262351,0.003644,222.000000,186.000000,36.000000,36.000000,0.000000,0.000000:
// measure 0
0000
0000
0000
0000
,  // measure 1
0000
0000
0000
0000
,  // measure 2
0000
0000
0000
0000
,  // measure 3
0000
0000
0000
0000
,  // measure 4
0000
0000
0000
0000
,  // measure 5
0000
0000
0000
0000
,  // measure 6
0000
0000
0000
0000
0000
0001
2200
0000
,  // measure 7
3300
0000
0000
0000
0000
1000
0100
0022
,  // measure 8
0000
0000
0000
0000
0033
1000
0202
0000
,  // measure 9
0303
0000
0000
0000
0000
0001
0100
2020
,  // measure 10
0000
0000
0000
0000
3030
0001
0220
0000
,  // measure 11
0330
0000
0000
0000
0000
0010
0100
2002
,  // measure 12
0000
0000
0000
0000
3003
1000
0220
0000
,  // measure 13
0330
0000
0000
0000
0000
0100
0010
2002
,  // measure 14
0000
0000
0000
0000
,  // measure 15
0000
0000
0000
0000
3003
1001
0000
0000
,  // measure 16
0000
0000
0000
0000
,  // measure 17
0000
0000
0000
0000
,  // measure 18
0000
1100
0000
0000
0000
0000
0000
0000
,  // measure 19
0000
0101
0000
0000
0000
0000
0000
0000
,  // measure 20
0000
0011
0000
0000
0000
0000
0000
0000
,  // measure 21
0000
1010
0000
0000
0000
0000
0000
0000
,  // measure 22
0000
0110
0000
0000
0000
0000
0000
0000
,  // measure 23
0000
1001
0000
0000
0000
1000
0202
0000
,  // measure 24
0303
0000
0000
0000
0000
0001
0100
2020
,  // measure 25
0000
0000
0000
0000
,  // measure 26
0000
0000
0000
0000
3030
0000
1000
0100
,  // measure 27
0010
0100
0010
0001
0010
0100
1000
0001
,  // measure 28
1000
0001
0100
0010
1000
0010
0100
0001
,  // measure 29
0100
0010
1000
0100
0010
0001
0010
0100
,  // measure 30
1000
0010
0100
0001
1000
0001
0200
0000
,  // measure 31
0000
0000
0000
0020
,  // measure 32
0000
0000
0000
0000
0330
0110
0000
0000
,  // measure 33
0000
0000
0000
0000
,  // measure 34
0000
0000
0000
0000
,  // measure 35
0000
0101
0000
0000
0000
0000
0000
0000
,  // measure 36
0000
1100
0000
0000
0000
0000
0000
0000
,  // measure 37
0000
1010
0000
0000
0000
0000
0000
0000
,  // measure 38
0000
0011
0000
0000
0000
0000
0000
0000
,  // measure 39
0000
0110
0000
0000
0000
0000
0000
0000
,  // measure 40
0000
0000
1001
0000
0000
0000
0000
0000
0000
0000
0000
0000
2000
0000
0000
3000
,  // measure 41
0010
0000
0100
0000
0001
0000
1000
0000
0100
0000
0010
0000
0002
0000
0000
0003
,  // measure 42
0100
0010
0200
0000
0000
0000
0000
0000
,  // measure 43
0000
0000
0000
0000
,  // measure 44
0000
0000
0000
0300
0000
0000
0010
0100
,  // measure 45
0010
2002
3003
0010
0100
0001
1000
0100
,  // measure 46
0010
0002
0000
0003
1000
0000
0000
0000
1001
0000
0000
0000
1100
0000
0000
0000
,  // measure 47
0000
0101
0000
0011
,  // measure 48
1010
1001
0101
0220
,  // measure 49
0000
0000
0000
0000
,  // measure 50
0000
0000
0330
1000
,  // measure 51
0000
0001
0000
1000
,  // measure 52
0000
0001
0000
1000
,  // measure 53
0010
0100
0001
1000
,  // measure 54
0100
0010
0001
1000
,  // measure 55
0001
0010
0100
0000
1000
0000
0100
0000
,  // measure 56
0001
0100
1000
0000
0010
0000
0001
0000
,  // measure 57
0010
1000
0001
0000
0010
0000
0100
0000
,  // measure 58
1000
0010
0100
0000
0001
0000
0100
0000
,  // measure 59
0010
1000
0100
0000
0010
0000
0001
0000
,  // measure 60
0010
0100
1000
0000
0001
0010
2002
0000
,  // measure 61
3003
0000
0000
0000
0000
1000
0010
0202
,  // measure 62
0000
0000
0000
0000
,  // measure 63
0000
0000
0000
0000
0303
0000
1000
0100
,  // measure 64
1000
0100
0010
0001
0010
0001
0100
0001
,  // measure 65
0100
0001
1000
0010
1000
0010
0100
0010
,  // measure 66
0100
0010
1000
0001
1000
0001
1000
0100
,  // measure 67
0010
0001
1000
0010
0100
0001
2000
0000
,  // measure 68
0000
0000
0000
0002
,  // measure 69
0000
0000
3003
0110
;

//---------------dance-single - ----------------
#NOTES:
     dance-single:
     :
     Hard:
     13:
     0.448703,0.559135,0.138463,0.233200,0.116600,431.000000,412.000000,19.000000,32.000000,0.000000,0.000000,0.448703,0.559135,0.138463,0.233200,0.116600,431.000000,412.000000,19.000000,32.000000,0.000000,0.000000:
// measure 0
0000
0000
0000
0000
,  // measure 1
0000
0000
0000
0000
,  // measure 2
0000
0000
0000
1000
,  // measure 3
0010
0100
0001
1000
,  // measure 4
0100
0010
0001
1000
,  // measure 5
0100
0001
0100
1000
,  // measure 6
0001
0000
0100
0000
0010
1000
0002
0000
,  // measure 7
0103
0000
0010
0000
0100
0001
1000
0020
,  // measure 8
0000
0000
0100
0000
0130
0001
2000
0000
,  // measure 9
3100
0000
0010
0000
0100
1000
0001
0020
,  // measure 10
0000
0000
0100
0000
0130
1000
2100
0000
,  // measure 11
3001
0000
0100
0000
0010
1000
0001
0200
,  // measure 12
0000
0000
0010
0000
0310
0001
0102
0000
,  // measure 13
1003
0000
0100
0000
0010
0001
1000
0200
,  // measure 14
0000
0000
0010
0000
0310
0000
0001
0010
,  // measure 15
0100
1000
0010
0100
0001
1000
0001
0000
,  // measure 16
0100
0010
0100
0001
,  // measure 17
1000
0100
0010
0100
,  // measure 18
1000
0010
0100
0000
0001
0000
0100
0000
,  // measure 19
0010
1000
0001
0000
0010
0000
0100
0000
,  // measure 20
1000
0100
0010
0000
0001
0000
0100
0000
,  // measure 21
1000
0100
0001
0000
0010
0000
1000
0000
,  // measure 22
0010
0001
1000
0000
0010
0000
0100
0000
,  // measure 23
0001
0010
0100
0000
1000
0010
0200
0000
,  // measure 24
0301
0000
1000
0000
0001
0100
0010
0120
,  // measure 25
0000
0000
0100
0000
0130
0000
1000
0010
,  // measure 26
1000
0000
0010
0000
0100
0001
0100
0001
0100
0000
0001
0000
1000
0000
0100
0000
,  // measure 27
1000
0100
0001
0100
0001
0100
1000
0010
,  // measure 28
1000
0010
0001
0010
0001
0010
1000
0010
,  // measure 29
0100
0001
0010
0100
1000
0001
0100
0010
,  // measure 30
1000
0100
0010
0001
0100
0010
2001
0000
,  // measure 31
0010
0100
3001
1002
,  // measure 32
0010
0000
0100
0000
1003
0000
1000
0100
,  // measure 33
1000
0001
0100
0001
1000
0010
1000
0001
,  // measure 34
0010
0001
0010
0100
0010
0100
1000
0001
,  // measure 35
1000
0001
0100
0010
1000
0010
0100
0001
,  // measure 36
0010
0100
1000
0100
0010
0100
0001
0100
,  // measure 37
1000
0010
0100
0010
1000
0001
0010
0100
,  // measure 38
1000
0100
0001
0100
1000
0001
0100
1000
,  // measure 39
0100
0001
1000
0010
0100
0001
1000
0100
,  // measure 40
0010
0000
0001
0000
0100
0000
0010
0000
1000
0000
0000
0000
2100
0000
0000
3000
,  // measure 41
0010
0100
0001
0000
1000
0000
0100
0000
0010
0000
0001
0000
0102
0000
0000
0003
,  // measure 42
0010
0100
1000
0000
0002
0000
0000
0000
0000
0000
0000
0000
0000
0000
0000
0000
,  // measure 43
0000
0000
0000
0000
,  // measure 44
0000
0000
0000
0003
0000
0000
1000
0001
,  // measure 45
1000
0000
0220
0000
0330
0000
1000
0000
0010
0100
0001
0000
1000
0000
0100
0000
,  // measure 46
0010
0002
0000
0003
1000
0000
0000
0000
0110
0000
0000
0000
2020
0000
0000
0000
,  // measure 47
3030
0202
0303
1100
,  // measure 48
0011
0000
0010
0100
0010
0000
2002
0000
,  // measure 49
0000
0000
0000
0000
,  // measure 50
0000
0000
3003
1000
,  // measure 51
0100
0010
0100
1000
,  // measure 52
0010
0000
0000
0000
0100
0000
0000
0000
0001
0000
0000
0000
1000
0010
1000
0000
,  // measure 53
0001
0000
0100
0000
0001
0010
0001
0000
1000
0000
0100
0000
0010
0100
0010
0000
,  // measure 54
0001
0000
1000
0000
0010
0100
0010
0000
1000
0000
0001
0000
0010
0100
1000
0000
,  // measure 55
0010
0000
0100
0000
0001
1000
0100
0000
1000
0000
0010
0000
1000
0100
0010
0000
,  // measure 56
0001
0000
0010
0000
0100
1000
0001
0000
0100
0000
0010
0000
1000
0010
0100
0000
,  // measure 57
0001
0000
1000
0000
0010
0100
0010
0000
0100
0000
0001
0000
0010
0100
0010
0000
,  // measure 58
0100
0000
1000
0000
0001
0100
1000
0000
0100
0000
0001
0000
1000
0100
0001
0000
,  // measure 59
0100
0000
1000
0000
0010
0100
0001
0000
1000
0000
0001
0000
0010
0100
1000
0000
,  // measure 60
0001
0000
1000
0000
0010
0100
0001
0000
1000
0000
0010
0000
1002
0000
0000
0000
,  // measure 61
0103
0000
0010
0000
1000
0010
0100
0102
,  // measure 62
0000
0000
1000
0000
1003
0000
0010
0100
,  // measure 63
0001
0000
1000
0000
0100
0010
0001
0100
0010
0000
1000
0000
0001
0000
0010
0000
,  // measure 64
0100
0000
1000
0020
0000
0030
0100
0000
0001
1000
0001
0000
1000
0000
0010
0000
,  // measure 65
0100
0000
0001
0020
0000
0030
0100
0000
1000
0001
1000
0000
0010
0000
0100
0000
,  // measure 66
0010
0000
1000
0200
0000
0300
0010
0000
0001
0010
0100
0000
0010
0000
0100
0000
,  // measure 67
0010
0000
0001
0200
0000
0300
0010
0000
1000
0010
0100
0000
1002
0000
0000
0000
,  // measure 68
0100
0010
1003
2001
,  // measure 69
0100
0010
3001
0110
;

//---------------dance-single - ----------------
#NOTES:
     dance-single:
     :
     Challenge:
     16:
     0.620480,0.660795,0.386238,0.204050,0.324294,596.000000,543.000000,53.000000,28.000000,0.000000,0.000000,0.620480,0.660795,0.386238,0.204050,0.324294,596.000000,543.000000,53.000000,28.000000,0.000000,0.000000:
// measure 0
0000
0000
0000
0000
,  // measure 1
0000
0000
0000
0000
,  // measure 2
0000
0000
0000
0000
0000
0000
1000
0010
,  // measure 3
0100
0001
1000
0100
0010
0001
0100
1000
,  // measure 4
0100
0010
1000
0100
0001
0100
0010
0001
,  // measure 5
1000
0000
0010
0000
0100
0000
0010
0000
1000
0000
0001
0020
0000
0000
0000
0030
,  // measure 6
0100
0000
1000
0002
0000
0003
1000
0000
0010
0100
0001
0000
0110
0000
1000
0000
,  // measure 7
0010
0000
0100
0000
0001
0100
1000
0000
0100
0000
0001
0000
0010
0000
1100
0000
,  // measure 8
0010
0000
0100
0000
0001
0100
1000
0000
0001
0000
1000
0000
0110
0000
0001
0000
,  // measure 9
0010
0000
0100
0000
1000
0100
0001
0000
0100
0000
1000
0000
0010
0000
0101
0000
,  // measure 10
0010
0000
0100
0000
1000
0100
0001
0000
1000
0000
0001
0000
1010
0000
0100
0000
,  // measure 11
0001
0000
0100
0000
0010
0100
0001
0000
1000
0000
0100
0000
0010
0000
0101
0000
,  // measure 12
1000
0000
0001
0000
0010
0100
1000
0000
0001
0000
1000
0000
0011
0000
0100
0000
,  // measure 13
1000
0000
0100
0000
0010
0100
1000
0000
0001
0000
0100
0000
0010
0000
1100
0000
,  // measure 14
0001
0000
1000
0000
0010
0100
0001
0000
1000
0000
0001
0000
0100
0000
0010
0000
,  // measure 15
1000
0000
0001
0000
0010
0100
1000
0100
0010
0000
1001
0000
1000
0000
0100
0000
,  // measure 16
0010
0100
1000
0100
0010
0100
0010
0001
,  // measure 17
0010
0100
0010
0001
0010
0100
1000
0001
,  // measure 18
0100
1001
0001
1000
0100
1000
0001
1000
,  // measure 19
0100
1001
0010
1000
0001
0100
0010
1000
,  // measure 20
0001
0110
0100
1000
0001
0010
0100
1000
,  // measure 21
0001
0110
1000
0100
0010
0001
0010
0100
,  // measure 22
1000
0110
0001
0100
0010
1000
0010
0100
,  // measure 23
0001
0110
1000
0010
0100
0001
1100
0010
,  // measure 24
0100
0000
0001
0000
0010
0100
1000
0000
0001
0000
1000
0000
0100
0000
0011
0000
,  // measure 25
0100
0000
1000
0000
0010
0100
0001
0000
1000
0000
0010
0000
0100
0001
1000
0001
,  // measure 26
0100
0001
0010
0001
0100
0010
1000
0100
0010
0000
0001
0000
1000
0000
0100
0000
,  // measure 27
1000
0000
0001
0020
0000
0030
0100
0000
1000
0001
0010
0000
0001
0000
0100
0000
,  // measure 28
0001
0000
1000
0020
0000
0030
0100
0000
0001
1000
0010
0000
1000
0000
0100
0000
,  // measure 29
0001
0000
0100
0020
0000
0030
0100
0000
1000
0001
1000
0000
0001
0000
0100
0000
,  // measure 30
1000
0000
0100
0020
0000
0030
0100
0000
0001
1000
0001
0000
0200
0000
0000
0000
,  // measure 31
0000
0000
0300
2002
,  // measure 32
0000
0000
0000
0000
0000
0000
0000
0000
3003
0000
0000
0000
1000
0100
0001
0000
,  // measure 33
0100
0000
1000
0000
0001
0010
1000
0000
0010
0000
0001
0000
1000
0100
0001
0000
,  // measure 34
0100
0000
0010
0000
0100
1000
0001
0000
0100
0000
0001
0000
1000
0010
0001
0000
,  // measure 35
0010
0000
1000
0000
0001
0100
1000
0000
0100
0000
0001
0000
1000
0010
0001
0000
,  // measure 36
0010
0000
0100
0000
0010
1000
0001
0000
0010
0000
0100
0000
1000
0100
0001
0000
,  // measure 37
0100
0000
0010
0000
0001
0100
1000
0000
0100
0000
0010
0000
1000
0100
0010
0000
,  // measure 38
0001
0000
1000
0000
0001
0100
0010
0000
1000
0000
0001
0000
1000
0010
1000
0000
,  // measure 39
0001
0000
0100
0000
0001
0010
0001
0000
1000
0000
0100
0000
1000
0010
0100
0000
,  // measure 40
0010
0000
1000
0000
0001
0010
0100
0000
0010
0000
0001
0000
2000
0000
0000
3000
,  // measure 41
0010
0100
0001
0000
1000
0000
0100
0010
0001
0000
1000
0000
0002
0000
0000
0003
,  // measure 42
0010
0100
1000
0000
2002
0000
0000
0000
0000
0000
0000
0000
0000
0000
0000
0000
,  // measure 43
0000
0000
0000
0000
,  // measure 44
0000
0000
0000
3003
0000
0000
1010
1100
,  // measure 45
0011
0000
0202
0000
0303
0000
0010
0000
0100
1000
0001
0000
0100
0000
0010
0000
,  // measure 46
1000
0002
0000
0003
1100
0000
0000
0000
0110
0000
0000
0000
0022
0000
0000
0000
,  // measure 47
0033
2200
3300
1010
,  // measure 48
0101
0000
0010
0100
1001
0000
0220
0000
,  // measure 49
0000
0000
0000
0000
,  // measure 50
0000
0000
0000
0000
0330
0000
1000
0100
,  // measure 51
1000
0000
0001
0000
0010
0000
0001
0000
0100
0000
0010
0000
1000
0100
0010
0001
,  // measure 52
0010
0100
1000
0010
0100
0001
0100
0010
1000
0000
0001
0000
1000
0100
1000
0000
,  // measure 53
0010
0000
1000
0000
0001
0100
0001
0000
0010
0000
0001
0000
1000
0100
0010
0000
,  // measure 54
0001
0000
1000
0000
0001
0100
0010
0000
1000
0000
0001
0000
1000
0100
0001
0000
,  // measure 55
0100
0000
0110
0000
0001
0100
1000
0000
0100
0000
0010
0000
1000
0100
0010
0000
,  // measure 56
0100
0000
1001
0000
0001
0100
0010
0000
0100
0000
0001
0000
1000
0010
0001
0000
,  // measure 57
0010
0000
0110
0000
0001
0010
1000
0000
0010
0000
0100
0000
1000
0010
1000
0000
,  // measure 58
0100
0000
1100
0000
0001
0010
0001
0000
0100
0000
0001
0000
1000
0100
0010
0000
,  // measure 59
0001
0000
1001
0000
0001
0100
0010
0000
1000
0000
0001
0000
1000
0010
0100
0000
,  // measure 60
0001
0000
1001
0000
0001
0010
0100
0000
1000
0000
0010
0000
1001
0000
0100
0000
,  // measure 61
0010
0000
1000
0000
0001
0010
0100
0000
1000
0000
0001
0000
1000
0000
0210
0000
,  // measure 62
0000
0000
1000
0000
0301
0000
1000
0010
,  // measure 63
0100
0000
0001
0000
1000
0100
0010
0001
1000
0000
0001
0000
1100
0000
0101
0000
,  // measure 64
1100
0000
0010
0200
0000
0300
0001
0000
0010
0100
1000
0000
0101
0000
1100
0000
,  // measure 65
0101
0000
0010
0200
0000
0300
1000
0000
0010
0100
0001
0000
1100
0000
1010
0000
,  // measure 66
1100
0000
0001
0020
0000
0030
0100
0000
0010
0001
1000
0000
0101
0000
0011
0000
,  // measure 67
0101
0000
1000
0020
0000
0030
0100
0000
0010
1000
0001
0000
0210
0000
0000
0000
,  // measure 68
1000
0000
0000
0000
0010
0000
0000
0000
0301
0000
0000
0000
1000
0100
1000
0010
,  // measure 69
0100
0001
0100
1000
0100
0010
1000
0100
0001
0000
0000
0000
0110
0000
0000
0000
;

//---------------dance-single - ----------------
#NOTES:
     dance-single:
     :
     Easy:
     4:
     0.159284,0.279567,0.065588,0.225913,0.000000,153.000000,144.000000,9.000000,31.000000,0.000000,0.000000,0.159284,0.279567,0.065588,0.225913,0.000000,153.000000,144.000000,9.000000,31.000000,0.000000,0.000000:
// measure 0
0000
0000
0000
0000
,  // measure 1
0000
0000
0000
0000
,  // measure 2
0000
0000
0000
0000
,  // measure 3
0000
0000
0000
0000
,  // measure 4
0000
0000
0000
0000
,  // measure 5
0000
0000
0000
0000
,  // measure 6
0000
0000
0000
0000
0000
1000
0002
0000
,  // measure 7
0003
0000
0000
0000
0000
1000
0001
0020
,  // measure 8
0000
0000
0000
0030
0000
0001
2000
0000
,  // measure 9
3000
0000
0000
0000
0000
0001
1000
0020
,  // measure 10
0000
0000
0000
0030
0000
1000
0200
0000
,  // measure 11
0300
0000
0000
0000
0000
1000
0100
0020
,  // measure 12
0000
0000
0000
0030
0000
0001
0200
0000
,  // measure 13
0300
0000
0000
0000
0000
0001
0100
0020
,  // measure 14
0000
0000
0000
0000
,  // measure 15
0000
0000
0030
0000
0000
0200
0300
0000
,  // measure 16
0000
0000
0000
0000
,  // measure 17
0000
0000
0000
0000
,  // measure 18
0000
0002
0003
0000
0000
0000
0000
0000
,  // measure 19
0000
2000
3000
0000
0000
0000
0000
0000
,  // measure 20
0000
0020
0030
0000
0000
0000
0000
0000
,  // measure 21
0000
0200
0300
0000
0000
0000
0000
0000
,  // measure 22
0000
0002
0003
0000
0000
0000
0000
0000
,  // measure 23
0000
2000
3000
0000
0000
0001
2000
0000
,  // measure 24
3000
0000
0000
0000
0000
0001
1000
0020
,  // measure 25
0000
0000
0000
0000
,  // measure 26
0000
0000
0000
0030
0000
0000
1000
0000
,  // measure 27
0001
1000
0010
0100
,  // measure 28
0001
1000
0100
0010
,  // measure 29
0001
1000
0010
0100
,  // measure 30
0001
1000
0100
2000
,  // measure 31
0000
0000
3000
0002
,  // measure 32
0000
0000
0000
0000
0003
1000
0000
0000
,  // measure 33
0000
0000
0000
0000
,  // measure 34
0000
0000
0000
0000
,  // measure 35
0000
1001
0000
0000
0000
0000
0000
0000
,  // measure 36
0000
1001
0000
0000
0000
0000
0000
0000
,  // measure 37
0000
1100
0000
0000
0000
0000
0000
0000
,  // measure 38
0000
0101
0000
0000
0000
0000
0000
0000
,  // measure 39
0000
1001
0000
0000
0000
0000
0000
0000
,  // measure 40
0000
1001
0000
0000
0000
0000
0200
0300
,  // measure 41
0010
0000
0001
0000
1000
0000
0200
0300
,  // measure 42
0010
0002
0000
0000
,  // measure 43
0000
0000
0000
0000
,  // measure 44
0000
0000
0000
0003
0000
0000
1000
0010
,  // measure 45
0100
0002
0003
0000
0010
0000
0100
0000
,  // measure 46
1000
0001
1001
2000
,  // measure 47
3000
0020
0030
0100
,  // measure 48
0001
0010
0100
0220
,  // measure 49
0000
0000
0000
0000
,  // measure 50
0000
0000
0330
1000
,  // measure 51
0000
0001
0000
1000
,  // measure 52
0000
0001
0000
1000
,  // measure 53
0010
0100
0001
1000
,  // measure 54
0100
0010
0001
0010
,  // measure 55
0100
1000
0001
0100
,  // measure 56
0010
1000
0100
1000
,  // measure 57
0001
0010
0001
0100
,  // measure 58
0010
1000
0001
0100
,  // measure 59
1000
0100
0001
1000
,  // measure 60
0100
0000
0010
0000
0001
1000
0002
0000
,  // measure 61
0003
0000
0000
0000
0000
1000
0001
0020
,  // measure 62
0000
0000
0000
0000
,  // measure 63
0000
0000
0030
0001
,  // measure 64
1000
0000
0010
0000
0100
0001
1000
0000
,  // measure 65
0100
0000
0010
0000
0001
1000
0010
0000
,  // measure 66
0100
0000
0010
0000
1000
0001
0010
0000
,  // measure 67
0100
0000
0010
0000
0001
1000
0002
0000
,  // measure 68
0000
0000
0003
2000
,  // measure 69
0000
0000
3000
1001
;
