#TITLE:While Tha Rekkid Spinz (Radio Track);
#SUBTITLE:;
#ARTIST:DJ Zombie;
#TITLETRANSLIT:;
#SUBTITLETRANSLIT:;
#ARTISTTRANSLIT:;
#GENRE:;
#CREDIT:;
#BANNER:;
#BACKGROUND:;
#LYRICSPATH:;
#CDTITLE:;
#MUSIC:rekkid.OGG;
#OFFSET:-0.539; // offset by SM2ITG v2 (used to be -0.540000)
#SAMPLESTART:29.439003;
#SAMPLELENGTH:12.000000;
#SELECTABLE:YES;
#DISPLAYBPM:140.000000;
#BPMS:0.000000=140.087006
,276.000000=70.043503
,278.000000=140.087006
;
#STOPS:
;
#KEYSOUNDS:;
#ATTACKS:;

//---------------dance-single - ----------------
#NOTES:
     dance-single:
     :
     Challenge:
     10:
     0.754336,0.780789,0.922218,0.152825,0.440030,798.000000,175.000000,29.000000,101.000000,9.000000,0.000000,0.754336,0.780789,0.922218,0.152825,0.440030,798.000000,175.000000,29.000000,101.000000,9.000000,0.000000:
// measure 0
0000
0000
0000
0000
,  // measure 1
0000
0000
0000
0000
,  // measure 2
0000
0000
0000
0000
,  // measure 3
0000
0000
0000
0000
,  // measure 4
0000
0000
0000
0000
,  // measure 5
1000
0010
0100
0001
0010
0100
0010
0001
,  // measure 6
1000
0000
0100
0000
1000
0000
0010
0000
1000
0000
0001
0000
0010
0100
0010
0100
,  // measure 7
1000
0001
0100
0010
1000
0010
0100
0001
,  // measure 8
1001
0000
0000
0000
0000
0000
0000
0000
1000
0010
1000
0000
1MM1
0000
0000
0000
,  // measure 9
1000
0000
0100
0000
0010
0000
0001
0100
0000
0000
0100
0000
0010
0000
1000
0000
,  // measure 10
0001
0000
0010
0000
0100
0000
0010
0001
0000
0001
0100
0000
0010
1000
0100
0010
,  // measure 11
0001
0000
0100
0000
0010
0000
1000
0010
0000
0000
0010
0000
0100
0000
0001
0000
,  // measure 12
0010
0000
0100
0000
0010
0000
0100
1000
0000
1000
0010
0000
0100
0001
0010
0100
,  // measure 13
1000
0000
0001
0000
0100
0000
0001
0010
0000
0000
0010
0000
0100
0000
1000
0000
,  // measure 14
0010
0000
0100
0000
0010
0000
1000
0010
0000
0010
0100
0000
0001
1000
0100
1000
,  // measure 15
0010
0000
0100
0000
0010
0000
1000
0001
0000
0000
0001
0000
0010
0000
0100
0000
,  // measure 16
1000
0000
0000
1000
0100
0000
1000
0010
0000
0000
0101
0000
1001
0000
M00M
0000
,  // measure 17
1100
0000
MM00
0000
101M
0000
0000
11M0
0000
0000
M110
0000
0000
0M00
0011
0000
,  // measure 18
0110
0000
0000
0000
1MM1
0000
0000
110M
0000
0000
M101
0000
0110
0000
1001
0000
,  // measure 19
11M0
0000
0000
0000
0110
0000
0000
11M0
0000
0000
M110
0000
0000
0000
10M1
0000
,  // measure 20
2200
0010
00M1
331M
,  // measure 21
1001
0000
0000
M00M
0110
0000
0000
11M0
0000
0000
M110
0000
0000
0000
1001
0000
,  // measure 22
01M1
0000
0000
0000
MM11
0000
0000
101M
0000
0000
0101
0000
1001
0000
1010
0000
,  // measure 23
0110
0000
0000
0000
01M1
0000
0000
1100
0000
0000
M110
0000
0000
0000
1001
0000
,  // measure 24
0110
0000
0100
1000
0100
0010
0000
0001
1000
0010
1000
0000
0010
0100
0010
0100
,  // measure 25
0001
1000
0010
1000
0100
0010
0100
1000
,  // measure 26
0010
0000
0100
0000
0001
0000
0010
0000
0001
0000
1000
0000
0010
0100
0010
0000
,  // measure 27
0100
0001
1000
0100
0010
0001
0010
0100
,  // measure 28
1000
0000
0001
0000
0100
0000
0001
0000
1000
0010
1000
0010
2000
0000
0000
0000
,  // measure 29
3001
0010
0011
0001
1000
0010
0110
0100
,  // measure 30
0001
0000
1000
0000
1001
0000
0001
0000
0100
0000
0010
0000
1000
0001
1000
0000
,  // measure 31
1001
0001
1000
0100
1100
0100
1000
0010
,  // measure 32
2000
0000
0200
0000
0020
0000
0000
3330
,  // measure 33
1002
0000
0000
0000
M010
0000
0000
00M0
0100
0000
0000
0M10
0000
0000
01M3
0000
,  // measure 34
2001
0000
0000
0000
0010
0000
0000
0000
00M1
0000
0000
010M
0000
0000
3010
0000
,  // measure 35
0102
0000
0000
0000
0010
0000
0000
0000
01M0
0000
0000
0010
0000
0000
1003
0000
,  // measure 36
2010
0000
0000
0000
0001
0000
0000
0000
001M
0000
0000
01M0
0000
0000
3010
0000
,  // measure 37
1000
0010
0100
0001
0010
0000
0001
0100
0001
0100
0010
0000
1000
0100
1000
0010
,  // measure 38
0100
0001
0100
0010
1000
0000
0100
1000
0010
0000
0100
0010
1000
0000
0100
0010
,  // measure 39
0001
0100
0010
1000
0100
0000
0010
0001
0010
0100
0010
0000
0001
1000
0100
0000
,  // measure 40
0020
0000
0030
0001
1000
0000
0100
1000
0100
0010
0000
0001
0100
0000
0010
0000
,  // measure 41
1001
M00M
0110
0MM0
,  // measure 42
1010
M0M0
0101
0M0M
,  // measure 43
1100
MM00
1010
M0M0
0101
0M0M
0011
00MM
,  // measure 44
1100
0001
1010
0100
1001
0001
1100
1000
,  // measure 45
0220
0000
0000
0000
0000
0000
0001
0330
,  // measure 46
0100
0000
1000
0000
0010
0000
0100
0000
0101
0000
0000
0101
0000
0000
0101
0000
,  // measure 47
0100
0000
0010
0000
1000
0000
0100
0000
0110
0000
0000
0110
0000
0000
0110
0000
,  // measure 48
0010
0000
0001
0000
1000
0000
0010
0000
1010
0000
0000
1100
0000
0000
0011
0000
,  // measure 49
0010
0000
0001
0000
1000
0000
0001
0000
1001
0000
0000
1010
0000
0000
0101
0000
,  // measure 50
1010
0000
1000
0000
0010
0000
0100
0000
0110
0000
0000
1010
0000
0000
0110
0000
,  // measure 51
0010
0000
1000
0000
0010
0000
0100
0000
0110
0000
0000
0101
0000
0000
0110
0000
,  // measure 52
0010
0000
1000
0000
0001
0000
0010
0000
1001
0000
0000
1001
0000
0000
1001
0000
,  // measure 53
0110
0000
0000
0000
1010
0000
0000
0100
0001
0000
0000
0101
0000
0000
1001
0000
,  // measure 54
1000
0100
1000
0010
0100
0001
0010
0100
,  // measure 55
1000
0000
0010
0000
1000
0000
0001
0000
0010
0000
0001
0100
0000
0010
0000
0010
,  // measure 56
1000
0100
1000
0010
1000
0001
0010
0100
,  // measure 57
0010
0000
0001
0000
0100
0000
0010
0000
1000
0000
0001
0000
1001
0000
1000
0001
,  // measure 58
1000
0010
0100
0010
1000
0100
0010
0100
,  // measure 59
1000
0000
0001
0000
0010
0000
0100
0000
0010
0000
0001
0100
0000
0010
0000
0100
,  // measure 60
0001
0010
0001
0100
0010
1000
0001
1000
,  // measure 61
0010
0000
0100
0000
0010
0000
0100
0000
0001
0000
0001
1000
0100
1000
0010
1000
,  // measure 62
0100
0000
0010
0000
0001
0000
0100
0001
0000
0000
1000
0000
1010
0000
0010
0000
,  // measure 63
0100
0000
0001
0000
0010
0000
0100
0010
0000
0010
0001
0000
0100
0000
0010
1000
,  // measure 64
0010
0000
0100
0000
0010
0000
1000
0100
0000
0000
0100
0000
0110
0000
0010
0000
,  // measure 65
0001
0000
0100
0000
0010
0000
1000
0010
0000
0010
1000
0010
1000
0001
1000
0010
,  // measure 66
0100
0000
0001
0000
1001
0000
1000
0001
0000
0000
1000
0000
1010
0000
0010
0000
,  // measure 67
0100
0000
0001
0000
1010
0000
0001
0000
1100
0000
0010
0000
1001
0000
0001
0100
,  // measure 68
0010
0000
1000
0000
0100
0000
0010
0100
0000
0000
0100
0000
1000
0000
0001
1000
,  // measure 69
0020
0000
0000
0000
0000
0000
0000
0030
2010
0000
0000
3010
0200
0000
0000
0000
,  // measure 70
0010
0000
0000
00M1
0000
0000
0310
0000
0102
0000
0000
0103
0002
0000
0000
0000
,  // measure 71
0010
0000
0000
01M0
0000
0000
1003
0000
2001
0000
0000
3001
0020
0000
0000
0000
,  // measure 72
0100
0000
0000
0M01
0000
0000
0130
0000
2001
0000
0000
3001
2000
0000
0000
0000
,  // measure 73
0010
0000
0000
00M1
0000
0000
3100
0000
1000
0100
0010
0001
0010
0000
0001
1000
,  // measure 74
0010
1000
0001
0000
0100
0010
1000
0010
0100
0001
0100
0001
1000
0000
0010
1000
,  // measure 75
0100
0000
0010
0001
0100
0000
0010
0100
0010
1000
0010
0100
0010
0000
1000
0100
,  // measure 76
0010
0100
0010
0000
0001
0100
0001
0000
0101
0000
0000
0100
0001
0000
1000
0010
,  // measure 77
1000
0100
0000
0100
0010
0000
0001
0000
0101
0000
0100
0000
0010
0000
1000
0000
,  // measure 78
1MM1
0000
0000
M1M1
0000
0000
MM11
0000
0010
0000
0100
0000
1000
0000
0010
0000
,  // measure 79
M11M
0000
0000
1M1M
0000
0000
M110
0000
0001
0000
1000
0000
0100
0000
1000
0000
,  // measure 80
1M1M
0000
0000
1M1M
0000
0000
M1M1
0000
0100
0000
0010
0000
1000
0000
0100
0000
,  // measure 81
11MM
0000
0000
MM11
0000
0000
0110
0000
1001
0000
1000
0000
0010
0000
0100
0001
,  // measure 82
0100
0000
0010
0000
1000
0000
0100
0000
0010
0000
0100
0000
0010
0000
0001
0100
,  // measure 83
0000
0010
1000
0000
0010
0000
0100
0000
0010
0000
1000
0000
0100
0000
0010
0001
,  // measure 84
0000
0000
1000
0000
0010
0000
0100
0000
0001
0000
1000
0000
0100
0000
1000
0010
,  // measure 85
0000
1000
0010
0000
0100
0000
0010
0000
1010
0000
0000
0000
1M10
0000
0000
11M0
,  // measure 86
0000
0000
M110
0000
0000
0000
1001
0000
101M
0000
0000
0000
10M1
0000
0000
M110
,  // measure 87
0000
0000
1010
0000
0101
0000
0011
0000
1100
0000
0000
0000
0110
0000
0000
0M11
,  // measure 88
0000
0110
0000
1001
0202
0000
1000
0000
,  // measure 89
M010
0000
0000
0000
13M3
0000
0000
0000
1001
0000
0000
0000
M101
0000
0000
110M
,  // measure 90
0000
0000
M101
0000
0000
0000
1010
0000
0110
M000
0000
0000
01M1
0000
0000
1M10
,  // measure 91
0000
0000
01M1
0000
1100
0000
0101
0000
1001
0000
0000
M000
0011
0000
0000
011M
,  // measure 92
0000
0000
11M0
0000
0000
0M00
1001
0000
0110
M000
0100
0001
0100
0010
1000
0001
,  // measure 93
1000
0000
0010
0100
0001
0100
0010
0100
0001
0000
1000
0000
0010
0000
0100
0000
,  // measure 94
0001
0000
0010
0100
0000
0000
0100
0000
1000
0000
0010
0000
0100
0000
0001
0000
,  // measure 95
0010
0000
0100
0010
0001
0100
0010
0100
0010
0000
1000
0000
0001
0000
0100
0000
,  // measure 96
0010
0000
1000
0100
0000
0000
0100
0000
1000
0000
0010
1000
0100
0000
0100
1000
,  // measure 97
0010
0100
1001
0000
1000
0010
0100
0001
,  // measure 98
0010
0000
0100
0010
0000
0000
0010
0000
0100
0000
1000
0000
0010
0000
0100
0000
,  // measure 99
0001
0000
1000
0001
1000
0010
1000
0100
0010
0000
0001
0000
0100
0000
0010
0000
,  // measure 100
1000
0001
0100
0010
2000
0000
0002
0000
,  // measure 101
0020
0000
0000
3033
1000
1010
0000
0101
,  // measure 102
0000
0011
0000
1100
0000
1010
0000
0110
,  // measure 103
0010
0101
1000
0000
0001
0011
0000
0110
,  // measure 104
0000
0011
0000
1010
0000
0101
0000
1100
,  // measure 105
1000
0001
1000
0000
0100
0010
0100
1000
0010
0000
0101
0000
1000
0000
1010
0000
,  // measure 106
0001
0101
1000
0110
0010
1001
0010
0101
,  // measure 107
1000
0000
1100
0000
0011
0000
0000
1000
0001
0000
0101
0000
1000
0000
0110
0000
,  // measure 108
0001
1100
0010
1001
0110
0000
0000
0000
,  // measure 109
0010
1000
0001
0000
2002
0000
0000
0000
0000
0000
0000
0000
3003
0000
0000
0000
;
