#TITLE:The Least 100sec;
#SUBTITLE:;
#ARTIST:Hirofumi Sasaki;
#TITLETRANSLIT:;
#SUBTITLETRANSLIT:;
#ARTISTTRANSLIT:;
#GENRE:;
#CREDIT:;
#BANNER:The Least 100sec.png;
#BACKGROUND:The Least 100sec-bg.png;
#LYRICSPATH:;
#CDTITLE:;
#MUSIC:The Least 100sec.mp3;
#OFFSET:-0.093949;
#SAMPLESTART:0.000000;
#SAMPLELENGTH:12.000000;
#SELECTABLE:YES;
#DISPLAYBPM:200.000000:263.000000;
#BPMS:0.000000=263.500000
,80.000000=251.600021
,92.000000=261.000000
,103.000000=263.700012
,123.000000=263.600006
,159.000000=263.200012
,175.000000=263.700012
,199.000000=263.600006
,231.000000=263.899994
,247.000000=263.600006
,398.000000=223.100006
,405.000000=199.399994
;
#STOPS:
;
#BGCHANGES:;
#KEYSOUNDS:;
#ATTACKS:;

//---------------dance-single - ----------------
#NOTES:
     dance-single:
     :
     Beginner:
     3:
     0.155883,0.257153,0.080086,0.000000,0.000000,109.000000,101.000000,8.000000,0.000000,0.000000,0.000000,0.155883,0.257153,0.080086,0.000000,0.000000,109.000000,101.000000,8.000000,0.000000,0.000000,0.000000:
0000
0000
0000
0000
,
0000
0000
0000
0000
,
0000
0000
0000
0000
,
0000
0000
0000
0000
,
0000
0000
0000
0000
,
0000
0000
0000
0000
,
0000
0000
0000
0000
,
0000
0000
0000
0000
,
0001
0000
0000
0000
,
0000
0010
0000
0000
,
0100
0000
0000
0000
,
0010
0000
0000
0000
,
1000
0000
0000
0000
,
0100
0000
0000
0000
,
0010
0000
0000
0000
,
1001
0000
0000
0000
,
1000
0000
0000
0100
,
0000
0000
0000
0000
,
0001
0000
0000
0100
,
0000
0000
0000
0000
,
0001
0000
0000
1000
,
0000
0000
0100
0000
,
0000
0001
0000
0000
,
1000
0000
0000
0000
,
1000
0000
0000
0000
,
0001
0000
0000
0001
,
0000
0000
0000
1000
,
0000
0000
0000
0100
,
0000
0000
0000
0010
,
0000
0000
0000
1001
,
0000
0000
0000
0100
,
0000
0000
0000
0001
,
0000
0000
0000
1000
,
0000
0000
0000
0010
,
0000
1000
0000
0000
,
1000
0000
0000
1000
,
0000
0000
0000
0001
,
0000
0000
0000
0110
,
0000
0000
0000
1001
,
0000
0000
0000
1000
,
0000
0000
0000
0000
,
0000
0000
0000
0001
,
0000
0000
0000
0000
,
0000
0000
0000
0000
,
0000
0010
0000
1000
,
0000
0000
0000
0100
,
0000
0000
0000
0010
,
0000
0000
0000
0001
,
0000
0000
1001
0000
,
0000
0000
0000
1000
,
0000
0000
0000
0100
,
0000
0000
0000
1000
,
0000
0000
0000
0100
,
0000
0000
0000
0001
,
0000
0000
0000
0100
,
0000
0000
0000
0001
,
0000
0000
0000
0100
,
0000
0000
0000
1000
,
0000
0000
0001
0000
,
0000
0110
0000
0000
,
1001
0000
0000
0100
,
0000
0000
0000
1000
,
0000
0000
0000
0100
,
0000
0000
0000
1000
,
0000
0000
0000
0100
,
0000
0000
0000
0001
,
0000
0000
0000
0100
,
0000
0000
0000
0001
,
0000
0000
0000
0100
,
0000
0000
0000
1000
,
0000
1000
0000
1000
,
0000
0000
0000
0001
,
0000
0000
0000
0100
,
0000
0000
0000
0001
,
0000
0001
0000
0001
,
0000
0000
0000
1000
,
0000
0000
0000
0100
,
0000
0000
0000
1000
,
0000
0000
0000
0000
,
0100
0000
0000
0010
,
0000
0000
0000
0100
,
0000
0000
0000
0001
,
0000
0000
0000
0010
,
0000
0000
0000
0100
,
0000
0000
0000
1001
,
0000
0000
0000
0001
,
0000
0000
0010
0000
,
0000
0000
0000
1000
,
0000
0000
0010
0000
,
0000
0000
0000
1000
,
0000
0000
0001
0000
,
0000
0010
0000
0000
,
1000
0000
0000
0001
,
0000
0000
0000
0001
,
0000
0000
0000
1000
,
0000
0000
0001
0000
,
0000
0000
1000
0000
,
0000
0000
0100
0000
,
0000
0000
0001
0000
,
0000
0000
0010
0000
,
0000
0000
0000
0000
,
0000
0010
0000
0010
,
0000
0010
0000
0100
;

//---------------dance-single - ----------------
#NOTES:
     dance-single:
     :
     Easy:
     5:
     0.255991,0.364394,0.100108,0.050054,0.000000,179.000000,169.000000,10.000000,5.000000,0.000000,0.000000,0.255991,0.364394,0.100108,0.050054,0.000000,179.000000,169.000000,10.000000,5.000000,0.000000,0.000000:
0000
0000
0000
0000
,
0000
0000
0000
0000
,
0000
0000
0000
0000
,
0000
0000
0000
0000
,
0000
0000
0000
0000
,
0000
0000
0000
0000
,
0000
0000
0000
0000
,
0000
0000
0000
0000
,
0001
0000
0000
0000
,
0000
0010
0000
0010
,
0001
0000
0100
0000
,
0010
0000
0100
0000
,
1000
0000
1000
0000
,
0100
0000
0010
0000
,
0010
0000
1000
0000
,
0001
1000
0000
0000
,
1000
0000
0000
1001
,
0000
0010
0000
0000
,
0001
0000
0000
1001
,
0000
0010
0000
0000
,
0001
0000
0000
1000
,
0000
0000
0100
0000
,
0000
0001
0000
0000
,
1000
0000
0000
0000
,
1000
0000
0100
0000
,
0001
0000
0000
0001
,
0000
0100
0000
0010
,
0000
1000
0000
0100
,
0000
0010
0000
1000
,
0000
0001
0000
0200
,
0000
0300
0000
0100
,
0000
0100
0000
0001
,
0000
0010
0000
0100
,
0000
1000
0000
0010
,
0000
1000
0001
0000
,
1000
0001
0000
1000
,
0000
0100
0000
0010
,
0000
0001
0000
1000
,
0000
0100
0000
0010
,
0000
0001
0000
1000
,
0000
0020
0000
0000
0000
0000
0000
0000
,
0000
0030
0000
0001
,
0000
0200
0000
0000
0000
0000
0000
0000
,
0000
0300
0000
1001
,
0000
1000
0000
0100
,
0000
0001
0000
0010
,
0000
0100
0000
1000
,
0000
0001
0000
0100
,
0000
0000
0110
0000
,
0000
1001
0000
0100
,
0000
1000
0000
0100
,
0000
0001
0000
0100
,
0000
1000
0000
0100
,
0000
0001
0000
0010
,
0000
1000
0000
0010
,
0000
0001
0000
0010
,
0000
1000
0000
0010
,
0000
0001
0000
1000
,
0000
0000
0001
0000
,
0000
0110
0000
0000
,
1001
0000
0000
0100
,
0000
0110
0000
1000
,
0000
0010
0000
1000
,
0000
0010
0000
0001
,
0000
0100
0000
0001
,
0000
0100
0000
1000
,
0000
0100
0000
1000
,
0000
0100
0000
0001
,
0000
0100
0000
0001
,
0000
0100
0000
1000
,
0000
1000
0000
1000
,
0000
1000
0000
0001
,
0000
0010
0000
0100
,
0000
1000
0000
0001
,
0000
0001
0000
0001
,
0000
0001
0000
1000
,
0000
0100
0000
0010
,
0000
0001
0000
1000
,
0000
0000
0000
0000
,
0100
0000
0100
0010
,
0000
1000
0000
0010
,
0000
0100
0000
1000
,
0000
0001
0000
0100
,
0000
0001
0000
0010
,
0000
0001
0000
0100
,
0001
0000
0000
0001
,
0000
0000
0110
0000
,
0010
0000
0000
1000
,
0000
0000
0110
0000
,
0010
0000
0000
0001
,
0000
0000
0010
0000
,
0000
1000
0000
0000
,
0100
0000
0000
0001
,
0000
0000
0000
0001
,
0000
0100
0000
1000
,
0000
0000
0001
0000
,
0010
0000
0100
0000
,
1000
0000
0100
0000
,
0010
0000
0001
0000
,
1000
0000
0010
0200
,
0000
0000
0000
0300
,
0000
0010
0000
1000
,
0000
0001
0000
0200
,
0000
0000
0000
0000
,
0300
0000
0000
0000
;

//---------------dance-single - ----------------
#NOTES:
     dance-single:
     :
     Medium:
     7:
     0.471938,0.526819,0.260281,0.080086,0.010011,330.000000,304.000000,26.000000,8.000000,0.000000,0.000000,0.471938,0.526819,0.260281,0.080086,0.010011,330.000000,304.000000,26.000000,8.000000,0.000000,0.000000:
0000
0000
0000
0000
,
0000
0000
0000
0000
,
0000
0000
0000
0000
,
0000
0000
0000
0000
,
0000
0000
0000
0000
,
0000
0000
0000
0000
,
0000
0000
0000
0000
,
0000
0000
0000
0000
,
0001
0000
0000
1000
0000
0000
0001
0000
,
0000
0010
0001
1000
,
0010
1000
0001
0100
,
0010
0100
0001
1000
,
1000
0000
0000
0100
0000
1000
0000
0100
,
0000
0010
0000
0001
0000
0000
0000
0000
,
0010
1000
0010
0100
,
0001
1000
0000
0000
,
1000
0000
0000
1100
0000
0000
1001
0000
,
0000
0010
0000
0010
,
0001
0000
0000
0101
0000
0000
1001
0000
,
0000
0010
0000
0010
,
1000
0000
0000
0010
0000
0000
0100
0000
,
0000
0001
0000
0000
1000
0000
0000
0110
,
0000
0000
0001
0000
0000
0110
0000
0000
,
2000
0000
0000
3001
,
0100
0010
1000
0100
,
0001
0000
0000
1001
0000
0000
0001
0000
,
0010
0100
1000
0010
,
0100
0001
0100
0010
,
1000
0010
0100
0001
,
1000
0001
0100
0020
,
0000
0000
0030
0100
,
0001
1000
0100
0010
,
0100
0010
0100
1000
,
0001
1000
0100
0010
,
0000
1000
0001
0000
,
1000
0001
1000
1001
,
0000
1100
0000
1001
,
0000
0101
0000
0110
,
0000
1010
0000
1001
,
0000
0011
0000
0001
,
0000
0002
0000
0000
0010
0000
0000
0100
,
0000
1003
0000
0100
,
0000
2000
0000
0000
0100
0000
0000
0010
,
0000
3001
0000
1001
,
0000
1000
0100
1000
,
0100
1000
0010
1000
,
0001
0100
0001
0010
,
0001
0100
0010
1000
,
0000
0001
0000
0000
0100
0000
0000
0101
,
0000
1100
1000
0001
,
0100
0001
0010
0001
,
0100
0001
0010
0001
,
1000
0100
1000
0001
,
1000
0100
1000
0010
,
0100
0001
0100
0010
,
0100
0001
0100
0010
,
1000
0010
0100
0010
,
1000
0010
0100
1000
,
0000
0001
0000
0000
1000
0000
0000
0001
,
0000
0000
0100
0000
0000
0010
0000
0000
,
0100
0000
0000
0010
0000
0000
1000
0000
,
0001
0100
0001
1000
,
0010
1000
0100
1000
,
0010
1000
0100
0010
,
0001
0010
0100
0010
,
0001
0010
0100
0010
,
0001
1000
0001
0010
,
0001
1000
0001
0100
,
0001
0100
0010
0100
,
0001
0100
0010
1000
,
0000
1000
0000
1000
,
0000
1000
0000
1000
,
0001
1000
0010
1000
,
0100
1000
0000
0001
,
0000
0001
0000
0001
,
0000
0001
0000
0001
,
1000
0001
0100
0001
,
0010
0001
0000
1000
,
0000
0001
0000
0000
1000
0000
0000
0000
,
0010
1000
0001
0010
,
0001
1000
0100
0010
,
0100
1000
0001
0001
,
0000
0100
0000
0001
0000
0100
0000
0010
,
0000
1000
0000
0000
0000
0000
0010
0000
,
0001
0010
0100
1000
,
0001
0000
0000
0010
,
0000
0101
0000
0000
1010
0000
0000
0000
,
0100
0000
0010
0010
,
0000
1100
0000
0000
0011
0000
0000
0000
,
0010
0000
0010
0001
,
0000
1000
0000
0000
0100
0000
0000
0010
,
0000
0000
0001
0000
0000
0011
0000
0000
,
1000
0000
0000
1100
0000
0000
0020
0000
,
0000
0000
1030
0100
,
0010
0001
0100
1000
,
0000
0110
0000
0000
0001
0000
0100
0000
,
0010
1000
0001
0010
,
0100
1000
0010
0100
,
0001
1000
0100
0001
,
0100
1000
0001
2000
,
0000
0000
0000
0000
,
3000
0010
0010
1000
,
1000
0000
0000
0000
0001
0000
0000
0000
0001
0000
0000
0000
0100
0000
0000
0100
,
0000
0000
0010
0000
0000
0000
0000
2002
0000
0000
0000
0000
0000
0000
0000
0000
,
0000
0000
0000
0000
,
0000
3003
0000
0000
;

//---------------dance-single - ----------------
#NOTES:
     dance-single:
     :
     Hard:
     8:
     0.626391,0.790228,0.090097,0.040043,0.020022,438.000000,429.000000,9.000000,4.000000,0.000000,0.000000,0.626391,0.790228,0.090097,0.040043,0.020022,438.000000,429.000000,9.000000,4.000000,0.000000,0.000000:
0000
0000
0000
0000
,
0000
0000
0000
0000
,
0000
0000
0000
0000
,
0000
0000
0000
0000
,
0000
0000
0000
0000
,
0000
0000
0000
0000
,
0000
0000
0000
0000
,
0000
0000
0000
0000
,
0010
0000
0010
1000
0000
1000
0010
0000
,
0000
0001
0010
0100
,
1000
0010
0001
0010
,
1000
0100
0001
0100
,
1000
0100
1000
0001
0000
0010
0000
0100
,
0000
1000
0000
0010
0000
0100
0010
0000
,
1000
0100
1000
0000
0010
0000
0100
0000
,
0001
0000
0100
0000
0000
0010
0000
1000
,
0001
0000
0001
0100
0000
0100
0010
0000
,
1000
0100
0010
0001
,
1000
0000
1000
0100
0000
0100
0010
0000
,
0001
0100
0001
0000
1000
0000
0100
0000
,
1000
0000
0100
0010
0000
0001
0100
0000
,
0010
1000
0000
1000
0100
0000
0010
0001
,
0000
1000
0010
0000
0010
1000
0000
0100
,
0010
1000
0001
0100
,
0010
1000
0001
0000
0010
0000
0100
0000
,
0010
0000
0000
0001
0000
0000
1000
0100
,
0010
0000
0001
0000
1000
0000
1000
0001
,
0100
0000
0001
0000
1000
0000
1000
0010
,
0100
0000
0001
0000
0010
0000
0010
0100
,
1000
0001
0100
0001
,
1000
0100
0000
0100
0000
0000
0110
0000
,
0011
1001
1010
0010
,
0001
0100
0001
0000
1000
0000
0100
0000
,
0010
0001
0000
0000
1000
0000
0001
0000
,
0000
0100
0010
0000
1000
0000
0100
0000
,
0010
0001
0100
0010
,
0000
1000
0100
0000
0000
0100
0010
0000
,
0000
0010
0001
0000
0000
0001
0100
0000
,
0000
0100
1000
0000
0000
1000
0100
0000
,
0000
0100
0001
0000
0010
0000
0100
0000
,
0000
1000
0000
0100
0000
0001
0000
0100
,
0000
1000
0000
0010
0000
0100
0001
0000
,
0000
1000
0000
0010
0000
1000
0100
0000
,
0000
0010
0000
0000
0000
0000
0001
0000
0000
0100
0000
0000
0010
0000
0000
0000
,
0000
1000
0100
1000
0000
0001
1000
0001
,
0000
0100
0001
0100
0000
0010
0100
0010
,
0000
1000
0100
1000
0000
0001
0010
0001
,
0000
1000
0100
0010
0000
0001
0100
0000
,
0010
1000
0000
0001
0100
0000
0010
1000
,
0000
0001
0100
0000
0010
0000
1000
0000
,
0100
0001
0100
1000
,
0100
0001
0100
1000
,
0010
1000
0100
1000
,
0010
1000
0100
1000
,
0010
0001
0010
1000
,
0010
0001
0010
1000
,
0100
0010
0001
0100
,
0010
1000
0100
1000
,
0010
1000
0000
1000
0001
0000
0010
0001
,
0000
0001
1000
0000
0010
0001
0000
0001
,
0100
0000
0010
1000
0000
1000
0100
0000
,
0010
0001
0010
0000
0100
0000
0001
0000
,
0100
1000
0100
0001
,
0100
1000
0100
0001
,
0010
0001
0100
0001
,
0010
0001
0100
0001
,
0010
1000
0010
0001
,
0010
1000
0010
0001
,
0100
0010
1000
0100
,
0010
0001
1000
0100
,
0100
0010
0010
0001
,
0001
1000
1000
0010
,
0010
0100
0100
0001
,
0001
1000
1000
0010
,
0010
0100
0100
0001
,
0001
1000
1000
0001
,
0100
0010
1000
0100
,
0010
0001
1000
0010
,
0010
1000
0000
1000
0010
0000
0000
0000
,
0100
0000
0001
0000
0010
0000
0001
0100
,
0001
0000
1000
0001
1000
0000
0100
0000
,
0100
0010
0000
0001
0000
0100
0010
0000
,
0010
1000
0000
0100
0000
0010
0000
0001
,
0000
1000
0000
0100
0010
0000
0001
1000
,
0001
0100
0010
1000
,
0001
0000
0000
1000
0000
0001
0100
0000
,
0100
0010
0000
0010
1000
0000
0001
0000
,
0100
0001
1000
0010
,
0010
0100
0000
0100
0001
0000
1000
0000
,
0100
1000
0001
0100
,
0010
1000
0000
0001
0100
0000
0001
1000
,
0000
1000
0100
1000
0000
0001
0000
0001
,
0100
0001
0000
1000
0000
1000
0010
1000
,
0000
0001
0000
0001
0000
0001
1000
0100
,
1000
0010
0010
0100
,
0010
1000
0000
0001
0010
0001
1000
0000
,
0100
0000
0100
0000
0010
0001
0010
0000
,
0100
0000
0100
0000
1000
0010
1000
0000
,
0010
0000
0010
0000
1000
0100
1000
0000
,
0010
0001
0010
0000
0100
0000
2002
0000
,
0000
0000
0000
0000
,
3003
0000
1000
0100
0010
0000
0001
0100
,
0010
0000
0000
0000
1000
0000
0001
0000
1000
0000
0000
0000
1100
0000
0000
0011
,
0000
0000
1001
0000
0000
0000
0000
0220
0000
0000
0000
0000
0000
0000
0000
0000
,
0000
0000
0000
0000
,
0000
0330
0000
0000
;

//---------------dance-double - ----------------
#NOTES:
     dance-double:
     :
     Easy:
     5:
     0.253131,0.364394,0.100108,0.050054,0.000000,177.000000,167.000000,10.000000,5.000000,0.000000,0.000000,0.253131,0.364394,0.100108,0.050054,0.000000,177.000000,167.000000,10.000000,5.000000,0.000000,0.000000:
00000000
00000000
00000000
00000000
,
00000000
00000000
00000000
00000000
,
00000000
00000000
00000000
00000000
,
00000000
00000000
00000000
00000000
,
00000000
00000000
00000000
00000000
,
00000000
00000000
00000000
00000000
,
00000000
00000000
00000000
00000000
,
00000000
00000000
00000000
00000000
,
00100000
00000000
00000000
00000000
,
00000000
10000000
00000000
00000000
,
00100000
00000000
01000000
00000000
,
00001000
00000000
00010000
00000000
,
00000100
00000000
00000010
00000000
,
00000001
00000000
00000100
00000000
,
00000010
00000000
00010000
00000000
,
00001000
00010000
00000000
00000000
,
00100000
00000000
00000000
10010000
,
00000000
10000000
00000000
00000000
,
00010000
00000000
00000000
00011000
,
00000000
00000010
00000000
00000000
,
00010000
00000000
00000000
00000100
,
00000000
00000000
00010000
00000000
,
00000000
00001000
00000000
00000000
,
01000000
00000000
00000000
00000000
,
00100000
00000000
10000000
00000000
,
01000000
00000000
00000000
00010000
,
00000000
00100000
00000000
00001000
,
00000000
00010000
00000000
00000010
,
00000000
00001000
00000000
00000100
,
00000000
00010000
00000000
00002000
,
00000000
00003000
00000000
01000000
,
00000000
01000000
00000000
00010000
,
00000000
10000000
00000000
01000000
,
00000000
00100000
00000000
00001000
,
00000000
00010000
00001000
00000000
,
00010000
00001000
00000000
00010000
,
00000000
00000100
00000000
00000010
,
00000000
00000001
00000000
00001000
,
00000000
00000100
00000000
00010000
,
00000000
00001000
00000000
00100000
,
00000000
00020000
00000000
00000000
00000000
00000000
00000000
00000000
,
00000000
00030000
00000000
00010000
,
00000000
02000000
00000000
00000000
00000000
00000000
00000000
00000000
,
00000000
03000000
00000000
01100000
,
00000000
10000000
00000000
00010000
,
00000000
01000000
00000000
00001000
,
00000000
00010000
00000000
00000010
,
00000000
00000100
00000000
00000001
,
00000000
00000000
00001001
00000000
,
00000000
00011000
00000000
01000000
,
00000000
00010000
00000000
00100000
,
00000000
00010000
00000000
10000000
,
00000000
00100000
00000000
01000000
,
00000000
00010000
00000000
01000000
,
00000000
00001000
00000000
00100000
,
00000000
00001000
00000000
00010000
,
00000000
00000010
00000000
00010000
,
00000000
00000100
00000000
00001000
,
00000000
00000000
00000001
00000000
,
00000000
00000110
00000000
00000000
,
00011000
00000000
00000000
01000000
,
00000000
01100000
00000000
00010000
,
00000000
00100000
00000000
00010000
,
00000000
00100000
00000000
00001000
,
00000000
00010000
00000000
00001000
,
00000000
00010000
00000000
00000010
,
00000000
00010000
00000000
00000100
,
00000000
00001000
00000000
00000001
,
00000000
00001000
00000000
00000010
,
00000000
00000100
00000000
00000001
,
00000000
00000001
00000000
00000001
,
00000000
00000001
00000000
00000010
,
00000000
00000100
00000000
00010000
,
00000000
00001000
00000000
01000000
,
00000000
01000000
00000000
01000000
,
00000000
01000000
00000000
00010000
,
00000000
00100000
00000000
00100000
,
00000000
10000000
00000000
01000000
,
00000000
00000000
00000000
00000000
,
10000000
00000000
00000000
01000000
,
00000000
00100000
00000000
00001000
,
00000000
00010000
00000000
00000010
,
00000000
00001000
00000000
00000001
,
00000000
00001000
00000000
00000100
,
00000000
00010000
00000000
00001000
,
00010000
00000000
00000000
01000000
,
00000000
00000000
10010000
00000000
,
00100000
00000000
00000000
00010000
,
00000000
00000000
00011000
00000000
,
00000100
00000000
00000000
00001000
,
00000000
00000000
00000010
00000000
,
00000000
00010000
00000000
00000000
,
00001000
00000000
00000000
00100000
,
00000000
00000000
00000000
00010000
,
00000000
10000000
00000000
00100000
,
00000000
00000000
00010000
00000000
,
01000000
00000000
00001000
00000000
,
00010000
00000000
00000100
00001000
,
00000000
00000000
00000010
00000000
,
00001000
00000000
00000001
00000200
,
00000000
00000000
00000000
00000300
,
00000000
00000010
00000000
00010000
,
00000000
00001000
00000000
00020000
,
00000000
00000000
00000000
00000000
,
00030000
00000000
00000000
00000000
;

//---------------dance-double - ----------------
#NOTES:
     dance-double:
     :
     Medium:
     8:
     0.463358,0.526819,0.230249,0.080086,0.010011,324.000000,301.000000,23.000000,8.000000,0.000000,0.000000,0.463358,0.526819,0.230249,0.080086,0.010011,324.000000,301.000000,23.000000,8.000000,0.000000,0.000000:
00000000
00000000
00000000
00000000
,
00000000
00000000
00000000
00000000
,
00000000
00000000
00000000
00000000
,
00000000
00000000
00000000
00000000
,
00000000
00000000
00000000
00000000
,
00000000
00000000
00000000
00000000
,
00000000
00000000
00000000
00000000
,
00000000
00000000
00000000
00000000
,
10000000
00000000
00000000
01000000
00000000
00000000
00010000
00000000
,
00000000
00001000
00000010
00000100
,
00001000
00000001
00000100
00001000
,
00010000
00100000
00010000
00001000
,
00010000
00000000
00000000
00000100
00000000
00000010
00000000
00000001
,
00000000
00001000
00000000
00000001
00000000
00000000
00000000
00000000
,
00000010
00000001
00000100
00001000
,
00010000
01000000
00000000
00000000
,
10000000
00000000
00000000
11000000
00000000
00000000
01010000
00000000
,
00000000
00100000
00000000
00100000
,
00001000
00000000
00000000
00011000
00000000
00000000
00001010
00000000
,
00000000
00000100
00000000
00000100
,
00000001
00000000
00000000
00001000
00000000
00000000
00010000
00000000
,
00000000
10000000
00000000
00000000
10000000
00000000
00000000
00010000
,
00000000
00000000
01000000
00000000
00000000
00001000
00000000
00000000
,
00020000
00000000
00000000
00030000
,
00001000
00000100
00000001
00001000
,
00000001
00000000
00000000
00000110
00000000
00000000
00000001
00000000
,
00000100
00001000
00010000
00100000
,
10000000
00010000
01000000
00100000
,
10000000
00010000
00100000
00001000
,
00010000
00000100
00001000
00000020
,
00000000
00000000
00000030
00001000
,
00000001
00000100
00000010
00000100
,
00000001
00000100
00001000
00010000
,
01000000
10000000
01000000
00010000
,
00000000
00100000
00010000
00000000
,
10000000
00000000
00000000
00010000
00000000
00000000
11000000
00000000
,
00000000
01100000
00000000
00110000
,
00000000
00011000
00000000
00001100
,
00000000
00000110
00000000
00000011
,
00000000
00000001
00000000
00001000
,
00000000
00000002
00000000
00000000
00000010
00000000
00000000
00000100
,
00000000
00001003
00000000
00000100
,
00000000
00020000
00000000
00000000
00000010
00000000
00000000
00000100
,
00000000
00031000
00000000
01100000
,
00000000
10000000
01000000
10000000
,
00100000
01000000
00010000
00100000
,
00001000
00010000
00000100
00001000
,
00000010
00000100
00000001
00000100
,
00000000
00001000
00000000
00000000
00010000
00000000
00000000
11000000
,
00000000
01010000
10000000
00010000
,
01000000
00010000
00100000
00010000
,
01000000
00010000
00100000
01000000
,
00010000
00001000
00010000
01000000
,
00010000
00001000
00010000
00000010
,
00001000
00000100
00001000
00000010
,
00001000
00000100
00001000
00000001
,
00000100
00001000
00000100
00000001
,
00000100
00001000
00000100
00001000
,
00000000
00100000
00000000
00000000
00001000
00000000
00000000
01000000
,
00000000
00000000
00001000
00000000
00000000
00010000
00000000
00000000
,
00000010
00000000
00000000
00010000
00000000
00000000
00000100
00000000
,
00010000
00001000
00010000
00100000
,
00010000
00001000
00010000
00100000
,
00010000
00001000
00010000
00100000
,
10000000
01000000
10000000
00100000
,
10000000
01000000
10000000
00010000
,
00100000
00010000
10000000
00010000
,
00100000
00010000
10000000
01000000
,
00010000
00001000
00010000
01000000
,
00010000
00001000
00010000
00000010
,
00000000
00000010
00000000
00000010
,
00000000
00000010
00000000
00000010
,
00000100
00000001
00000100
00001000
,
00010000
00100000
10000000
01000000
,
00000000
01000000
00000000
01000000
,
00000000
01000000
00000000
01000000
,
10000000
01000000
00010000
00001000
,
00000100
00000001
00000000
00000010
,
00000000
00000100
00000000
00000000
00000010
00000000
00000000
00000000
,
00001000
00000010
00000100
00000001
,
00000100
00001000
00010000
00100000
,
10000000
01000000
00010000
10000000
,
00000000
01000000
00000000
00010000
00000000
00001000
00000000
00000100
,
00000000
00000001
00000000
00000000
00000000
00000000
00000010
00000000
,
00000001
00000100
00001000
00010000
,
01000000
00000000
00000000
11000000
,
00000000
00110000
00000000
00000000
00011000
00000000
00000000
00000000
,
00001000
00000000
00000000
00011000
,
00000000
00001010
00000000
00000000
00000101
00000000
00000000
00000000
,
00000100
00000000
00000100
00000001
,
00000000
00001000
00000000
00000000
00010000
00000000
00000000
10000000
,
00000000
00000000
10000000
00000000
00000000
00010000
00000000
00000000
,
00100000
00000000
00000000
00001000
00000000
00000000
00020000
00000000
,
00000000
00000000
00030000
00001000
,
00010000
00001000
00000100
00000001
,
00000000
00000110
00000000
00000000
00000001
00000000
00000100
00000000
,
00001000
00010000
01000000
10000000
,
00100000
10000000
00010000
01000000
,
00001000
00100000
00000100
00010000
,
00000010
00001000
00000001
00000200
,
00000000
00000000
00000000
00000000
,
00000300
00001000
00001000
00010000
,
00010000
00000000
00000000
00000000
01000000
00000000
00000000
00000000
01000000
00000000
00000000
00000000
10000000
00000000
00000000
10000000
,
00000000
00000000
10000000
00000000
00000000
00000000
00000000
22000000
00000000
00000000
00000000
00000000
00000000
00000000
00000000
00000000
,
00000000
00000000
00000000
00000000
,
00000000
33000000
00000000
00000000
;

//---------------dance-double - ----------------
#NOTES:
     dance-double:
     :
     Hard:
     8:
     0.665004,0.790228,0.060065,0.040043,0.020022,465.000000,459.000000,6.000000,4.000000,0.000000,0.000000,0.665004,0.790228,0.060065,0.040043,0.020022,465.000000,459.000000,6.000000,4.000000,0.000000,0.000000:
00000000
00000000
00000000
00000000
,
00000000
00000000
00000000
00000000
,
00000000
00000000
00000000
00000000
,
00000000
00000000
00000000
00000000
,
00000000
00000000
00000000
00000000
,
00000000
00000000
00000000
00000000
,
00000000
00000000
00000000
00000000
,
00000000
00000000
00000000
00000000
,
00100000
00000000
00100000
10000000
00000000
10000000
00010000
00000000
,
00000000
10000000
00100000
01000000
,
00010000
00001000
00000100
00000010
,
00000001
00000010
00000100
00001000
,
00000100
00001000
00000100
00001000
00000000
00000010
00000000
00001000
,
00000000
00010000
00000000
00100000
00000000
00010000
10000000
00000000
,
01000000
00100000
01000000
00000000
00010000
00000000
00100000
00000000
,
00001000
00000000
00011000
00000000
00000000
00000100
00000000
00001000
,
00000100
00000000
00000100
00000010
00000000
00000010
00000001
00000000
,
00000100
00001000
00010000
00100000
,
00010000
00000000
00010000
10000000
00000000
10000000
00100000
00000000
,
10000000
01000000
00100000
00000000
00010000
00000000
00010000
00000000
,
00100000
00000000
00010000
01000000
00000000
00001000
00010000
00000000
,
00000100
00001000
00000000
00000010
00000100
00000000
00000001
00000100
,
00000000
00000010
00001000
00000000
00000100
00000010
00000000
00000001
,
00001000
00000100
00001000
00010000
,
01000000
00010000
00100000
00000000
00010000
00000000
10000000
00000000
,
00010000
00000000
00000000
01000000
00000000
00000000
00001000
00010000
,
00001000
00000000
00000010
00000000
00000100
00000000
00000001
00001000
,
00000001
00000000
00000100
00000000
00000010
00000000
00000100
00001000
,
00000100
00000000
00001000
00000000
00010000
00000000
00100000
00010000
,
00100000
01000000
10000000
00010000
,
10000000
01000000
00000000
01000000
00000000
00000000
10000000
00000000
,
01000000
00100000
00010000
00001000
,
00000010
00001000
00000010
00000000
00000100
00000000
00000001
00000000
,
00001000
00000100
00000000
00000000
00001000
00000000
00000001
00000000
,
00000000
00000100
00000010
00000000
00001000
00000000
00010000
00000000
,
00100000
01000000
10000000
00100000
,
00000000
00100000
01000000
00000000
00000000
01000000
00001000
00000000
,
00000000
00001000
00010000
00000000
00000000
00010000
00000100
00000000
,
00000000
00000100
00000010
00000000
00000000
00000010
00000001
00000000
,
00000000
00000001
00000100
00000000
00001000
00000000
00000100
00000000
,
00000000
00000001
00000000
00000100
00000000
00001000
00000000
00000100
,
00000000
00001000
00000000
00010000
00000000
01000000
00100000
00000000
,
00000000
10000000
00000000
00100000
00000000
10000000
01000000
00000000
,
00000000
00100000
00000000
00000000
00000000
00000000
00010000
00000000
00000000
01000000
00000000
00000000
00100000
00000000
00000000
00000000
,
00000000
10000000
01000000
10000000
00000000
00010000
10000000
00010000
,
00000000
01000000
00010000
01000000
00000000
00001000
00010000
00001000
,
00000000
00000100
00001000
00000100
00000000
00000010
00000100
00000010
,
00000000
00000001
00000010
00000001
00000000
00000010
00000100
00000000
,
00001000
00000100
00000000
00010000
00001000
00000000
01000000
00010000
,
00000000
10000000
00100000
00000000
10000000
00000000
00100000
01000000
,
00100000
00000000
10000000
00000000
00010000
00000000
00100000
00010000
,
00100000
00000000
00010000
00000000
00001000
00000000
00000100
00001000
,
00000100
00000000
00000010
00000000
00000100
00000000
00001000
00000001
,
00001000
00000000
00000010
00000000
00000100
00000000
00000001
00000100
,
00000001
00000000
00001000
00000000
00000010
00000000
00001000
00000001
,
00001000
00000000
00000010
00000000
00000100
00000000
00001000
00010000
,
00001000
00000000
00100000
00000000
00010000
00000000
01000000
00010000
,
01000000
00100000
10000000
01000000
,
01000000
10000000
00000000
00010000
01000000
00000000
00100000
01000000
,
00000000
00010000
10000000
00000000
01000000
00100000
00000000
00001000
,
00010000
00000000
00000010
00001000
00000100
00001000
00000001
00000000
,
00000010
00000001
00000010
00000000
00000100
00000000
00001000
00000010
,
00001000
00000000
00000001
00000000
00000010
00000100
00001000
00000100
,
00001000
00000000
00010000
00000000
00100000
00010000
01000000
00100000
,
10000000
00000000
00010000
00000000
01000000
00000000
00100000
10000000
,
00100000
00000000
01000000
00000000
00010000
10000000
00100000
01000000
,
00010000
00000000
01000000
00000000
00010000
00100000
00001000
00010000
,
00000010
00000000
00001000
00000000
00000001
00000010
00000100
00001000
,
00000010
00000000
00001000
00000000
00000010
00000100
00000001
00001000
,
00000100
00000000
00000010
00000000
00000001
00001000
00000001
00000000
,
00000001
00000100
00000100
00000010
,
00000010
00000000
00001000
00000000
00001000
00000000
00000100
00001000
,
00010000
00100000
01000000
00000000
10000000
00000000
00100000
00000000
,
00100000
10000000
10000000
01000000
,
01000000
00100000
00100000
00010000
,
00010000
00000000
01000000
00000000
01000000
00000000
10000000
00100000
,
00010000
00001000
00000100
00000000
00001000
00000000
00000010
00001000
,
00000001
00000100
00000010
00000000
00000100
00000000
00000010
00000000
,
00000010
00001000
00000000
00001000
00000001
00000000
00000000
00000000
,
00001000
00000000
00000100
00000000
00000010
00000000
00000100
00001000
,
00000100
00000000
00010000
00001000
00010000
00000000
01000000
00000000
,
00100000
00010000
00000000
10000000
00000000
00100000
10000000
00000000
,
00010000
01000000
00000000
00100000
00000000
10000000
00000000
01000000
,
00000000
00100000
00000000
00010000
01000000
00000000
00100000
10000000
,
00100000
01000000
00010000
00001000
,
00000100
00000000
00000000
00000010
00000000
00000001
00000100
00000000
,
00000100
00000010
00000000
00000010
00001000
00000000
00000100
00000000
,
00001000
00010000
01000000
00010000
,
00010000
01000000
00000000
01000000
00100000
00000000
10000000
00000000
,
01000000
00100000
00010000
01000000
,
00010000
00100000
00000000
00001000
00010000
00000000
00000010
00001000
,
00000000
00000001
00000100
00000001
00000000
00001000
00000000
00000010
,
00001000
00000010
00000000
00000100
00000000
00000001
00001000
00000001
,
00000000
00000010
00000000
00000100
00000000
00000010
00001000
00000100
,
00001000
00000100
00001000
00010000
,
00100000
00010000
00000000
01000000
00010000
10000000
00100000
00000000
,
10000000
00000000
01000000
00000000
00100000
01000000
00100000
00000000
,
00010000
00000000
01000000
00000000
00100000
10000000
00100000
00000000
,
01000000
00000000
00010000
00000000
00100000
00010000
00100000
00000000
,
00001000
00010000
00001000
00000000
00010000
00000000
00022000
00000000
,
00000000
00000000
00000000
00000000
,
00033000
00000000
00100000
00001000
00010000
00000000
00000010
00010000
,
00001000
00000000
00000000
00000000
01000000
00000000
00001000
00000000
00010000
00000000
00000000
00000000
00001100
00000000
00000000
00011000
,
00000000
00000000
00110000
00000000
00000000
00000000
00000000
00022000
00000000
00000000
00000000
00000000
00000000
00000000
00000000
00000000
,
00000000
00000000
00000000
00000000
,
00000000
00033000
00000000
00000000
;

//---------------dance-single - ----------------
#NOTES:
     dance-single:
     :
     Challenge:
     13:
     1.172695,1.210245,0.650703,0.150162,0.670724,820.000000,755.000000,65.000000,15.000000,0.000000,0.000000,1.172695,1.210245,0.650703,0.150162,0.670724,820.000000,755.000000,65.000000,15.000000,0.000000,0.000000:
// measure 0
1001
0000
0100
0010
0000
0010
0100
0000
,  // measure 1
1000
0010
1000
0010
0000
0000
0100
0000
0000
0001
0000
0000
,  // measure 2
1000
0010
0100
0001
0010
0100
0010
0001
,  // measure 3
1000
0010
0100
0010
0001
0010
0100
0001
,  // measure 4
1000
0100
0010
0011
0000
1001
0000
1010
,  // measure 5
0000
0110
0000
0101
0000
0001
0010
0100
,  // measure 6
1000
0100
0001
0100
1000
0010
0001
0010
,  // measure 7
1000
0001
1000
0001
0000
0000
0000
0000
0000
0000
0000
0000
,  // measure 8
1001
0000
0010
0100
0000
0100
1000
0000
,  // measure 9
0001
0100
0001
1000
0000
0000
0010
0000
0000
0100
0000
0000
,  // measure 10
0001
0100
0010
1000
0100
0001
0100
0010
,  // measure 11
0001
0100
0010
0100
1000
0100
0010
1000
,  // measure 12
0001
0010
0100
1100
0000
0110
0000
0011
,  // measure 13
0000
1001
0000
0101
0000
1000
0100
0010
,  // measure 14
0001
0010
1000
0010
0001
0100
1000
0100
,  // measure 15
0001
0000
0000
0000
0100
0000
0000
0000
0010
0000
0000
0000
1000
0000
0000
0000
0000
0000
0000
0000
0000
0000
0000
0000
0000
0000
0000
0000
0000
0000
0000
0000
0000
0000
0000
0000
0000
0000
0000
0000
0000
0000
1000
0000
0000
0010
0000
0000
,  // measure 16
1000
0001
0010
0100
0010
0001
1000
0000
,  // measure 17
0010
0000
0000
0100
0000
0000
0001
0000
0000
0100
0000
0000
0001
0000
1000
0000
0001
0000
0100
0000
0010
0000
0100
0000
,  // measure 18
0001
1000
0100
0010
0100
0010
0001
0000
,  // measure 19
1000
0000
0000
0010
0000
0000
0100
0000
0010
0000
0100
0000
0010
0000
1000
0000
0010
0000
1000
0000
0001
0000
1000
0000
,  // measure 20
0001
1000
0010
1000
0001
0010
0100
1000
,  // measure 21
0001
0100
0001
1000
0010
0000
0000
1010
,  // measure 22
0000
0000
0010
1000
0001
0000
0000
0000
0000
0000
1010
0000
0000
0000
0000
0000
,  // measure 23
0001
0000
0000
1000
0000
0000
0001
0000
0010
0000
0100
0000
0010
0000
0001
0000
0010
0000
0001
0000
1000
0000
0100
0000
,  // measure 24
1000
0100
0010
0001
1000
0100
0010
0001
,  // measure 25
1000
0000
0000
1010
0000
0000
1001
1000
,  // measure 26
0010
1000
0001
0010
0100
0010
0001
0000
,  // measure 27
1000
0000
0010
0000
0100
0000
0010
0000
0000
1000
0000
0000
0001
0000
0000
0010
0000
0000
0100
0000
0000
0010
0000
0000
,  // measure 28
0001
0000
1000
0000
0001
1000
0001
1000
0001
1000
0001
0000
1000
0000
0001
0000
,  // measure 29
0010
0000
0100
0000
0010
0100
0010
0100
0010
0100
0010
0000
0001
0000
0000
0000
,  // measure 30
0001
1001
0000
1001
0000
0000
1010
0000
,  // measure 31
0110
0000
0000
0101
0000
0000
1001
0000
0000
1000
0100
1000
,  // measure 32
0010
1000
0100
0010
0001
0100
0010
1000
,  // measure 33
0100
0001
0100
1000
0010
0100
1000
0100
,  // measure 34
0000
0100
0001
0000
1001
0000
0001
0100
,  // measure 35
0001
0000
1000
0000
0010
1000
0001
0000
1000
0000
0100
0000
0010
0000
0001
0000
,  // measure 36
0100
1000
0100
0001
0010
1000
0010
0001
,  // measure 37
0100
0010
0100
1000
0100
0001
0010
0100
,  // measure 38
0010
1000
0010
0001
1000
0100
0001
0100
,  // measure 39
0010
0100
1000
0001
1000
0001
1001
0000
,  // measure 40
0000
0110
0000
0010
1000
0100
0010
0100
,  // measure 41
0010
0000
0000
0000
0100
0000
0000
0000
0010
0000
0000
0000
0100
0000
0000
0000
0010
0000
0000
0000
0100
0000
0000
0000
0010
0000
0000
0100
0000
0000
0010
0000
0000
0100
0000
0000
0010
0000
0000
0000
0000
0000
0000
0000
0000
0000
0000
0000
,  // measure 42
0000
0000
0000
1001
0000
0000
0000
0000
0000
1000
0000
0000
0010
0000
0000
0100
0000
0000
0001
0000
0000
0000
0010
0000
,  // measure 43
0000
0100
0000
1000
0000
0001
0100
0001
0000
0101
0000
0000
,  // measure 44
1000
0100
1000
0010
0100
0001
1000
0001
,  // measure 45
0100
0000
0010
1000
0010
0000
0100
0000
0001
0000
0100
0000
1000
0000
0100
0000
,  // measure 46
0001
0000
0010
0100
0010
0000
0001
0000
0010
0000
0100
0000
1000
0000
0001
0000
,  // measure 47
0100
0000
0001
1000
0001
0000
0010
0000
0001
0000
1000
0000
1001
0000
0000
0000
,  // measure 48
0001
0101
0000
0100
0110
0000
0010
1010
,  // measure 49
0000
0000
0000
1000
0000
0000
0010
0000
0000
1000
0000
0000
0001
0000
1000
0000
0010
0000
1000
0000
0000
0000
0000
0000
,  // measure 50
1000
0000
0100
0000
0000
0000
1000
0100
0010
0000
0100
0000
0010
0000
0000
0000
,  // measure 51
0001
0000
1000
0000
0000
0000
0001
0100
0001
0100
0001
0000
0000
0000
0001
0000
,  // measure 52
1000
0000
0000
0000
0000
0000
0000
0000
0000
0010
0000
0000
0100
0000
0000
0010
0000
0000
1000
0000
0010
0000
0100
0000
,  // measure 53
0010
0100
0001
1000
0000
0000
1010
0000
0000
0101
0000
0000
,  // measure 54
1000
0000
0100
0000
0010
0000
0100
1000
0001
0010
0001
1000
0020
0000
0100
0000
,  // measure 55
0100
0000
0100
0030
0010
0100
0010
0000
0200
0000
0000
0000
0301
1000
0002
0000
,  // measure 56
0000
0000
0103
0010
0100
0000
0001
0100
0001
0100
0001
1000
0002
0000
0000
0000
,  // measure 57
0000
0003
1100
0000
0000
0000
1000
0010
1000
0000
0000
0000
1001
0000
0000
0000
,  // measure 58
1000
0100
0001
0100
0010
0000
0010
0001
,  // measure 59
0100
1000
0100
0000
1000
0100
0001
0010
,  // measure 60
0100
1000
0100
0010
0001
0100
0101
0001
,  // measure 61
0010
0100
1000
0001
1001
1000
0002
0000
,  // measure 62
0100
0000
0000
0000
0000
0000
0103
0000
0000
0000
0000
0000
0000
0000
0000
0000
0002
0000
0000
0000
0000
0000
0000
0000
0000
0000
0000
0000
0003
0000
0000
0000
0000
0000
0000
0000
1000
0000
0000
0100
0000
0000
1000
0000
0000
0000
0000
0000
,  // measure 63
0001
0000
0010
0000
0001
0010
0001
0000
4000
0000
0000
0000
0010
0000
0000
0000
,  // measure 64
3000
0001
0100
0000
0002
0000
0000
0000
1003
0010
1000
0010
1000
0000
0010
0000
,  // measure 65
1000
0001
1000
0000
0010
0100
0020
0000
0000
0000
0400
0000
0000
0000
0000
0030
,  // measure 66
0000
0000
0000
0300
0000
0000
0000
0000
0001
0000
0000
0000
1000
0000
0000
0000
0100
0000
0000
0000
0010
0000
0000
0000
0002
0000
0000
0000
0000
0000
0000
0000
0000
0000
0000
0000
0100
0000
0000
0000
0000
0000
0103
0000
0000
0000
0000
0000
,  // measure 67
0001
0000
0010
0000
0100
1000
0100
0000
1000
0000
0001
0000
0100
0001
0000
0100
,  // measure 68
0001
0100
0001
0000
1000
0000
0001
1000
0001
0000
0100
0000
0020
0000
0100
0000
,  // measure 69
0130
0010
0100
0001
1001
0000
2000
0000
,  // measure 70
0001
0000
0001
0000
0000
0000
3001
0000
1001
0000
0000
0000
0001
0100
0001
0000
,  // measure 71
1000
0000
0000
0001
0000
0000
1000
0000
0000
0000
0000
0000
0010
0000
0000
1000
0000
0000
0020
0000
0000
0000
0000
0000
0000
0000
0000
0000
0000
0000
0030
0000
0000
0000
0000
0000
1000
0000
0000
0000
0010
0000
0000
0000
0100
0000
0000
0000
,  // measure 72
0001
1000
0100
0010
0100
1000
0001
0010
0001
0100
0010
0100
,  // measure 73
0002
0000
0000
0000
0003
0000
0101
0000
0000
0000
0000
0000
0010
0000
0000
1000
0000
0000
0100
0000
0000
1000
0000
0000
,  // measure 74
1000
1010
1001
1001
,  // measure 75
0011
0000
0010
0110
0000
1000
1001
0000
,  // measure 76
0001
0101
0000
0010
1010
0000
1000
0100
,  // measure 77
1000
0100
0010
0001
0010
0001
1001
0000
,  // measure 78
1000
0010
0000
0001
0100
0010
0010
0000
,  // measure 79
0110
0000
0101
0000
1001
0000
1000
0010
,  // measure 80
0001
0010
0100
0001
1000
0100
0010
1000
,  // measure 81
0010
0100
0001
0100
1000
0010
0001
0010
,  // measure 82
1000
0100
0000
0110
0000
0011
0000
1001
,  // measure 83
0000
0110
0000
0010
1000
0100
0001
1000
,  // measure 84
0010
0000
0000
0001
0000
0000
0100
0000
0000
0010
0000
0000
0001
0000
0000
0010
0000
0000
0100
0000
0001
0000
0100
0000
,  // measure 85
0010
0000
0000
0000
0000
0010
1000
0100
,  // measure 86
0001
1000
0010
0001
0100
0000
0100
0010
,  // measure 87
1000
0000
0000
0001
0000
0000
1000
0000
0100
0000
0010
0000
0100
0000
1000
0000
0100
0000
0010
0000
0000
0000
0000
0000
,  // measure 88
0010
1000
0000
1000
0010
0000
0010
0001
,  // measure 89
0100
0000
0010
0000
1000
0000
0001
0000
0010
0000
0001
0000
1000
0000
0010
0000
0100
0000
0010
0000
0000
0100
0000
0000
,  // measure 90
1000
0100
0010
0100
0001
0010
1000
0001
,  // measure 91
1000
0000
0010
0000
0001
0000
0000
0000
0101
0000
0000
0000
0000
0100
0001
0100
,  // measure 92
0000
0000
0000
0000
1001
0000
0000
0000
0000
0000
1000
0010
1000
0000
0010
0000
,  // measure 93
1000
0000
0001
0000
0010
0000
0100
0000
0010
0000
0001
0000
0010
0000
0100
0000
1000
0000
0100
0000
0000
0010
0000
0000
,  // measure 94
1000
0010
0001
0100
1000
0100
0010
0000
,  // measure 95
0000
1010
0000
0000
1010
0010
0100
0001
,  // measure 96
1000
0000
0000
0100
0000
0000
0001
0000
0000
0100
0000
0000
0010
0000
0000
0001
0000
0000
0100
0000
0010
0000
0100
0000
,  // measure 97
0001
0100
0010
1000
0001
1000
0010
0100
,  // measure 98
0001
0100
0001
0100
0001
0100
0001
0000
1000
0000
0100
0000
0010
0000
0100
0000
,  // measure 99
1000
0010
1000
0010
1000
0010
1000
0000
0010
0000
0000
0000
1001
0000
0000
0000
,  // measure 100
0000
0000
0000
0000
,  // measure 101
0000
0000
0000
0000
1000
0100
1000
0010
1000
0000
0000
0000
0001
0010
0001
0100
,  // measure 102
0001
0000
0000
0000
1000
0001
1000
0001
1000
0000
0000
0000
0110
0000
0101
0000
,  // measure 103
0000
0000
1001
0000
0000
0000
0000
2200
0000
0000
0000
0000
0000
0000
0000
0000
,  // measure 104
0000
0000
0000
0000
,  // measure 105
0000
3300
0000
0000
0000
0000
0000
0000
;
