#TITLE:Tesla Coil;
#SUBTITLE:;
#ARTIST:Rephaim;
#TITLETRANSLIT:;
#SUBTITLETRANSLIT:;
#ARTISTTRANSLIT:;
#GENRE:;
#CREDIT:;
#BANNER:Tesla Coil.png;
#BACKGROUND:Tesla Coil-bg.png;
#LYRICSPATH:;
#CDTITLE:;
#MUSIC:Tesla Coil.mp3;
#OFFSET:-0.031000;
#SAMPLESTART:31.740993;
#SAMPLELENGTH:12.000000;
#SELECTABLE:YES;
#BPMS:0.000000=180.000000
,224.000000=145.000000
;
#STOPS:
;
#BGCHANGES:;
#KEYSOUNDS:;
#ATTACKS:;

//---------------dance-single - ----------------
#NOTES:
     dance-single:
     :
     Easy:
     3:
     0.128571,0.166019,0.008738,0.026213,0.000000,103.000000,102.000000,1.000000,3.000000,0.000000,0.000000,0.128571,0.166019,0.008738,0.026213,0.000000,103.000000,102.000000,1.000000,3.000000,0.000000,0.000000:
0000
0000
0000
0000
,
0000
0000
0000
0000
,
0000
0000
0000
0000
,
0000
0000
0000
0000
,
0010
0000
1000
0000
,
0001
0000
0000
0000
,
0010
0000
0010
0000
,
0010
0000
0000
0000
,
0100
0000
1000
0000
,
0001
0000
0000
0000
,
0100
0000
0100
0000
,
0100
0000
0000
0000
,
0010
0000
0000
0000
,
0010
0000
0000
0000
,
1000
0000
0001
0000
,
1000
0000
0000
0000
,
0100
0000
0000
0000
,
0100
0000
0000
0000
,
0010
0000
0000
0000
,
0010
0000
0000
0000
,
0001
0000
0000
0000
,
0001
0000
0000
0000
,
2000
0000
0000
3000
,
0002
0000
0000
0003
,
0100
0000
0100
0000
,
0010
0000
0000
0010
,
1000
0000
1000
0000
,
0001
0000
0000
0000
,
0010
0000
0010
0000
,
0100
0000
0000
1000
,
0001
0000
0001
0000
,
0100
0000
0000
0000
,
0010
0000
1000
0000
,
0010
0000
0000
0000
,
0100
0000
0001
0000
,
0100
0000
0000
0000
,
0001
0000
0010
0000
,
0001
0000
0000
0000
,
0010
0000
0100
0000
,
1000
0000
0000
0000
,
0001
0000
0000
0001
,
0100
0000
0000
0100
,
0010
0000
0000
0010
,
1000
0000
0000
0000
,
0001
0000
0000
0000
,
0001
0000
0000
0000
,
0010
0000
0100
0000
,
1000
0000
0000
0000
,
0100
0000
0000
0000
,
0100
0000
0000
0000
,
0010
0000
0001
0000
,
1000
0000
0000
0000
,
0010
0000
0000
0000
,
0100
0000
0000
0000
,
0001
0000
1000
0000
,
0001
0000
1000
0000
,
0002
0000
0000
0003
,
0000
0000
0000
0000
,
0000
0000
0000
0000
,
0000
0000
0000
0000
,
1000
0000
0100
0000
,
0010
0000
0000
0000
,
0001
0000
0010
0000
,
0100
0000
0000
0000
,
1000
0000
0100
0000
,
0001
0000
0000
0000
,
0001
0000
0100
0000
,
1000
0000
0000
0000
,
0001
0000
0100
0000
,
0010
0000
0010
0000
,
1000
0000
0001
0000
,
1000
0000
0000
0000
,
0100
0000
0010
0000
,
0001
0000
0001
0000
,
0100
0000
0010
0000
,
1000
0000
0000
0000
,
1001
0000
0000
0000
;

//---------------dance-single - ----------------
#NOTES:
     dance-single:
     :
     Medium:
     6:
     0.416919,0.498056,0.026213,0.200970,0.000000,334.000000,331.000000,3.000000,23.000000,0.000000,0.000000,0.416919,0.498056,0.026213,0.200970,0.000000,334.000000,331.000000,3.000000,23.000000,0.000000,0.000000:
0000
0000
0000
0000
,
0000
0000
0000
0000
,
0000
0000
0000
0000
,
0000
0000
0000
0000
,
0001
0000
0000
0100
0000
0000
0001
0000
,
0010
0100
0010
0000
0100
0000
1000
0000
,
1000
0000
0001
0100
0000
0000
0010
0000
,
2000
0000
3100
0000
,
0010
0000
0000
0001
0000
0000
0001
0000
,
1000
0100
1000
0000
0010
0000
0100
0000
,
0100
0000
0001
0010
0001
0010
0001
0000
,
2000
0000
3010
0000
,
0100
0000
0000
0001
0000
0000
0010
0000
,
0100
1000
0100
0000
0010
0000
0001
0000
,
0001
0000
0010
0100
0000
0000
1000
0000
,
0002
0000
0203
0000
,
0310
1000
0000
0000
0000
1000
0100
0000
,
0010
0000
0000
0000
0000
0001
0000
0000
,
0100
0010
0000
0000
0000
1000
0100
0000
,
1000
0000
0000
0010
0000
0100
0010
0000
,
1000
0001
0000
0000
0000
0010
0100
0000
,
0010
0000
0000
0100
0000
1000
0001
0000
,
2000
0000
0000
0000
0000
0000
0000
3000
,
0002
0000
0000
0013
,
0100
1000
0100
0000
0010
0001
0010
0000
,
0001
0000
1000
0010
0100
0000
0010
0000
,
0100
0000
0001
0000
1000
0100
1000
0000
,
0100
0010
0100
0000
0020
0000
0031
0000
,
1000
0010
0000
1000
0010
0000
0100
0000
,
0002
0013
0200
1300
,
0001
0100
0001
0100
0000
0001
0000
0100
,
0010
0000
1000
0000
0001
0010
0001
0000
,
1000
0000
0100
0010
0200
0000
1300
0000
,
0001
0100
0001
0000
0100
0010
0100
0000
,
0001
1000
0001
0010
0000
0010
0100
0000
,
1000
0010
1000
0000
0001
0100
0002
0000
,
0103
0010
0100
0000
0002
0000
0013
0000
,
0100
1000
0002
0000
,
0103
0000
0010
1000
0010
0000
0000
0000
,
0100
0001
0100
0000
0001
1000
0100
0000
,
0010
0001
1001
0100
,
0010
0000
2000
0000
3010
0000
0010
0100
,
0001
0000
0010
0000
0200
0000
1300
0001
,
1000
0000
0001
0100
0002
0000
0203
0000
,
0310
1000
0000
1000
0001
0000
0010
0000
,
0100
1000
0002
0000
0000
0000
0013
0000
,
0100
1000
0100
1000
0000
0100
0000
1000
,
0001
0000
0100
0001
0200
0000
0320
0000
,
1030
0001
1000
0000
0020
0000
0130
0000
,
0001
1000
0001
0000
1000
0001
1000
0000
,
0100
0010
0001
0010
0000
0001
0010
0000
,
0001
1000
0010
0000
0100
0001
0100
0000
,
0010
1000
0002
0013
,
0100
0000
1000
0000
0001
1000
0001
1000
,
0001
0000
0010
0100
0010
0000
0001
0000
,
0100
0010
0100
0000
0010
1000
0010
1000
,
0002
0000
0000
0000
,
0000
0000
0000
0000
,
0003
0000
0000
0000
,
0000
0000
0000
0000
,
1000
0000
0100
0000
0010
0100
0010
0100
,
0010
0001
0101
0000
,
0010
0000
1000
0000
0001
1000
0001
1000
,
0100
0000
0010
0000
0001
0010
0100
0000
,
1000
0010
0000
0100
0010
0100
0000
0001
,
1000
0000
0100
0000
0010
0001
0010
0000
,
0100
1000
0001
1000
0000
0010
0000
0010
,
0100
0000
0001
1000
0001
1000
0001
1000
,
0010
0000
0100
0001
0100
0000
1001
0000
,
0010
0100
0001
0000
0010
0100
1000
0000
,
0100
0010
0100
0010
0000
0010
0000
0001
,
1000
0001
1000
0000
0010
0100
0010
0100
,
0010
0000
1000
0001
1000
0000
0100
0000
,
0010
0001
0010
0001
1000
0100
1000
0100
,
1000
0000
0010
0001
0100
0000
0010
0000
,
0100
0001
0100
0001
1000
0001
1000
0001
,
0010
0000
0000
0000
;

//---------------dance-single - ----------------
#NOTES:
     dance-single:
     :
     Hard:
     9:
     0.615392,0.763686,0.043689,0.148543,0.266504,493.000000,488.000000,5.000000,17.000000,0.000000,0.000000,0.615392,0.763686,0.043689,0.148543,0.266504,493.000000,488.000000,5.000000,17.000000,0.000000,0.000000:
0000
0000
0000
0000
,
0000
0000
0000
0000
,
0000
0000
0000
0000
,
0000
0000
0000
0000
,
1001
0000
0010
0100
0002
0000
1000
0000
,
0013
0100
1000
0000
0100
0000
0010
0000
,
0010
0000
0001
0001
1000
0010
1000
0010
,
0200
0000
0000
0000
0301
1000
0000
0100
,
1000
0000
0001
0100
0010
2000
0000
3000
,
0001
0010
0100
1000
0001
0000
0100
0000
,
0100
0000
0001
1000
0001
1000
0100
0000
,
0010
0001
0000
0001
1000
0010
1000
0000
,
0001
0000
0100
1000
0100
0000
0010
0000
,
1000
0001
0010
0000
0100
0000
1000
0000
,
1000
0000
0010
0010
0100
0001
0010
0000
,
0200
1000
2300
0010
,
3001
0001
0000
1000
0000
0001
0001
0100
,
0010
0000
0000
1000
0000
0100
0100
0000
,
0010
0010
0000
0001
0000
1000
1000
0010
,
0100
0000
0000
0001
0000
0010
0100
1000
,
0001
0100
0000
0010
0000
1000
1000
0100
,
0010
0000
0000
0001
0000
0100
0010
1000
,
0002
0000
0000
0000
,
0000
2003
0000
0000
0000
0000
3100
0000
,
0010
0010
0001
1000
0010
0100
0002
0000
,
0103
0010
1000
1000
1000
0000
0100
0010
,
0100
1000
0100
1000
0001
0001
0100
0010
,
1000
0000
0001
0000
1000
0000
0001
0000
0100
0001
0100
0001
0100
0000
0000
0000
,
0001
0001
0000
0001
0100
0100
0010
0000
,
1000
0001
1000
0001
1000
0000
0001
0000
0010
0001
0010
0001
0010
0000
0000
0000
,
0100
0000
0100
0000
1000
0100
1000
0000
0000
0000
0100
0000
0000
0000
0010
0000
,
0001
0000
1000
1000
0010
0100
0010
0100
,
0001
0000
1000
0100
2000
0000
3001
0000
,
0100
0100
0010
1000
0001
0010
0100
0100
,
1000
0001
1000
0010
0000
0010
0100
0001
,
0010
0000
0010
0000
0100
0000
1000
0000
0001
0000
0001
0000
1000
0001
1000
0001
,
0100
0100
0010
1000
0002
0000
0013
0000
,
0100
0000
1000
0000
0100
0000
1000
0000
0001
0010
0001
0010
0001
0010
0001
0010
,
0100
1000
0001
0100
0010
0000
0010
0000
,
0100
0000
0001
0000
1000
0001
1000
0000
0100
0000
0010
0000
0001
0000
0010
0000
,
0100
1000
0001
1000
0100
0000
0001
0100
,
0010
0000
1000
0000
0001
0010
0001
0010
0001
0000
0000
0000
0100
0000
0010
0000
,
1000
0000
0000
0000
0001
0000
1000
0000
0010
0100
0010
0100
0010
0000
1000
0000
,
1000
0000
0000
0000
0001
0000
0010
0000
0100
1000
0100
1000
0002
0000
0000
0000
,
0103
0100
0000
0010
0010
0000
1000
0100
,
0010
0000
0100
0000
1000
0001
1000
0001
1000
0001
1000
0001
1000
0000
0000
0000
,
0010
0000
0100
0000
0001
0100
0001
0000
0000
0000
0010
0000
0000
0000
0100
0000
,
1000
0000
0001
0000
0100
0000
0001
0000
1000
0010
1000
0010
0200
0000
0000
0000
,
0301
0001
0010
0100
2000
0000
3001
0000
,
0100
0100
0001
0001
2000
0100
3100
0010
,
0001
0000
0100
0000
0010
0000
1000
0000
0000
0000
1000
0000
0001
1000
0001
0000
,
0010
0000
0100
0000
1000
0000
0100
0000
0010
0001
0010
0000
0100
0000
1000
0000
,
0001
0001
0100
0100
0020
0000
1030
0000
,
0001
0000
0010
0000
0100
0000
0100
0000
1000
0001
1000
0001
1000
0001
1000
0001
,
1000
0000
0010
0000
0100
0001
0100
0000
0010
0000
0000
1000
0001
0000
0010
0000
,
0100
0000
1000
0000
0010
1000
0010
0000
0100
0001
0100
0001
0100
0001
0100
0001
,
2000
0000
0000
0000
,
0000
0000
0000
0000
,
3000
0000
0000
0000
,
0000
0000
0000
0000
,
0001
0000
0010
0000
0100
0100
1001
0010
,
0010
0100
1001
0000
,
0010
0000
0100
0000
0001
0001
1010
0100
,
0010
0000
0010
0000
1000
0000
1000
0000
0001
1000
0001
1000
0100
0000
0000
0000
,
0010
0010
0001
1000
1000
1000
0010
0100
,
0001
0000
0001
0000
0010
0000
0010
0000
0100
1000
0100
1000
0100
0000
0000
0000
,
0010
0000
0001
1000
0001
1000
0001
0000
0000
0000
0100
0000
0000
0000
0100
0000
,
0010
0000
0000
0000
1000
0000
0001
0000
0010
0100
0010
0100
1000
0100
0010
0100
,
0010
0001
0100
0001
0010
0000
1100
0000
,
0001
0001
0100
0020
0000
1030
0001
0010
,
0100
0000
1000
0001
1000
0000
0010
0000
0000
0000
0010
0000
0000
0000
0100
0000
,
0001
0000
0001
0000
1000
0000
0100
0000
0010
0000
0010
0000
0001
1000
0001
1000
,
0010
0000
0100
0001
0001
0000
1000
0000
,
0100
0000
0100
0000
0010
0000
0010
0000
0001
1000
0001
1000
0001
1000
0001
1000
,
0010
0100
0001
0010
0010
0000
0100
0000
,
1000
0000
0001
0000
1000
0000
0001
0000
0100
0010
0100
0010
0100
0010
0100
0010
,
0001
0000
0000
0000
;

//---------------dance-double - ----------------
#NOTES:
     dance-double:
     :
     Easy:
     3:
     0.128571,0.166019,0.008738,0.026213,0.000000,103.000000,102.000000,1.000000,3.000000,0.000000,0.000000,0.128571,0.166019,0.008738,0.026213,0.000000,103.000000,102.000000,1.000000,3.000000,0.000000,0.000000:
00000000
00000000
00000000
00000000
,
00000000
00000000
00000000
00000000
,
00000000
00000000
00000000
00000000
,
00000000
00000000
00000000
00000000
,
10000000
00000000
01000000
00000000
,
10000000
00000000
00000000
00000000
,
00010000
00000000
01000000
00000000
,
00010000
00000000
00000000
00000000
,
00100000
00000000
00001000
00000000
,
00100000
00000000
00000000
00000000
,
00001000
00000000
00010000
00000000
,
00010000
00000000
00000000
00000000
,
00000100
00000000
00000000
00000000
,
00000100
00000000
00000000
00000000
,
00000010
00000000
00000001
00000000
,
00000010
00000000
00000000
00000000
,
00000100
00000000
00000000
00000000
,
00000100
00000000
00000000
00000000
,
00010000
00000000
00000000
00000000
,
00010000
00000000
00000000
00000000
,
00001000
00000000
00000000
00000000
,
00001000
00000000
00000000
00000000
,
02000000
00000000
00000000
03000000
,
00020000
00000000
00000000
00030000
,
10000000
00000000
10000000
00000000
,
01000000
00000000
00000000
01000000
,
00100000
00000000
00010000
00000000
,
00100000
00000000
00000000
00000000
,
00001000
00000000
00010000
00000000
,
00001000
00000000
00000000
00010000
,
00000100
00000000
00010000
00000000
,
00000100
00000000
00000000
00000000
,
00001000
00000000
00000100
00000000
,
00001000
00000000
00000000
00000000
,
00000100
00000000
00000010
00000000
,
00000100
00000000
00000000
00000000
,
00000010
00000000
00000001
00000000
,
00000010
00000000
00000000
00000000
,
00000001
00000000
00000100
00000000
,
00000010
00000000
00000000
00000000
,
00000100
00000000
00000000
00000100
,
00001000
00000000
00000000
00001000
,
00010000
00000000
00000000
00010000
,
00100000
00000000
00000000
00000000
,
10000000
00000000
00000000
00000000
,
01000000
00000000
00000000
00000000
,
00010000
00000000
00001000
00000000
,
00010000
00000000
00000000
00000000
,
00000010
00000000
00000000
00000000
,
00001000
00000000
00000000
00000000
,
00000001
00000000
00000010
00000000
,
00000100
00000000
00000000
00000000
,
00010000
00000000
00000000
00000000
,
00001000
00000000
00000000
00000000
,
00100000
00000000
00010000
00000000
,
01000000
00000000
00100000
00000000
,
20000000
00000000
00000000
30000000
,
00000000
00000000
00000000
00000000
,
00000000
00000000
00000000
00000000
,
00000000
00000000
00000000
00000000
,
01000000
00000000
01000000
00000000
,
00100000
00000000
00000000
00000000
,
00001000
00000000
00010000
00000000
,
00001000
00000000
00000000
00000000
,
00010000
00000000
00010000
00000000
,
00000010
00000000
00000000
00000000
,
00000100
00000000
00000001
00000000
,
00001000
00000000
00000000
00000000
,
00000001
00000000
00000010
00000000
,
00001000
00000000
00000010
00000000
,
00000001
00000000
00001000
00000000
,
00000001
00000000
00000000
00000000
,
00000100
00000000
00000010
00000000
,
00010000
00000000
00001000
00000000
,
00100000
00000000
00010000
00000000
,
10000000
00000000
00000000
00000000
,
10010000
00000000
00000000
00000000
;

//---------------dance-double - ----------------
#NOTES:
     dance-double:
     :
     Medium:
     6:
     0.396947,0.498056,0.026213,0.157281,0.000000,318.000000,315.000000,3.000000,18.000000,0.000000,0.000000,0.396947,0.498056,0.026213,0.157281,0.000000,318.000000,315.000000,3.000000,18.000000,0.000000,0.000000:
00000000
00000000
00000000
00000000
,
00000000
00000000
00000000
00000000
,
00000000
00000000
00000000
00000000
,
00000000
00000000
00000000
00000000
,
00000001
00000000
00000000
00000010
00000000
00000000
00000100
00000000
,
00010000
00001000
00010000
00000000
00001000
00000000
01000000
00000000
,
01000000
00000000
00100000
10000000
00000000
00000000
01000000
00000000
,
00200000
00000000
00301000
00000000
,
00010000
00000000
00000000
00000100
00000000
00000000
00010000
00000000
,
00001000
00000100
00001000
00000000
00000100
00000000
00000001
00000000
,
00000001
00000010
00000100
00000100
,
00020000
00000000
00031000
00000000
,
00100000
00000000
00000000
00010000
00000000
00000000
10000000
00000000
,
01000000
00010000
01000000
00000000
00010000
00000000
00001000
00000000
,
00001000
00000000
00010000
00000100
00000000
00000000
00001000
00000000
,
00000020
00000000
00000230
00000000
,
00000301
00001000
00000000
00000000
00000000
00001000
00000100
00000000
,
00000010
00000000
00000000
00000000
00000000
00001000
00000000
00000000
,
00010000
00001000
00000000
00000000
00000000
01000000
00010000
00000000
,
00100000
00000000
00000000
01000000
00000000
00010000
01000000
00000000
,
10000000
00100000
00000000
00000000
00000000
01000000
00001000
00000000
,
00010000
00000000
00000000
00001000
00000000
00010000
00001000
00000000
,
00020000
00000000
00000000
00000000
,
00030020
00000000
00000000
00001030
,
00000010
00000001
00000010
00000000
00001000
00000001
00001000
00000000
,
00000100
00010000
00001000
00100000
,
10000000
00000000
00100000
00000000
00010000
10000000
00010000
00000000
,
01000000
00100000
01000000
00000000
00002000
00000000
00013000
00000000
,
00010000
00000100
00000000
00010000
00000100
00000000
00001000
00000000
,
00000020
00000130
00000002
00001003
,
00000100
00000000
00010000
00001000
00000000
00010000
00000000
00001000
,
00100000
00000000
00010000
00000000
01000000
00100000
01000000
00000000
,
00010000
00000000
10000000
01000000
10000000
00000000
00000000
00000000
,
00100000
00001000
00100000
00000000
00001000
00010000
00001000
00000000
,
00010000
00000000
00000010
00010000
00000000
00000010
00010000
00000000
,
00000010
00001000
00000010
00000000
00000100
00000001
00001000
00000000
,
00000001
00000010
00000200
00010300
,
00001000
00100000
00020000
00000000
,
00130000
00000000
01000000
10000000
01000000
00000000
00000000
00000000
,
00100000
00001000
00100000
00000000
00001000
00010000
00001000
00000000
,
00000100
00000010
00000110
00000100
,
00000001
00000000
00002000
00000000
00003100
00000000
00000100
00010000
,
00001000
00000000
00100000
00000000
00020000
00000000
10030000
00010000
,
10000000
00000000
00100000
01000000
00200000
00000000
00300000
00000000
,
10000000
00010000
00000000
10000000
00010000
00000000
00100000
00000000
,
00001000
00010000
00002000
00000000
00000000
00000000
00013000
00000000
,
00000010
00000000
00001000
00000100
00000000
00001000
00000000
00000100
,
00001000
00000000
00000001
00001000
00000020
00000000
00000030
00000000
,
00001000
00000001
00001000
00000000
00000100
00000000
00000010
00000000
,
00001000
00010000
00001000
00000000
00100000
00010000
00100000
00000000
,
01000000
00000000
10000000
00010000
00000000
10000000
00100000
00000000
,
01000000
00010000
01000000
00000000
00001000
00010000
00001000
00000000
,
00010000
00000100
00000020
00001030
,
00000010
00000000
00000001
00000000
00001000
00000010
00001000
00000000
,
00000010
00000000
00000100
00001000
00010000
00000000
00001000
00000000
,
01000000
00010000
01000000
00000000
00100000
10000000
00100000
10000000
,
00020000
00000000
00000000
00000000
,
00000000
00000000
00000000
00000000
,
00030000
00000000
00000000
00000000
,
00000000
00000000
00000000
00000000
,
10000000
00000000
01000000
00000000
00010000
01000000
00010000
01000000
,
00010000
00001000
00011000
00000000
,
00010000
00000000
00001000
00000000
00000100
00000001
00000100
00000001
,
00000100
00000000
00000000
00000000
00000010
00010000
00001000
00000000
,
00100000
00010000
00000000
00100000
01000000
10000000
00000000
00010000
,
10000000
00000000
00100000
00000000
01000000
00001000
00010000
00000000
,
00000100
00000000
00000001
00001000
00000000
00000001
00000000
00001000
,
00000100
00000000
00010000
00001000
00010000
00001000
00010000
00001000
,
00100000
00000000
01000000
10000000
01000000
00000000
10010000
00000000
,
00010000
00100000
00001000
00000000
00010000
00001000
00010000
00000000
,
00000010
00000000
00001000
00000001
00000000
00001000
00000000
00000100
,
00000010
00000000
00000100
00000000
00010000
00001000
00010000
00001000
,
01000000
00000000
00010000
10000000
00100000
00000000
10000000
00000000
,
01000000
00010000
01000000
00010000
00001000
00010000
00001000
00010000
,
00001000
00000000
00010000
00001000
00010000
00000000
00001000
00000000
,
00000010
00000001
00000010
00000001
00001000
00000001
00001000
00000001
,
00000100
00000000
00000000
00000000
;

//---------------dance-double - ----------------
#NOTES:
     dance-double:
     :
     Hard:
     9:
     0.615392,0.763686,0.043689,0.148543,0.266504,493.000000,488.000000,5.000000,17.000000,0.000000,0.000000,0.615392,0.763686,0.043689,0.148543,0.266504,493.000000,488.000000,5.000000,17.000000,0.000000,0.000000:
00000000
00000000
00000000
00000000
,
00000000
00000000
00000000
00000000
,
00000000
00000000
00000000
00000000
,
00000000
00000000
00000000
00000000
,
11000000
00000000
00100000
00010000
02000000
00000000
00001000
00000000
,
03100000
01000000
00001000
00000000
00010000
00000000
00000100
00000000
,
00000100
00000000
00001000
00001000
00000001
00000010
00000001
00000010
,
00000200
00000000
00000000
00000000
00010300
00001000
00000000
00100000
,
00010000
00000000
01000000
00100000
10000000
02000000
00000000
03000000
,
00100000
00001000
00010000
00001000
00010000
00000000
00000010
00000000
,
00000010
00000000
00001000
00000001
00001000
00000001
00000010
00000000
,
00000100
00010000
00000000
00010000
00001000
00100000
00010000
00000000
,
00100000
00000000
01000000
00010000
01000000
00000000
10000000
00000000
,
00100000
01000000
00001000
00000000
00010000
00000000
00000100
00000000
,
00000100
00000000
00000010
00000010
00000001
00001000
00000010
00000000
,
00000200
00001000
00002300
00010000
,
00013000
00010000
00000000
00001000
00000000
00100000
00100000
00010000
,
10000000
00000000
00000000
00100000
00000000
01000000
01000000
00000000
,
00010000
00010000
00000000
00100000
00000000
00001000
00001000
00010000
,
00000100
00000000
00000000
00000010
00000000
00000001
00001000
00000010
,
00000100
00000001
00000000
00000010
00000000
00001000
00001000
00010000
,
01000000
00000000
00000000
00100000
00000000
00010000
10000000
01000000
,
00020000
00000000
00000000
00000000
00000000
00000000
00000000
00030000
,
00002000
00000000
00000000
00013000
,
00000010
00000010
00001000
00000001
00000100
00001000
00000200
00000000
,
00001300
00010000
00001000
00001000
00001000
00000000
00100000
00010000
,
10000000
01000000
00100000
10000000
00100000
00100000
00010000
01000000
,
00001000
00000000
00010000
00000000
00000010
00000000
00001000
00000000
00000010
00001000
00000010
00001000
00000010
00000000
00000000
00000000
,
00001000
00001000
00000000
00000001
00000010
00000010
00000100
00000000
,
00010000
00001000
00010000
00001000
00010000
00000000
00001000
00000000
01000000
00001000
01000000
00001000
01000000
00000000
00000000
00000000
,
00010000
00000000
00010000
00000000
10000000
00100000
10000000
00000000
00000000
00000000
01000000
00000000
00000000
00000000
00010000
00000000
,
00001000
00000000
00010000
00010000
00001000
00000010
00001000
00000010
,
00000100
00000000
00000001
00000100
00020000
00000000
00031000
00000000
,
01000000
01000000
00010000
10000000
00100000
00010000
00100000
00100000
,
01000000
00001000
00010000
00000100
00000000
00001000
00000100
00000010
,
00000100
00000000
00000100
00000000
00000001
00000000
00001000
00000000
00000100
00000000
00000100
00000000
00010000
00001000
00010000
00001000
,
00100000
00010000
01000000
10000000
00020000
00000000
00130000
00000000
,
01000000
00000000
00010000
00000000
01000000
00000000
00010000
00000000
00100000
00010000
00100000
00010000
00100000
00010000
00100000
00010000
,
00100000
00001000
00010000
00000100
00000010
00000000
00000001
00000000
,
00000100
00000000
00000010
00000000
00010000
00001000
00010000
00000000
00001000
00000000
00100000
00000000
01000000
00000000
00010000
00000000
,
10000000
00100000
00010000
00100000
00001000
00000000
00010000
00000100
,
00001000
00000000
00000010
00000000
00001000
00000001
00001000
00000001
00001000
00000000
00000000
00000000
00000010
00000000
00000100
00000000
,
00000001
00000000
00000000
00000000
00000010
00000000
00000100
00000000
00010000
00001000
00010000
00001000
00010000
00000000
00001000
00000000
,
00001000
00000000
00000000
00000000
00100000
00000000
00010000
00000000
01000000
00100000
01000000
00100000
20000000
00000000
00000000
00000000
,
30010000
00010000
00000000
01000000
01000000
00000000
00010000
00100000
,
00001000
00000000
00010000
00000000
00001000
00010000
00001000
00010000
00001000
00010000
00001000
00010000
00001000
00000000
00000000
00000000
,
00010000
00000000
00000100
00000000
00001000
00000100
00001000
00000000
00000000
00000000
00000010
00000000
00000000
00000000
00000100
00000000
,
00000001
00000000
00001000
00000000
00000100
00000000
00010000
00000000
00001000
00100000
00001000
00100000
00020000
00000000
00000000
00000000
,
00130000
00100000
01000000
10000000
00200000
00000000
01300000
00000000
,
00100000
00100000
00010000
00010000
00002000
00010000
00013000
00000100
,
00001000
00000000
00000100
00000000
00000001
00000000
00001000
00000000
00000000
00000000
00000010
00000000
00000001
00000010
00000001
00000000
,
00000010
00000000
00001000
00000000
00010000
00000000
01000000
00000000
00100000
00010000
00100000
00000000
01000000
00000000
10000000
00000000
,
00010000
00010000
01000000
01000000
00002000
00000000
00013000
00000000
,
00000010
00000000
00000100
00000000
00000001
00000000
00000001
00000000
00001000
00000010
00001000
00000010
00001000
00000010
00001000
00000010
,
00001000
00000000
00000100
00000000
00010000
00001000
00010000
00000000
00001000
00000000
00000000
00100000
00010000
00000000
01000000
00000000
,
00100000
00000000
10000000
00000000
00010000
10000000
00010000
00000000
01000000
00010000
01000000
00010000
01000000
00010000
01000000
00010000
,
20000000
00000000
00000000
00000000
,
00000000
00000000
00000000
00000000
,
30000000
00000000
00000000
00000000
,
00000000
00000000
00000000
00000000
,
10000000
00000000
01000000
00000000
00010000
00010000
00011000
00001000
,
00001000
00010000
00010010
00000000
,
00000100
00000000
00001000
00000000
00000001
00000001
00000011
00001000
,
00000100
00000000
00000100
00000000
00010000
00000000
00010000
00000000
00001000
00100000
00010000
00100000
00010000
00000000
00000000
00000000
,
01000000
01000000
00010000
10000000
10000000
10000000
00100000
00010000
,
00001000
00000000
00001000
00000000
00000010
00000000
00000010
00000000
00000001
00001000
00000001
00001000
00000001
00000000
00000000
00000000
,
00000100
00000000
00000010
00010000
00000010
00010000
00000010
00000000
00000000
00000000
00001000
00000000
00000000
00000000
00000100
00000000
,
00010000
00000000
00000000
00000000
00010000
00000000
00001000
00000000
00100000
00010000
00100000
00010000
10000000
00010000
00100000
00010000
,
00100000
01000000
10000000
00100000
01000000
00000000
10010000
00000000
,
01000000
01000000
00001000
00200000
00000000
01300000
00010000
00001000
,
00000010
00000000
00000001
00001000
00000001
00000000
00000100
00000000
00000000
00000000
00000010
00000000
00000000
00000000
00000100
00000000
,
00001000
00000000
00001000
00000000
00010000
00000000
00100000
00000000
10000000
00000000
10000000
00000000
00010000
10000000
00010000
10000000
,
01000000
00000000
00100000
00001000
00001000
00000000
00010000
00000000
,
00000010
00000000
00000010
00000000
00001000
00000000
00001000
00000000
00000001
00001000
00000001
00001000
00000001
00001000
00000001
00001000
,
00000100
00000010
00001000
00010000
00010000
00000000
00001000
00000000
,
01000000
00000000
00010000
00000000
01000000
00000000
00010000
00000000
10000000
00100000
10000000
00100000
10000000
00100000
10000000
00100000
,
01000000
00000000
00000000
00000000
;

//---------------dance-single - ----------------
#NOTES:
     dance-single:
     :
     Beginner:
     1:
     0.069903,0.132815,0.043689,0.008738,0.000000,56.000000,51.000000,5.000000,1.000000,0.000000,0.000000,0.069903,0.132815,0.043689,0.008738,0.000000,56.000000,51.000000,5.000000,1.000000,0.000000,0.000000:
0000
0000
0000
0000
,
0000
0000
0000
0000
,
0000
0000
0000
0000
,
0000
0000
0000
0000
,
1000
0000
0000
0000
,
1000
0000
0000
0000
,
0001
0000
0000
0000
,
0000
0000
0000
0000
,
0001
0000
0000
0000
,
0001
0000
0000
0000
,
1000
0000
0000
0000
,
0000
0000
0000
0000
,
0010
0000
0000
0000
,
0010
0000
0000
0000
,
0010
0000
0000
0000
,
0000
0000
0000
0000
,
0100
0000
0000
0000
,
0000
0000
0000
0000
,
0100
0000
0000
0000
,
0000
0000
0000
0000
,
0100
0000
0000
0000
,
0000
0000
0000
0000
,
0200
0000
0000
0300
,
0000
0000
0000
0000
,
0001
0000
0000
0000
,
0001
0000
0000
0000
,
0001
0000
0000
0000
,
0000
0000
0000
0000
,
1000
0000
0000
0000
,
1000
0000
0000
0000
,
1000
0000
0000
0000
,
0000
0000
0000
0000
,
0100
0000
0000
0000
,
0100
0000
0000
0000
,
0100
0000
0000
0000
,
0010
0000
0000
0000
,
0010
0000
0000
0000
,
0010
0000
0000
0000
,
0000
0000
0000
0000
,
0001
0000
0000
0000
,
0000
0000
0000
0000
,
0001
0000
0000
0000
,
0000
0000
0000
0000
,
1001
0000
0000
0000
,
0000
0000
0000
0000
,
1000
0000
0000
0000
,
0000
0000
0000
0000
,
1001
0000
0000
0000
,
0000
0000
0000
0000
,
0110
0000
0000
0000
,
0000
0000
0000
0000
,
0010
0000
0000
0000
,
0100
0000
0000
0000
,
0010
0000
0000
0000
,
1000
0000
0000
0000
,
0001
0000
0000
0000
,
1001
0000
0000
0000
,
0000
0000
0000
0000
,
0000
0000
0000
0000
,
0000
0000
0000
0000
,
1000
0000
0000
0000
,
0001
0000
0000
0000
,
1000
0000
0000
0000
,
0000
0000
0000
0000
,
0010
0000
0000
0000
,
0100
0000
0000
0000
,
0010
0000
0000
0000
,
0000
0000
0000
0000
,
1000
0000
0000
0000
,
0100
0000
0000
0000
,
1000
0000
0000
0000
,
0000
0000
0000
0000
,
0001
0000
0000
0000
,
0010
0000
0000
0000
,
0001
0000
0000
0000
,
1000
0000
0000
0000
,
1001
0000
0000
0000
;

//---------------dance-double - ----------------
#NOTES:
     dance-double:
     :
     Beginner:
     1:
     0.068654,0.132815,0.034951,0.008738,0.000000,55.000000,51.000000,4.000000,1.000000,0.000000,0.000000,0.068654,0.132815,0.034951,0.008738,0.000000,55.000000,51.000000,4.000000,1.000000,0.000000,0.000000:
00000000
00000000
00000000
00000000
,
00000000
00000000
00000000
00000000
,
00000000
00000000
00000000
00000000
,
00000000
00000000
00000000
00000000
,
00000001
00000000
00000000
00000000
,
00000001
00000000
00000000
00000000
,
00001000
00000000
00000000
00000000
,
00000000
00000000
00000000
00000000
,
00000010
00000000
00000000
00000000
,
00000010
00000000
00000000
00000000
,
00010000
00000000
00000000
00000000
,
00000000
00000000
00000000
00000000
,
00001000
00000000
00000000
00000000
,
00001000
00000000
00000000
00000000
,
00100000
00000000
00000000
00000000
,
00000000
00000000
00000000
00000000
,
00010000
00000000
00000000
00000000
,
00000000
00000000
00000000
00000000
,
00100000
00000000
00000000
00000000
,
00000000
00000000
00000000
00000000
,
01000000
00000000
00000000
00000000
,
00000000
00000000
00000000
00000000
,
20000000
00000000
00000000
30000000
,
00000000
00000000
00000000
00000000
,
00100000
00000000
00000000
00000000
,
00000000
00100000
00000000
00000000
,
00100000
00000000
00000000
00000000
,
00000000
00000000
00000000
00000000
,
01000000
00000000
00000000
00000000
,
01000000
00000000
00000000
00000000
,
01000000
00000000
00000000
00000000
,
00000000
00000000
00000000
00000000
,
00001000
00000000
00000000
00000000
,
00001000
00000000
00000000
00000000
,
00001000
00000000
00000000
00000000
,
00010000
00000000
00000000
00000000
,
00010000
00000000
00000000
00000000
,
00010000
00000000
00000000
00000000
,
00000000
00000000
00000000
00000000
,
00000100
00000000
00000000
00000000
,
00000000
00000000
00000000
00000000
,
00000010
00000000
00000000
00000000
,
00000000
00000000
00000000
00000000
,
00001001
00000000
00000000
00000000
,
00000000
00000000
00000000
00000000
,
00000001
00000000
00000000
00000000
,
00000000
00000000
00000000
00000000
,
00000100
00000000
00000000
00000000
,
00000000
00000000
00000000
00000000
,
00000110
00000000
00000000
00000000
,
00000000
00000000
00000000
00000000
,
00000010
00000000
00000000
00000000
,
00010000
00000000
00000000
00000000
,
00001000
00000000
00000000
00000000
,
00010000
00000000
00000000
00000000
,
00001000
00000000
00000000
00000000
,
00011000
00000000
00000000
00000000
,
00000000
00000000
00000000
00000000
,
00000000
00000000
00000000
00000000
,
00000000
00000000
00000000
00000000
,
00001000
00000000
00000000
00000000
,
00100000
00000000
00000000
00000000
,
00010000
00000000
00000000
00000000
,
00000000
00000000
00000000
00000000
,
01000000
00000000
00000000
00000000
,
00010000
00000000
00000000
00000000
,
10000000
00000000
00000000
00000000
,
00000000
00000000
00000000
00000000
,
00100000
00000000
00000000
00000000
,
01000000
00000000
00000000
00000000
,
00100000
00000000
00000000
00000000
,
00000000
00000000
00000000
00000000
,
01000000
00000000
00000000
00000000
,
00010000
00000000
00000000
00000000
,
10000000
00000000
00000000
00000000
,
01000000
00000000
00000000
00000000
,
10010000
00000000
00000000
00000000
;

//---------------dance-single - ----------------
#NOTES:
     dance-single:
     :
     Challenge:
     12:
     1.003601,1.118441,0.602910,0.506794,1.013587,804.000000,735.000000,69.000000,58.000000,69.000000,4.000000,1.003601,1.118441,0.602910,0.506794,1.013587,804.000000,735.000000,69.000000,58.000000,69.000000,4.000000:
// measure 0
1000
0000
0100
0000
0010
0001
0010
0001
0010
0000
0000
0000
0100
0000
1000
0000
,  // measure 1
0001
0000
0000
0000
0000
0000
1000
0000
0000
0000
0000
0000
0000
0000
0000
0000
0000
0000
0000
0000
0000
0000
0000
0000
0001
0000
0000
0000
0000
0000
0000
0000
0000
0000
0000
0000
0000
0000
0000
0000
0000
0000
0000
0000
0000
0000
0000
0000
0100
0000
0000
0000
0000
0000
0000
0000
0001
0000
0000
0000
0000
0000
0000
0000
0100
0000
0000
0000
0000
0000
0000
0000
0001
0000
0000
0000
0000
0000
0000
0000
0000
0000
0000
0000
0000
0000
0000
0000
0000
0000
0000
0000
0000
0000
0000
0000
0200
0000
0000
0000
0000
0000
0000
0000
0000
0000
0000
0000
0000
0000
0000
0000
0000
0000
0000
0000
0000
0000
0000
0000
0000
0000
0000
0000
0000
0000
0000
0000
0000
0000
0000
0000
0000
0000
0000
0000
0000
0000
0000
0000
0000
0000
0000
0000
0310
0000
0000
0000
0000
0000
0000
0000
0000
0000
0000
0000
1000
0000
0000
0000
0000
0000
0000
0000
0000
0000
0000
0000
0010
0000
0000
0000
0000
0000
0000
0000
0000
0000
0000
0000
0000
0000
0000
0000
0000
0000
0000
0000
0000
0000
0000
0000
,  // measure 2
0100
0010
0101
1010
1000
0001
2000
0010
,  // measure 3
3010
0000
1000
0000
0100
0000
1000
0000
0001
0000
0010
0100
0010
0001
0100
0010
,  // measure 4
0100
0001
0010
0100
1100
0000
0101
0001
,  // measure 5
0100
0000
0000
0010
0000
0000
0100
0000
0010
0000
0100
0000
0010
0000
0000
0000
0000
0000
0000
0000
0000
0000
0000
0000
1001
0000
0000
0000
0000
0000
0000
0000
0000
0000
0000
0000
1000
0000
0000
0010
0000
0000
0100
0000
0000
0000
0000
0000
,  // measure 6
0001
2000
0100
3100
0010
0000
0001
0100
,  // measure 7
0004
0000
0013
0000
0100
0000
0000
0000
1100
0000
1000
0000
0100
1000
0010
0000
,  // measure 8
1010
1001
1000
1100
0100
0010
0011
0002
,  // measure 9
0100
0000
0103
0000
1000
0000
0100
0000
0001
0000
0100
0010
2000
0000
0100
3000
,  // measure 10
0110
0000
0110
0000
0010
0000
0001
0000
0100
0010
0100
0000
0010
0000
1000
0000
,  // measure 11
0100
0000
1000
0000
1000
0000
2000
0000
3100
0000
1000
0010
0100
0000
0010
0000
,  // measure 12
2010
0000
0010
0000
3000
0000
1001
0000
0000
0000
0110
0000
0010
1000
0010
0000
,  // measure 13
0110
0000
1001
0000
1000
0000
0001
0000
0100
0000
0010
1000
0100
0000
0010
0000
,  // measure 14
0001
0000
0000
0000
0000
0000
0100
0000
0000
0000
0000
0000
0001
0000
0000
0000
1000
0000
0001
0000
0000
0000
0000
0000
0010
0000
0000
0000
0000
0000
0100
0000
0000
0000
0000
0000
1000
0000
0000
0000
0000
0000
0001
0000
0000
0100
0000
0000
,  // measure 15
0001
0000
1000
0000
2000
0000
0100
0000
3200
0000
0310
0001
0010
0000
0100
0000
,  // measure 16
1000
0000
0000
0010
0000
0000
1000
0000
0000
0010
0000
0000
0200
0000
0000
0000
0000
0000
0001
0000
0000
0000
0000
0000
0000
0000
0000
0000
0000
0000
0301
0000
0100
0000
0001
0000
0100
0000
0000
0000
0000
0000
0001
0000
0000
0000
0000
0000
,  // measure 17
1000
0010
1000
0010
2000
0000
0100
0000
3000
0000
1100
0000
0100
0000
1001
0000
,  // measure 18
1000
0000
1001
0000
0000
0010
0000
0000
0000
0000
1000
0000
0010
0000
2000
0000
,  // measure 19
0010
0010
3010
0100
0000
0010
0000
0400
,  // measure 20
0010
0000
0010
0000
0300
0001
0000
0000
0000
0000
2000
0000
0001
0000
3001
0000
,  // measure 21
0010
0200
0000
1300
0000
1100
0000
0001
,  // measure 22
1001
0000
0000
0000
0000
0000
M000
0000
0000
0000
0000
0000
00M0
0000
0000
0000
000M
0000
0M00
0000
000M
0000
0000
0000
00M0
0000
0000
0000
0000
0000
M000
0000
0000
00M0
0000
0000
000M
0000
0000
0M00
0000
0000
0000
0000
0000
0000
0000
0000
,  // measure 23
2000
0002
0000
0000
0000
3003
1001
0000
,  // measure 24
1001
0000
1001
0000
0100
1000
0100
2000
0010
0000
3010
0000
1010
0000
0000
0000
,  // measure 25
0010
0100
0010
0000
0100
0000
0010
1000
0002
0000
1003
0000
0001
1000
0001
1000
,  // measure 26
0200
0000
1000
0000
1300
0000
0100
1000
0100
0010
0100
0000
1001
0000
0001
0100
,  // measure 27
0002
0000
1000
0000
1003
0000
0001
1000
0001
1000
0010
0100
0010
0100
0001
1000
,  // measure 28
0010
2000
0001
0000
3001
0000
1000
0000
1100
0000
1100
0000
0010
0001
0000
0000
,  // measure 29
1000
0001
1000
0000
0010
0000
0110
0000
0100
0001
1000
0000
0010
0100
0010
1000
,  // measure 30
0001
0000
1000
0100
1000
0001
2000
0000
0000
3000
1010
0000
0010
0000
1000
0010
,  // measure 31
0200
0000
0001
0000
0301
0000
0010
0000
0100
1000
0100
1000
0001
0010
0001
0010
,  // measure 32
0100
1000
0100
0000
0010
0001
0010
0000
0400
0000
0000
0000
1300
0000
0000
0000
,  // measure 33
1000
0001
1000
0000
0001
0010
0200
0000
1000
0000
1300
0001
1000
0010
0100
0010
,  // measure 34
1000
0000
0100
1000
0001
1000
0100
0000
0000
0000
1100
0000
1001
0000
0001
0010
,  // measure 35
0100
0000
0000
0000
0000
0000
1000
0000
0000
0000
0000
0000
0100
0000
0000
1000
0000
0000
0001
0000
0000
0000
0000
0000
1000
0000
0001
0000
1000
0000
0001
0000
0000
1000
0000
0000
0001
0000
0000
1000
0000
0000
0010
0000
0000
0200
0000
0000
,  // measure 36
0010
0000
0000
0000
0310
0100
0001
4000
0004
0000
0000
3003
1001
0000
0000
0000
,  // measure 37
1001
0000
1000
0000
0001
0010
0001
0100
0010
0000
0100
0001
0100
0010
0100
0001
,  // measure 38
2000
0000
0100
0000
3100
0000
1000
0100
0010
0000
0001
1000
0001
1000
0010
0100
,  // measure 39
0001
0000
0000
1000
0000
0000
0100
0000
0000
0010
0000
0000
0100
0000
0010
0000
0100
0000
0010
0000
0000
0000
0000
0000
0110
0000
0000
0000
0000
0000
1100
0000
0000
0000
0000
0000
1000
0000
0000
0001
0000
0000
0010
0000
0000
0100
0000
0000
,  // measure 40
1000
0001
1000
0001
1000
0100
1000
0000
1100
0000
0000
0000
0011
0000
0000
0000
,  // measure 41
2100
0000
0000
0000
3100
0010
0100
0010
0200
0000
0000
0000
1300
0010
1000
0010
,  // measure 42
1000
0001
0010
0100
0010
0100
1000
0000
0001
0100
0001
0100
0001
0000
1000
0100
,  // measure 43
0010
0000
0001
0000
0001
0010
0100
1000
0001
1000
0001
1000
0010
0100
0010
0100
,  // measure 44
0001
0010
0002
0010
0003
0010
0100
2000
0200
0000
0000
3300
1001
0000
0000
0000
,  // measure 45
1000
0001
0010
0000
0100
1000
0100
1000
0010
0100
0010
0100
0001
0010
0001
0010
,  // measure 46
0100
0000
0010
0001
1000
0001
1000
0000
0010
0000
1000
0000
1100
0000
0100
1000
,  // measure 47
0020
1000
0000
0000
1030
0010
0100
0000
0001
0100
0001
0010
0100
1000
0010
1000
,  // measure 48
0001
0010
0001
0000
1000
0010
1000
0000
0004
0000
0000
0000
0103
0000
0000
0000
,  // measure 49
0100
0000
0010
0000
1000
0010
1000
0000
0001
0010
0001
1000
0000
1000
0010
1000
,  // measure 50
0001
0000
0100
0010
0100
0002
1000
0000
0000
0003
1001
0000
1000
0100
1000
0001
,  // measure 51
0010
0000
0000
0000
0000
0000
0001
0000
0000
0000
0000
0000
1000
0000
0000
0010
0000
0000
1000
0000
0000
0000
0000
0000
0010
0000
1000
0000
0010
0000
1000
0000
0000
0010
0000
0000
1000
0000
0000
0010
0000
0000
1000
0000
0000
0020
0000
0000
,  // measure 52
0100
0000
0000
0000
0130
0010
1000
0004
0010
0000
0000
0000
0013
0000
0000
0000
,  // measure 53
0011
0000
1000
0000
0100
1000
0100
1000
0001
0100
0010
1000
0010
1000
0100
0010
,  // measure 54
0001
0000
0100
0000
0001
0010
0100
0010
0100
0000
1000
0010
1000
0100
0010
0001
,  // measure 55
0200
0000
0000
0000
0301
0010
0001
0000
1001
0000
0000
1000
0001
0100
0001
0020
,  // measure 56
M200
000M
M000
000M
1000
0000
000M
M000
,  // measure 57
000M
M000
000M
M000
000M
M000
000M
M000
,  // measure 58
M002
M000
M003
M000
M000
000M
M000
000M
,  // measure 59
M000
0000
000M
0000
M000
0000
000M
0000
M000
0000
000M
0000
M00M
0000
0000
0330
,  // measure 60
1002
0000
0000
0000
0103
0001
0100
0001
0010
0000
0100
0000
1100
0000
0001
0000
,  // measure 61
0200
0000
0000
0000
0002
0000
0300
0000
1003
0010
0100
0000
0100
0010
0000
1000
,  // measure 62
0002
0000
2003
0000
3001
0101
1100
1000
,  // measure 63
1010
0000
0110
0000
0101
0000
1000
0000
0001
1000
0001
1000
0000
0010
0000
0100
,  // measure 64
0001
0101
1000
0020
1000
1030
0010
0100
,  // measure 65
0001
0010
0001
0100
0010
0000
1000
0000
0010
1000
0100
0010
0001
0010
0000
0100
,  // measure 66
0010
0000
0100
1000
0100
0010
0002
0000
0100
0000
0103
0000
0001
0000
0101
0000
,  // measure 67
1001
0000
0000
0000
1100
0000
1000
0000
0010
1000
0010
0100
0010
0100
0001
0010
,  // measure 68
0200
0000
0000
1300
0000
0000
1100
0000
0000
1000
0010
1000
0010
0000
0000
0100
0000
0000
0110
0000
0000
0000
0000
0000
,  // measure 69
0110
0000
0010
0000
2000
0000
0001
0000
3001
0100
0001
1000
0001
0100
0010
0000
,  // measure 70
1000
0000
1000
0010
0200
0000
0010
0000
0000
0000
0310
0000
1001
0000
2000
0000
,  // measure 71
0010
0000
0000
0000
0000
0000
0001
0000
0000
0000
0000
0000
0010
0000
0000
0000
0000
0000
3010
0000
0000
0000
0000
0000
1000
0000
0010
0000
1000
0000
0010
0000
1000
0000
0010
0000
1000
0000
0000
0010
0000
0000
1000
0000
0000
0020
0000
0000
,  // measure 72
0100
0000
0000
0000
0230
0000
0010
0000
0010
0000
0000
0300
0110
0000
0000
0000
,  // measure 73
1100
0000
1001
0000
0011
0000
0110
0000
0010
0001
0010
0001
1000
0100
1000
0200
,  // measure 74
1000
2300
0010
3020
0130
0001
0100
0001
,  // measure 75
0010
0000
0001
1000
0001
0000
1000
0001
1000
0000
0001
1000
0001
0000
0000
0000
0010
0000
0001
0000
0100
0000
0010
0000
0100
0000
0001
0000
1000
0000
0001
0000
,  // measure 76
2MM2
0000
0000
0M00
0000
0000
00M0
0000
0000
0000
0000
0000
0M00
0000
0000
00M0
0000
0000
0M00
0000
00M0
0000
0M00
0000
,  // measure 77
3003
00M0
0M00
1001
0000
M0M0
000M
0M00
0000
11MM
0000
00M0
,  // measure 78
M001
0000
0000
0000
00M0
0000
0000
0000
M000
0M00
0000
0000
M011
0000
0000
0000
0M00
0000
0010
0000
0000
0000
0000
0000
0001
0000
0000
1000
0000
0000
0000
0000
0000
0010
0000
0000
0100
0000
0000
0010
0000
0000
0100
0000
0000
0010
0000
0000
,  // measure 79
0100
0000
0001
1000
0010
1000
0010
2000
0200
0000
00M0
0000
000M
0000
330M
0000
,  // measure 80
MM00
0000
0000
0000
;
