#TITLE:Sunshine;
#SUBTITLE:;
#ARTIST:Triple J;
#TITLETRANSLIT:;
#SUBTITLETRANSLIT:;
#ARTISTTRANSLIT:;
#GENRE:;
#CREDIT:;
#BANNER:;
#BACKGROUND:;
#LYRICSPATH:;
#CDTITLE:;
#MUSIC:Sunshine.mp3;
#OFFSET:-0.035045;
#SAMPLESTART:60.739994;
#SAMPLELENGTH:12.000000;
#SELECTABLE:YES;
#BPMS:0.000000=170.110001
;
#STOPS:381.500000=2.116000
;
#BGCHANGES:;
#KEYSOUNDS:;
#ATTACKS:;

//---------------dance-single - ----------------
#NOTES:
     dance-single:
     :
     Challenge:
     12:
     0.913540,1.173158,0.607380,0.069133,0.624664,1295.000000,1172.000000,123.000000,14.000000,0.000000,0.000000,0.913540,1.173158,0.607380,0.069133,0.624664,1295.000000,1172.000000,123.000000,14.000000,0.000000,0.000000:
// measure 0
0000
0000
0000
0000
,  // measure 1
0000
0000
0000
0000
,  // measure 2
0000
0000
0000
0000
,  // measure 3
0000
0000
0000
0000
,  // measure 4
2000
0000
0000
0000
,  // measure 5
3200
0000
0000
0000
,  // measure 6
0320
0000
0000
0000
,  // measure 7
0032
0000
0000
0000
,  // measure 8
1003
0100
0010
0001
0000
0000
0000
0000
,  // measure 9
1000
0100
0010
0001
0000
0000
0000
0000
,  // measure 10
0001
0010
0100
1000
0000
0001
0000
1000
,  // measure 11
0000
0000
0000
0000
0000
0000
0000
1000
,  // measure 12
1000
0010
0100
0001
0000
0000
0000
0000
,  // measure 13
1000
0010
0100
0001
0000
0000
0000
0001
,  // measure 14
0100
0010
1000
0010
0000
0100
0000
0001
,  // measure 15
0000
0010
0000
0100
0000
1000
0000
0000
,  // measure 16
1000
0001
0100
0010
0000
0000
0000
0000
,  // measure 17
1000
0001
0100
0010
0000
0000
0000
0000
,  // measure 18
0010
0100
0001
1000
0000
0100
0000
0010
,  // measure 19
0000
0000
0000
0000
0000
0000
0000
0010
,  // measure 20
0010
0001
0100
0010
0000
0000
0000
0000
,  // measure 21
0100
0010
1000
0100
0000
0000
0000
0000
,  // measure 22
1000
0010
0100
0001
0000
0000
0000
0101
,  // measure 23
0000
1001
0000
0110
0000
4040
0000
3030
,  // measure 24
1000
0000
0100
0000
1000
0000
0010
0100
0000
0100
0000
0001
0010
0000
0100
1000
,  // measure 25
0010
0000
0100
0000
0001
0000
0001
0010
0000
0100
0000
1000
0001
0000
0100
0000
,  // measure 26
0010
0000
0100
0000
0010
0000
1000
0010
0000
0100
0000
0001
0010
0000
0100
1000
,  // measure 27
0010
0000
0100
0000
0010
0000
0100
0001
0000
0001
0000
1000
0001
1000
0100
0000
,  // measure 28
1000
0100
0010
0001
1000
0100
0010
0001
1000
0010
0100
0001
1000
0010
0100
0001
,  // measure 29
0100
0010
1000
0001
0010
0001
0010
0100
1000
0100
1000
0001
0100
0010
0100
0001
,  // measure 30
0010
0001
1000
0100
1000
0010
0100
0010
1000
0001
1000
0100
0010
0100
1000
0001
,  // measure 31
0010
0001
1000
0010
1000
0001
0100
0010
1000
0100
0010
0001
1000
0001
1000
0001
,  // measure 32
1001
0000
1000
0000
0100
0000
0010
0001
0100
0001
0010
0000
0100
0000
1000
0001
,  // measure 33
1000
0000
0100
0000
0010
0000
0100
0010
0001
0010
0100
0000
0010
0000
0001
0000
,  // measure 34
0100
0000
0001
0000
0010
0000
0100
0010
0100
0010
0001
0000
0100
0000
0010
1000
,  // measure 35
0001
0000
0010
0000
0100
0000
1000
0001
0010
0001
0100
0000
0010
0000
0100
0000
,  // measure 36
0001
0000
1000
0000
0100
0000
0010
0001
0010
0001
1000
0000
0001
0000
0010
0100
,  // measure 37
1000
0000
0010
0000
0100
0000
0001
1000
0010
0100
0010
0000
0100
0000
0001
0000
,  // measure 38
1000
0000
0100
0000
0010
0000
0001
0100
0010
1000
0001
0000
0100
0000
0010
0100
,  // measure 39
0010
0100
0010
0100
0001
0010
0100
1000
,  // measure 40
1001
0000
0001
0000
0100
0000
0001
1000
0100
0010
0001
0000
0011
0000
0010
0100
,  // measure 41
1000
0000
0001
0000
0101
0000
0100
0010
1000
0100
0010
0000
0110
0000
0100
0000
,  // measure 42
1000
0000
0010
0000
0101
0000
0001
1000
0010
0100
0010
0000
1010
0000
1000
0100
,  // measure 43
0010
0001
0010
0000
0011
0000
0001
0100
0010
1000
0010
0000
0110
0000
0100
0010
,  // measure 44
1000
0000
0001
0000
0101
0000
0001
0010
0100
1000
0010
0000
0110
0000
0100
0001
,  // measure 45
1000
0000
0100
0000
0110
0000
0010
0001
0010
0100
1000
0000
0011
0000
0100
0000
,  // measure 46
1000
0000
0010
0000
0101
0000
0100
0001
0010
0100
1000
0000
0010
0000
0100
0000
,  // measure 47
0220
0000
0000
0330
,  // measure 48
1000
1100
0000
0110
0000
0011
1000
0011
,  // measure 49
0000
0101
0000
0101
0000
0101
1000
0110
,  // measure 50
0000
1010
0000
1010
0000
0110
0010
0101
,  // measure 51
0001
1000
1001
0000
0000
0000
0000
0000
1000
0001
1001
0000
1000
0000
0010
0100
,  // measure 52
0110
0101
0000
0101
0000
0110
0010
1100
,  // measure 53
0000
0110
0000
0110
0000
0110
0010
0011
,  // measure 54
0000
0101
0000
0101
0000
0101
1000
1010
,  // measure 55
0000
0000
1100
0000
0000
0000
1100
0000
0001
0000
0010
0100
1000
0001
0010
0100
,  // measure 56
1100
0000
1000
0000
0010
0000
0100
0001
0010
0100
0010
0000
0001
0000
0100
0010
,  // measure 57
1000
0000
1000
0000
0001
0000
1000
0001
0010
0100
0010
0000
0001
0000
0100
0000
,  // measure 58
0010
0000
0100
0000
0001
0000
0010
0100
1000
0010
1000
0000
0001
0000
0100
0001
,  // measure 59
0010
0100
1000
0000
0010
0000
0100
0010
1000
0100
0010
0000
0001
0000
0001
1000
,  // measure 60
0010
0000
0100
0000
0001
0000
0010
0100
1000
0001
0100
0000
0010
0000
1000
0001
,  // measure 61
0100
0000
0010
0000
0100
0000
0001
0100
0010
1000
0001
0000
0010
0000
0100
0000
,  // measure 62
1000
0000
0100
0000
1000
0000
0001
0100
0001
0100
0001
0000
0010
0000
0100
1000
,  // measure 63
0010
0000
0100
0000
0001
0000
1000
0100
0010
0000
0001
0010
0001
0100
0001
1000
,  // measure 64
0001
0000
1000
0000
0010
0000
0100
0001
1000
0001
0010
0000
0100
0000
1000
0010
,  // measure 65
0100
0000
0010
0000
0100
0000
0001
1000
0100
1000
0001
0000
0100
0000
0100
0000
,  // measure 66
0010
0000
0100
0000
0001
0000
1000
0001
0100
0001
0100
0000
0001
0000
1000
0100
,  // measure 67
1000
0010
0100
0000
0001
0000
0010
0001
0100
0010
0100
0000
0010
0000
1000
0001
,  // measure 68
1000
0000
0100
0000
0010
0000
0001
0100
0010
1000
0001
0000
0010
0000
0100
0010
,  // measure 69
0001
0000
0100
0000
0010
0000
1000
0100
1000
0010
0100
0000
0100
0000
0010
0000
,  // measure 70
1000
0000
0001
0000
0100
0000
0010
1000
0010
0100
0010
0000
1000
0000
0001
1000
,  // measure 71
2002
0000
0000
3003
,  // measure 72
1000
0100
0010
0002
0000
0000
0010
0000
,  // measure 73
0013
0100
1000
0020
0000
0000
0100
0000
,  // measure 74
0130
0001
1000
0200
0000
0000
0010
0000
,  // measure 75
0310
0000
0001
0000
1000
0000
2000
0000
0000
0000
3010
1000
0010
1000
0010
1000
,  // measure 76
0010
1000
0100
0010
0001
0100
0101
0001
,  // measure 77
1001
1000
0100
0010
0100
1000
1001
0001
,  // measure 78
0101
0100
0001
0010
1001
0010
1100
1100
,  // measure 79
1001
0000
0110
0000
0101
0000
1010
0000
0000
0000
1000
0100
0010
0001
0010
0100
,  // measure 80
1000
0100
1100
1000
1010
0010
0110
0100
,  // measure 81
0101
0001
0011
0010
0110
0100
1100
1000
,  // measure 82
1010
0010
1010
1000
1001
0001
1001
1000
,  // measure 83
1000
0100
0010
0000
0001
0000
0001
0000
1000
0100
0010
0000
0001
0000
0001
0100
,  // measure 84
0101
0001
1001
1000
1010
0010
0110
0100
,  // measure 85
0101
0001
0011
0010
0011
0001
0101
0100
,  // measure 86
0110
0010
1010
1000
1100
0100
0110
0110
,  // measure 87
0011
0000
0101
0000
0110
0000
1010
0000
0000
0000
0100
0001
0010
0100
1000
0010
,  // measure 88
1000
0100
0010
0001
1000
0100
0010
0001
,  // measure 89
1000
0100
0010
0001
0001
0010
0100
1000
,  // measure 90
1000
0010
0100
0001
1000
0010
0100
0001
,  // measure 91
0010
0100
0010
0000
0001
0000
0100
0000
0010
0100
0010
0000
1000
0000
1000
0001
,  // measure 92
1001
0001
0100
0010
1000
0001
0100
0010
,  // measure 93
1000
0000
0001
0000
0100
0000
0010
0000
0010
0000
0100
0000
0001
0000
1000
0001
,  // measure 94
1000
0100
1000
0000
0001
0100
0001
0000
1000
0010
1000
0000
0001
0010
0001
0000
,  // measure 95
1000
0100
0010
0002
1003
0100
0010
0001
,  // measure 96
0010
0100
1000
0010
0100
0001
0010
0001
,  // measure 97
0100
0010
1000
0001
1000
0001
0100
0010
,  // measure 98
0100
0001
0010
0001
0100
0010
1000
0100
,  // measure 99
1000
0010
1000
0001
1000
0100
0010
0100
,  // measure 100
0010
0001
1000
0010
0100
0010
1000
0001
,  // measure 101
0010
0001
0100
0010
1000
0100
0010
0001
,  // measure 102
1000
0100
0010
0100
0010
0001
0010
0001
,  // measure 103
1000
0100
1000
0010
0110
0100
0001
0010
,  // measure 104
0100
0010
0001
1000
1100
0010
0001
0100
,  // measure 105
0010
1000
0001
0100
0110
0010
1000
0001
,  // measure 106
0010
0001
1000
0100
0110
0010
0100
1000
,  // measure 107
0010
0100
0001
0010
0011
0001
0100
0010
,  // measure 108
1000
0010
0100
0001
1001
1000
0100
1000
,  // measure 109
0010
0100
0001
0010
0011
0010
0100
1000
,  // measure 110
0010
0100
0001
1001
0000
1010
0000
0101
,  // measure 111
0000
0000
1001
0000
0000
0000
0000
0000
1001
0000
1000
0000
0100
0000
1000
0010
,  // measure 112
0000
0100
0000
0010
1000
0000
0001
0010
0100
0000
1000
0000
0100
0000
1000
0010
,  // measure 113
0000
0100
0000
0001
0010
0000
0100
0000
1000
0000
0010
0000
1000
0000
0001
0100
,  // measure 114
0000
0001
0000
1000
0100
0000
0010
0001
0100
0000
0010
0000
0100
0000
0010
0100
,  // measure 115
0000
0001
0000
0010
0001
0010
0100
0000
1000
0100
1000
0100
1000
0100
1000
0100
,  // measure 116
1000
0100
1000
0100
1000
0100
1000
0100
0010
0001
0010
0001
0010
0001
0010
0001
,  // measure 117
0010
0001
0010
0001
0010
0001
0010
0001
1000
0100
0010
0001
1000
0100
0010
0001
,  // measure 118
0010
0100
1000
0001
0100
0010
1000
0100
0010
0100
1000
0100
1000
0001
0100
0001
,  // measure 119
1000
0010
0100
0001
0010
0100
0010
0100
0110
0000
0010
0000
0001
0000
1000
0010
,  // measure 120
1000
0100
0010
0000
0001
0000
0100
0001
0010
0000
0100
0000
1000
0000
0010
0100
,  // measure 121
0001
0100
0010
0000
1000
0000
0100
0000
0110
0000
0010
0000
0001
0000
1000
0001
,  // measure 122
0100
0001
0010
0000
0100
0000
1000
0001
0100
0010
0100
0000
0010
0000
1000
0010
,  // measure 123
1000
0001
1000
0000
0010
0000
0100
0001
0010
0000
0100
0000
1000
0000
0100
1000
,  // measure 124
0100
0010
0100
0000
0010
0000
0001
0100
0010
0000
0010
0000
1000
0000
0001
0010
,  // measure 125
0001
0100
0001
0000
1000
0000
0001
0000
0101
0000
0100
0000
0010
0000
1000
0010
,  // measure 126
0100
0010
1000
0000
0001
0000
0010
0100
0010
0000
0001
0000
1000
0000
0010
0100
,  // measure 127
0001
0000
0100
0001
1000
0100
1000
0010
0100
0000
0001
0000
0100
0000
0001
0010
,  // measure 128
0100
1000
0001
0000
0100
0000
0010
1000
0001
0000
1000
0000
0100
0000
1000
0010
,  // measure 129
0100
0001
0010
0000
0100
0000
0010
0000
0110
0000
0100
0000
1000
0000
0010
0100
,  // measure 130
0010
1000
0001
0000
0010
0000
0100
1000
0010
1000
0001
0000
0100
0000
0001
0000
,  // measure 131
0100
0010
0100
0000
0010
0000
0010
1000
0100
0000
0010
0000
0001
0000
0100
0001
,  // measure 132
0100
0001
0010
0000
0100
0000
0100
1000
0010
0000
0100
0000
0001
0000
1000
0100
,  // measure 133
0010
0100
1000
0000
0001
0000
0100
0000
0110
0000
0010
0000
1000
0000
0100
1000
,  // measure 134
0100
0010
0100
0000
0010
0000
0001
1000
1001
0000
0001
0000
0100
0000
0001
0010
,  // measure 135
0100
0000
1000
0100
1000
0010
1000
0001
1000
0000
1001
0000
0000
0000
0101
0000
,  // measure 136
0000
1100
1000
0101
0000
0011
0000
0011
,  // measure 137
0000
0110
0010
1100
0000
1001
0000
0110
,  // measure 138
0000
0000
1010
0000
0010
0000
0101
0000
1001
0000
1000
0100
1100
0000
0010
0001
,  // measure 139
0011
0000
1000
0001
0100
0010
1000
0010
0200
0000
0000
0000
0310
0000
0000
0000
;
