#VERSION:0.83;
#TITLE:Summer -Speedy Mix-;
#SUBTITLE:;
#ARTIST:Unknown artist;
#TITLETRANSLIT:;
#SUBTITLETRANSLIT:;
#ARTISTTRANSLIT:;
#GENRE:;
#ORIGIN:;
#CREDIT:;
#BANNER:;
#BACKGROUND:;
#PREVIEWVID:;
#JACKET:;
#CDIMAGE:;
#DISCIMAGE:;
#LYRICSPATH:;
#CDTITLE:;
#MUSIC:Summer.ogg;
#OFFSET:0.098840;
#SAMPLESTART:29.999001;
#SAMPLELENGTH:12.000000;
#SELECTABLE:YES;
#BPMS:0.000=185.000,
62.000=370.000,
63.000=185.000,
226.000=370.000,
228.000=185.000,
376.000=370.000,
377.000=185.000,
517.000=370.000,
521.000=185.000;
#STOPS:30.000=0.973,
62.000=0.041,
62.250=0.041,
62.500=0.041,
62.750=0.041,
256.000=0.973,
285.000=0.973,
362.000=0.486,
362.500=0.486,
375.000=0.486,
375.500=0.162,
376.000=0.041,
376.250=0.041,
376.500=0.041,
376.750=0.041,
517.000=0.324,
519.000=0.324;
#DELAYS:;
#WARPS:;
#TIMESIGNATURES:0.000=4=4;
#TICKCOUNTS:0.000=4;
#COMBOS:0.000=1;
#SPEEDS:0.000=1.000=0.000=0;
#SCROLLS:0.000=1.000;
#FAKES:;
#LABELS:0.000=Song Start;
#BGCHANGES:;
#KEYSOUNDS:;
#ATTACKS:
;

//---------------dance-single - ----------------
#NOTEDATA:;
#CHARTNAME:;
#STEPSTYPE:dance-single;
#DESCRIPTION:;
#CHARTSTYLE:;
#DIFFICULTY:Challenge;
#METER:14;
#RADARVALUES:1.093097,1.232090,0.778308,0.591312,1.147247,1514.000000,1360.000000,154.000000,117.000000,33.000000,2.000000,1.000000,0.000000,0.000000,1.093097,1.232090,0.778308,0.591312,1.147247,1514.000000,1360.000000,154.000000,117.000000,33.000000,2.000000,1.000000,0.000000,0.000000;
#CREDIT:;
#NOTES:
// measure 0
0000
0000
0000
0000
,  // measure 1
0000
0000
0000
0000
,  // measure 2
0000
0000
0000
0000
,  // measure 3
0000
0000
0000
0000
,  // measure 4
0000
0000
0000
0000
0000
0000
0000
0000
1000
0100
0010
0001
0010
0100
1000
0001
,  // measure 5
0100
0000
0010
0100
0000
0010
0100
0000
0010
1000
0001
0010
0100
0010
0100
1000
,  // measure 6
0100
0000
1000
0010
0000
1000
0010
0000
0100
0010
0100
0001
0100
0001
1000
0100
,  // measure 7
0010
0000
0001
1000
0000
0001
1000
0000
0020
0000
0000
0000
0130
0000
0001
0000
,  // measure 8
0010
0000
0100
1000
0000
1000
0000
1000
0010
0000
0100
0000
0001
0000
0010
0000
,  // measure 9
0001
0000
0010
0001
0000
0100
0000
0010
1000
0000
0100
0000
0010
0001
0010
0100
,  // measure 10
1000
0100
0010
0100
1000
0000
1000
0010
0000
0010
0100
0000
0001
1000
0010
0100
,  // measure 11
0010
1000
0010
1000
0100
0000
0010
0001
1000
0001
0100
0000
0001
0000
0100
0000
,  // measure 12
0010
0000
0100
0010
0000
0010
0000
1000
0010
0000
0100
0000
0001
0000
0010
0000
,  // measure 13
0001
0000
0100
0010
0000
1000
0000
0001
0010
0000
0100
0000
0010
0001
0010
0100
,  // measure 14
1000
0010
1000
0001
0010
0000
0100
0010
0000
0100
1000
0000
0010
0100
0001
0010
,  // measure 15
0001
0100
0010
0100
0001
1000
0001
1000
0001
1000
0001
1000
0002
0000
0000
0000
,  // measure 16
1003
0000
0000
1010
0000
0000
1001
0000
0011
0000
0110
0000
1100
0000
0000
0000
,  // measure 17
0011
0000
0000
0110
0000
0000
1010
0000
0000
0101
0000
0000
1010
0000
0010
0000
,  // measure 18
0110
0000
0000
0101
0000
0000
1010
0000
0101
0000
1001
0000
1100
0000
0000
0000
,  // measure 19
0110
0000
0000
1001
0000
0000
0101
0000
0110
0000
0000
1000
0010
0000
0000
0000
,  // measure 20
0101
0000
0000
0110
0000
0000
1100
0000
1001
0000
0101
0000
1001
0000
0000
0000
,  // measure 21
0110
0000
0000
1010
0000
0000
0101
0000
0000
0011
0000
0000
1100
0000
0110
0000
,  // measure 22
0011
0000
0000
0001
1000
0000
1001
0000
0101
0000
0110
0000
1010
0000
0000
0000
,  // measure 23
0110
0000
0000
0000
0010
0100
0010
0000
0100
0010
0100
0010
0200
0000
0000
0000
,  // measure 24
0002
0300
0M20
0003
203M
00M2
3000
M200
,  // measure 25
0003
230M
0M20
3000
M002
0030
0020
0003
,  // measure 26
020M
0030
00M2
0300
0M23
023M
00M0
2300
,  // measure 27
3M02
M203
002M
0000
0000
0300
0M02
0030
,  // measure 28
0020
0003
200M
0030
30M2
M020
0003
200M
,  // measure 29
0030
3020
M200
0030
20M0
0300
0M20
3000
,  // measure 30
M002
0030
20M0
0003
320M
M002
0300
2M03
,  // measure 31
320M
0000
M320
0000
0M02
0000
0000
0000
0033
0000
00MM
0000
1000
0100
1000
0000
,  // measure 32
0010
0000
0100
0001
0010
0100
0010
0000
0100
0000
1000
0010
0100
0000
0001
0000
,  // measure 33
0100
0000
0001
1000
0010
1000
0100
0000
0010
0001
0100
0000
0010
0100
0001
0000
,  // measure 34
0010
0000
0100
0010
0001
0100
0010
0000
1000
0000
0100
0000
0202
0000
0000
0000
,  // measure 35
0300
0000
2000
0000
0000
0000
0003
0000
0200
0000
3300
0000
1000
0100
1000
0100
,  // measure 36
0010
0001
1000
0010
1000
0001
0010
0001
1000
0010
0100
0001
1000
0100
0010
0100
,  // measure 37
1000
0001
0100
0001
1000
0010
1000
0001
0010
0100
0010
0100
1000
0001
0100
0001
,  // measure 38
0100
0010
1000
0001
0010
0100
0010
0001
1000
0010
0100
0010
1000
0001
0010
0100
,  // measure 39
1000
0001
0010
0100
1000
0100
0010
0001
1000
0010
0100
0001
2000
0000
0000
0000
,  // measure 40
0001
0000
0010
0000
3010
0100
0102
0000
,  // measure 41
1000
0000
0000
0000
0010
0000
0000
0000
0013
0000
0010
0100
2000
0000
0000
0000
,  // measure 42
0010
0000
0001
0000
3001
1000
1020
0000
,  // measure 43
0100
0000
0000
0000
0001
0000
0000
0031
0010
0000
0010
0000
0210
0000
0000
0000
,  // measure 44
0010
0000
0001
0000
0301
1000
1020
0000
,  // measure 45
0100
0000
1000
0100
1000
0130
0102
0000
,  // measure 46
0010
0000
0000
0000
0103
0000
0010
0000
1000
0000
0001
0000
2002
0000
0000
3003
,  // measure 47
2020
0000
0000
3030
0202
0000
0000
0303
0220
0000
0000
0330
1010
0000
0101
0000
,  // measure 48
1001
0000
0011
0000
1100
0000
0101
0000
2200
0000
3300
0000
1000
0100
1000
0100
,  // measure 49
0010
0001
1000
0010
1000
0010
0100
0001
0010
0001
1000
0010
1000
0001
0100
0010
,  // measure 50
0100
0010
1000
0001
0010
0001
1000
0010
1000
0001
0100
0001
1000
0100
1000
0100
,  // measure 51
0010
0001
1000
0001
0100
0010
0100
0001
1000
0001
0010
0100
0010
0100
1000
0001
,  // measure 52
0100
0010
0100
0001
1000
0010
0100
0010
1000
0000
0000
0000
0001
1000
0001
1000
,  // measure 53
0010
0100
0010
0100
0001
0100
0001
0100
0010
1000
0010
1000
0001
0010
0100
1000
,  // measure 54
0001
0010
0100
1000
0001
0100
0010
1000
0001
0100
0010
1000
0001
0010
0100
0010
,  // measure 55
0100
1000
0010
0100
0010
0100
0001
1000
0100
0010
0100
1000
0010
0100
0001
0010
,  // measure 56
0001
1000
0010
1000
0001
0010
0001
0100
0040
0000
0000
0000
0000
0000
0000
0000
,  // measure 57
0130
0000
0000
0000
1100
0000
0000
1000
0010
0000
0110
0000
0000
0000
0101
0000
,  // measure 58
0000
0101
1001
0000
1100
0010
0011
0000
,  // measure 59
0011
0000
0000
0000
0101
0000
0000
0001
0100
0000
0110
0000
0000
0000
1010
0000
,  // measure 60
0000
0000
1010
0000
1100
0000
0000
0000
0001
0100
0001
0000
0101
0000
1100
0000
,  // measure 61
1010
0000
0000
0000
0110
0000
0000
0100
0001
0000
0101
0000
0000
0000
0110
0000
,  // measure 62
0000
0000
0110
0000
1010
0000
0000
0000
1100
0000
0110
0000
0011
0000
0000
0010
,  // measure 63
0001
0000
0101
0000
0110
1010
0000
0101
,  // measure 64
0120
0000
0000
0000
0130
0000
0000
0000
0101
0000
0000
0001
1000
0000
1010
0000
,  // measure 65
0000
0110
0000
0001
1010
0000
1100
0100
,  // measure 66
0110
0000
0000
0000
0011
0000
0000
0000
1001
0000
0000
1000
0010
0000
0011
0000
,  // measure 67
0000
0101
0000
1000
0011
0000
1001
0010
,  // measure 68
1010
0000
0000
0000
1000
0010
0100
0010
1000
0001
0010
0100
1000
0010
1000
0100
,  // measure 69
0010
0001
1000
0100
1000
0100
0010
0001
1000
0010
0100
0010
1000
0001
0010
0100
,  // measure 70
0010
0100
0010
0001
1000
0010
1000
0001
0010
0001
1000
0100
1000
0001
0100
0001
,  // measure 71
0010
0100
1000
0100
0020
0000
0000
0000
0130
0000
1000
0000
0010
0000
0100
0001
,  // measure 72
0000
0001
0000
1000
0001
0000
0100
0000
0010
0000
1000
0000
0100
0000
0100
0010
,  // measure 73
0000
0010
0000
0001
0100
0000
0001
0000
1000
0000
0010
0000
1000
0000
0100
0010
,  // measure 74
0000
0010
0000
0001
0010
0000
0100
0000
1000
0000
0010
0000
0100
0000
0100
0001
,  // measure 75
1000
0010
1000
0001
0100
0000
0010
0000
0100
0000
0001
0000
0100
0000
0010
1000
,  // measure 76
0000
0001
0000
0010
0100
0000
0010
0000
0100
0000
1000
0000
0010
0000
0100
0010
,  // measure 77
0000
0100
0000
0001
0100
0000
0010
0000
1000
0000
0100
0000
0010
0000
0010
0001
,  // measure 78
0000
0001
0000
0100
0001
0000
1000
0000
0010
0000
0100
0000
0001
0000
0100
0010
,  // measure 79
0100
0001
0100
0000
0020
0000
0000
0000
0130
0000
0010
1000
0001
0000
0100
0001
,  // measure 80
1000
0000
0010
0100
0001
0000
0020
0000
0000
0000
0100
0000
0130
0000
0000
0000
,  // measure 81
1100
0000
0000
0000
0011
0000
0000
0000
1000
0000
0010
0100
0001
0000
0010
0001
,  // measure 82
0100
0000
0010
1000
0100
0000
2000
0000
0000
0000
3000
0010
0100
0000
0000
0000
,  // measure 83
2020
0000
0000
0000
3030
0000
0000
0000
1000
0000
0100
0010
0100
0000
1000
0010
,  // measure 84
1000
0000
0001
0100
0001
0000
2000
0000
0000
0000
0010
0000
3010
0000
0000
0000
,  // measure 85
0110
0000
0000
0000
0101
0000
0000
0000
0001
0000
0010
0100
0010
0000
0100
1000
,  // measure 86
0100
0000
1000
0010
1000
0000
0002
0000
0000
0000
0013
0100
1000
0000
0000
0000
,  // measure 87
2002
0000
0000
0000
0000
3003
0000
0000
0001
0000
0100
0000
0000
0000
1000
0000
,  // measure 88
0010
0000
0001
0000
0000
0000
1000
0000
0100
0010
0100
1000
0100
0000
0010
0000
,  // measure 89
0001
0000
1000
0000
0000
0000
0010
0000
0100
0001
0100
0010
0100
0000
0001
0000
,  // measure 90
0010
0000
0000
0000
0000
0000
0000
0000
0000
0000
0000
0000
0001
0000
0000
0000
0000
0000
0000
0000
0000
0000
0000
0000
1000
0000
0000
0000
0000
0000
0000
0000
0000
0000
0000
0000
0010
0000
0000
0000
0000
0000
0000
0000
0000
0000
0000
0000
1000
0000
0000
0000
0000
0000
0000
0000
0000
0000
0000
0000
0000
0000
0000
0000
0000
0000
0000
0000
0000
0000
0000
0000
0001
0000
0000
0000
0000
0000
0000
0000
0000
0000
0000
0000
0000
0000
0000
0000
0000
0000
0000
0000
0000
0000
0000
0000
0202
0000
0000
0000
0000
0000
0000
0000
0000
0000
0000
0000
0000
0000
0000
0000
0000
0000
0000
0000
0000
0000
0000
0000
1000
0303
0000
0000
0000
0000
0000
0000
0000
0000
0000
0000
0000
0000
0000
0000
0000
0000
0000
0000
0000
0000
0000
0000
0001
0000
0000
0000
0000
0000
0000
0000
0000
0000
0000
0000
0010
0000
0000
0000
0000
0000
0000
0000
0000
0000
0000
0000
0001
0000
0000
0000
0000
0000
0000
0000
0000
0000
0000
0000
1000
0000
0000
0000
0000
0000
0000
0000
0000
0000
0000
0000
,  // measure 91
0010
1000
0100
0010
0001
0010
0100
0010
0001
1000
0010
0100
0010
1000
0001
0010
,  // measure 92
0100
0010
0100
1000
0001
0100
0001
0100
0010
1000
0010
0100
0001
0010
0001
1000
,  // measure 93
0010
0100
0010
1000
0001
0010
0001
1000
0010
0100
0010
0000
2020
0000
3031
0000
,  // measure 94
1000
0010
1000
0010
1000
0000
1010
0000
1001
0000
0001
0100
0010
1000
0100
0000
,  // measure 95
0110
0000
0010
0000
0001
0000
0101
0000
1001
0000
1000
0010
0100
0001
0000
0001
,  // measure 96
0100
0000
0010
0000
1000
0000
1010
0000
1001
0000
0001
0010
0100
0010
0100
0000
,  // measure 97
1000
0000
0010
0000
0110
0000
0100
0000
0001
0000
1000
0001
1000
0010
0000
0100
,  // measure 98
0001
0000
0100
0001
0100
0000
0110
0000
1010
0000
1000
0100
1000
0010
0000
0100
,  // measure 99
0010
0000
0100
0001
0010
0000
0100
0000
0110
0000
0010
0001
0000
0001
0000
0001
,  // measure 100
0100
0000
0010
0000
1000
0000
0100
0000
0010
0001
0000
0100
0000
0010
1000
0000
,  // measure 101
0100
0000
0010
0000
0001
0000
0100
0000
0010
1000
0010
0100
0010
0000
0100
0010
,  // measure 102
0100
0000
0001
0000
1000
0000
0001
0000
0100
0000
0000
0010
0000
0000
0100
0000
,  // measure 103
0001
0000
0010
0000
0100
0000
1000
0010
0100
0000
0100
0001
0010
0000
0000
0000
,  // measure 104
0110
0000
0000
0000
0100
0000
1000
0000
0010
0000
0000
0100
0000
0001
0000
0010
,  // measure 105
0001
0000
0100
0000
0010
0000
1000
0100
0010
0000
0010
0001
0200
0000
0000
0000
,  // measure 106
0000
0000
0000
0000
0301
0000
1000
0000
0100
0000
0000
0010
0001
0010
0100
0000
,  // measure 107
1000
0000
0010
0000
0100
0000
0010
1000
0100
0000
0010
0001
0100
0010
0200
0000
,  // measure 108
0301
0010
0002
0000
0103
0000
0010
0000
1000
0000
0000
0100
0000
0000
0010
0000
,  // measure 109
0001
0000
0100
0000
0010
0000
1000
0001
0100
0000
0010
1000
0010
0100
0010
0100
,  // measure 110
0010
0100
0010
0100
0002
0000
1003
0100
2000
0000
3010
0100
0020
0000
0130
0001
,  // measure 111
0200
0000
0010
0000
0000
0000
0310
0000
2000
0000
0000
3000
2100
0000
0000
3000
,  // measure 112
1020
0000
0000
0030
0110
0000
0100
0020
0100
0030
0100
0002
0100
0003
0100
0020
,  // measure 113
0130
0000
1001
0000
0000
0000
0000
0100
0020
0000
0000
0030
2002
0000
0000
3003
,  // measure 114
0000
0000
0000
0000
1001
0000
0001
0100
0002
0000
0103
0010
0200
0000
0310
1000
,  // measure 115
0020
0100
0000
0130
0001
0000
0101
0000
,  // measure 116
1010
0000
0000
0000
1010
0000
1000
0020
1000
0030
1000
0200
1000
0300
1000
0001
,  // measure 117
2000
0000
0002
0000
3003
0000
0001
0100
0020
0000
0000
0000
1030
0100
1000
0100
,  // measure 118
0010
0001
0010
0001
1000
0000
1000
0010
0200
0000
0001
0000
0000
0000
0002
0000
,  // measure 119
0300
0000
0013
0000
0100
0000
0100
0010
0002
0000
0100
0000
0000
0003
0101
0000
,  // measure 120
0000
1001
0000
0000
0110
0000
0010
0100
0002
0000
0010
0000
0000
0000
0023
0000
,  // measure 121
0100
0000
0000
0030
0110
0000
0100
1000
0100
0000
1100
0000
1001
0000
0001
0010
,  // measure 122
0100
0000
0110
0000
0110
0000
0100
1000
0020
0000
0100
0000
0000
0000
0130
0000
,  // measure 123
2100
0000
0000
0000
3100
0000
0100
0010
0001
0000
0012
0000
0000
0003
0011
0000
,  // measure 124
0000
0110
0000
0000
1100
0000
0000
1000
0001
0000
0101
0000
0000
0000
0110
0000
,  // measure 125
1001
0000
0000
0000
1000
0100
1000
0000
0010
0100
0001
0000
0010
0001
0100
0000
,  // measure 126
0010
1000
0100
0000
0010
0000
0002
0000
0000
0000
0100
0000
0203
0000
0010
0000
,  // measure 127
0000
0000
0310
0000
0010
1000
0010
0100
0001
0000
0010
0000
0110
0000
2100
0000
,  // measure 128
0000
0000
3010
0000
0010
0100
0001
0010
0002
0000
1000
0000
1003
0010
1000
0100
,  // measure 129
0010
0001
0012
0000
0003
0000
2100
0000
,  // measure 130
3000
0000
1000
0010
0000
0001
0100
1000
,  // measure 131
0000
0000
0001
0000
1000
0100
0010
0001
1000
0000
0100
0000
1000
0000
0002
0000
,  // measure 132
0000
0000
0103
0000
0010
1000
0010
0100
0010
0000
0100
0000
0001
0010
0100
0010
,  // measure 133
0001
0000
0100
0000
0010
1000
0010
1000
0001
0010
0001
0010
0100
1000
0100
1000
,  // measure 134
0001
0100
0001
0100
0001
0010
0100
0010
0001
0100
0010
0100
0010
1000
0100
0010
,  // measure 135
0001
0010
0100
0010
0001
1000
0100
0010
0100
1000
0100
0010
0100
0010
0001
0100
,  // measure 136
0010
1000
0010
0100
0001
0010
0001
1000
0100
1000
0001
0100
0001
1000
0010
1000
,  // measure 137
0001
0010
0001
0010
0100
1000
0010
0100
0001
1000
0100
1000
0010
0100
0001
0010
,  // measure 138
0001
0100
0001
0000
0101
0000
1001
0000
0110
0000
1001
0000
1100
0000
0110
0000
,  // measure 139
1001
0000
0000
0000
1000
0100
1000
0001
1000
0010
1000
0001
0010
0001
1000
0001
,  // measure 140
0100
0001
0010
0100
1000
0100
0010
0001
0010
0100
1000
0010
0100
0001
0100
0010
,  // measure 141
1000
0010
0100
0001
1000
0010
0100
0001
0010
0100
0010
0100
1000
0100
0010
0001
,  // measure 142
0100
0010
2000
0000
0000
0000
0010
0000
0010
0000
0010
0000
3020
0000
0000
0000
,  // measure 143
0000
0000
0000
0000
1030
0001
0100
0010
0100
0001
0010
0100
0010
0001
1000
0010
,  // measure 144
1000
0001
0100
0010
0100
0001
1000
0010
0100
0001
1000
0010
0100
0001
0010
0100
,  // measure 145
1000
0001
0010
0100
1000
0001
0100
0010
0100
0001
0010
0001
1000
0100
1000
0100
,  // measure 146
1000
0010
0100
0001
0010
0001
0010
0001
1000
0100
1000
0010
1000
0001
1000
0001
,  // measure 147
1000
0001
1000
0000
2002
0000
0000
0000
0000
0000
0000
0000
3003
0000
0000
0000
;
