#TITLE:Soapy Bubble;
#SUBTITLE:;
#ARTIST:Fragmentz;
#TITLETRANSLIT:;
#SUBTITLETRANSLIT:;
#ARTISTTRANSLIT:;
#GENRE:;
#CREDIT:;
#BANNER:;
#BACKGROUND:;
#LYRICSPATH:;
#CDTITLE:;
#MUSIC:Soapy Bubble.OGG;
#OFFSET:-0.086; // offset by SM2ITG v2 (used to be -0.086948)
#SAMPLESTART:29.958984;
#SAMPLELENGTH:12.000000;
#SELECTABLE:YES;
#BPMS:0.000000=138.000000
;
#STOPS:160.000000=1.350000,
449.000000=0.550000
;
#KEYSOUNDS:;
#ATTACKS:;

//---------------dance-single - ----------------
#NOTES:
     dance-single:
     :
     Challenge:
     12:
     0.729288,0.758566,0.121963,0.000000,0.845029,1144.000000,28.000000,0.000000,0.000000,0.000000,0.000000,0.729288,0.758566,0.121963,0.000000,0.845029,1144.000000,28.000000,0.000000,0.000000,0.000000,0.000000:
// measure 0
0000
0000
0000
0000
,  // measure 1
0000
0000
0000
0000
,  // measure 2
0000
0000
0000
0000
,  // measure 3
0000
0000
0000
0000
,  // measure 4
0000
0000
0000
0000
,  // measure 5
0000
0000
0000
0000
,  // measure 6
0000
0000
0000
0000
,  // measure 7
0000
0000
0000
0000
,  // measure 8
1001
0000
1000
0001
1000
0000
1000
0010
1000
0000
1000
0100
1000
0000
1000
0010
,  // measure 9
1000
0000
1000
0100
1000
0000
1000
0001
1000
0000
1000
0100
0010
0001
0100
0000
,  // measure 10
0110
0000
0100
0010
0100
0000
0100
1000
0100
0000
0100
0001
0010
0100
0010
0000
,  // measure 11
0110
0000
0010
0001
0010
0000
0010
0100
0010
0000
0100
0000
0010
0100
1000
0000
,  // measure 12
1001
0000
0001
0010
0001
0000
0001
0100
0001
0000
0001
0010
0001
0000
0001
1000
,  // measure 13
0001
0000
0001
0010
0001
0000
0001
1000
0001
0000
0001
0100
0010
1000
0010
0000
,  // measure 14
0110
0000
0010
0001
0010
0000
0010
1000
0010
0000
0010
0001
0010
0100
0010
0000
,  // measure 15
1010
0000
1000
0100
1000
0000
1000
0001
1000
0000
0010
0000
0100
0001
0010
0000
,  // measure 16
0110
0000
0100
1000
0100
0000
0100
0001
0100
0000
0100
1000
0100
0000
0100
0010
,  // measure 17
0100
0000
0100
0001
0100
0000
0100
1000
0100
0000
0100
0010
0001
0100
0010
0000
,  // measure 18
1010
0000
0010
0100
0010
0000
0010
0001
0010
0000
0010
1000
0001
0010
0100
0000
,  // measure 19
1100
0000
1000
0010
1000
0000
1000
0100
1000
0000
0010
0000
0100
0001
0010
0000
,  // measure 20
0110
0000
0100
1000
0100
0000
0010
0001
0010
0000
0001
0100
0001
0000
1000
0010
,  // measure 21
1000
0000
0010
0100
0010
0000
1000
0001
1000
0000
0010
1000
0010
0100
0010
0000
,  // measure 22
1010
0000
1000
0010
1000
0000
1000
0001
1000
0000
0001
0100
0010
1000
0001
0000
,  // measure 23
0010
0000
0100
1000
0100
0000
1000
0010
1000
0000
0010
0000
0001
0010
0001
0000
,  // measure 24
0010
0000
1000
0000
0100
0000
0010
0100
0001
0000
0100
0010
0000
0100
0000
1000
,  // measure 25
0010
0000
0100
0000
0001
0000
1000
0001
0010
0100
0010
0100
0000
0001
0000
0100
,  // measure 26
0010
0000
0001
0000
0100
0000
1000
0100
0001
0000
0010
0100
0000
0010
0000
0100
,  // measure 27
1000
0000
0001
0000
0010
0000
1000
0010
1000
0000
0010
0001
0000
1000
0000
0010
,  // measure 28
0001
0000
0010
0000
1000
0000
0100
0010
1000
0000
0010
0001
0000
0100
0000
1000
,  // measure 29
0100
0000
1000
0000
0100
0000
0010
1000
0001
0010
0100
0001
0000
0100
0000
0010
,  // measure 30
0001
0000
0100
0000
0010
0000
1000
0010
0001
0000
0001
0010
0000
0100
0000
0001
,  // measure 31
1000
0000
0100
0000
0010
0000
0001
0000
1000
0000
0001
0000
1000
0100
0010
0001
,  // measure 32
1000
0000
0100
0000
0010
0000
0001
0000
0100
0000
0010
0000
1000
0100
0010
0001
,  // measure 33
0010
0100
1000
0000
0001
0000
0100
0000
0010
0000
0100
0001
0100
0010
1000
0010
,  // measure 34
0100
0000
0010
0000
1000
0000
0001
0000
1000
0000
0100
0000
0010
0001
0010
0100
,  // measure 35
1000
0100
0010
0000
0001
0000
1000
0000
0010
0000
0100
0001
0100
0010
1000
0010
,  // measure 36
0100
0000
0010
0000
0100
0000
0001
0000
0010
0000
0001
0000
0100
1000
0100
0010
,  // measure 37
0001
0010
0100
0000
0010
0000
1000
0000
0001
0000
0010
1000
0010
0100
0001
0100
,  // measure 38
0010
0000
0001
0000
1000
0000
0010
0000
0100
0000
0010
0000
0001
0010
0100
1000
,  // measure 39
0100
0010
0001
0000
0010
0000
1000
0000
0001
0000
1000
0100
0010
0001
0010
0100
,  // measure 40
1000
0000
0000
0000
1000
0100
1000
0000
1000
0001
1000
0000
1000
0010
1000
0000
,  // measure 41
1000
0010
0100
0001
0010
0100
0010
0000
0010
1000
0010
0000
0010
0001
0010
0000
,  // measure 42
0010
0001
0000
0001
0000
0001
0100
0000
0100
0010
0100
0000
0100
1000
0100
0000
,  // measure 43
0100
0001
0010
0100
0010
0001
1000
0000
1000
0010
1000
0000
1000
0001
1000
0000
,  // measure 44
1000
0100
0000
0001
0100
1000
0010
0000
0010
0001
0010
0000
0010
1000
0010
0000
,  // measure 45
0010
0100
0010
0001
0010
1000
0100
0000
0100
0001
0100
0000
0100
1000
0100
0000
,  // measure 46
0100
0010
0000
0010
0000
0010
0001
0000
0001
0100
0001
0000
0001
1000
0001
0000
,  // measure 47
0001
0010
0100
1000
0010
0100
0010
0000
0010
0001
0010
0000
0010
1000
0001
0010
,  // measure 48
0100
1000
0001
0100
0010
0001
0010
0000
0010
1000
0010
0000
0010
0100
0010
0000
,  // measure 49
0010
1000
0100
0010
0001
1000
0001
0000
0001
0010
0001
0000
0001
0100
0001
0000
,  // measure 50
0001
0010
0000
0010
0000
0010
1000
0000
1000
0010
1000
0000
1000
0001
1000
0000
,  // measure 51
1000
0010
0100
0010
0001
1000
0001
0000
0001
1000
0001
0000
0001
0010
0001
0000
,  // measure 52
0001
0100
0000
0010
0001
0010
0100
0000
0100
0010
0100
0000
0100
0001
0100
0000
,  // measure 53
0100
0001
0010
0100
0010
0100
1000
0000
1000
0001
1000
0000
1000
0010
1000
0000
,  // measure 54
1000
0100
0000
0100
0000
0100
0010
0000
0010
0001
0010
0000
0010
1000
0010
0000
,  // measure 55
0010
0001
1000
0010
0100
0001
0010
0000
0010
0100
0010
0000
0010
0001
1000
0010
,  // measure 56
0100
0001
1000
0010
0001
0010
0100
0000
0100
0001
0100
0000
0100
1000
0100
0000
,  // measure 57
0100
0010
1000
0001
0010
0100
1000
0000
1000
0010
1000
0000
1000
0001
1000
0000
,  // measure 58
1000
0010
0000
0010
0000
0010
0001
0000
0001
0010
0001
0000
0001
1000
0001
0000
,  // measure 59
0001
0010
0100
0010
0100
0001
1000
0000
1000
0100
1000
0000
1000
0001
1000
0000
,  // measure 60
1000
0010
0000
0010
0100
1000
0100
0000
0100
0001
0100
0000
0100
0010
0100
0000
,  // measure 61
0100
0010
1000
0001
0010
0100
0010
0000
0010
1000
0010
0000
0010
0001
0010
0000
,  // measure 62
0010
0001
0000
0001
0000
0001
0100
0000
0100
0010
0100
0000
0100
1000
0100
0000
,  // measure 63
0100
0001
0010
0100
1000
0100
0010
0000
0010
1000
0010
0000
0010
0001
1000
0010
,  // measure 64
0100
0001
1000
0100
0001
0000
0000
0000
0000
0000
0000
0000
0000
0000
0000
0000
,  // measure 65
0000
0000
0000
0000
,  // measure 66
0000
0101
0000
0000
,  // measure 67
0000
1001
0000
0000
,  // measure 68
0000
0110
0000
0000
,  // measure 69
0000
0000
0000
0000
,  // measure 70
0000
1010
0000
0000
,  // measure 71
0000
0101
0000
1001
,  // measure 72
0000
0110
0000
0000
,  // measure 73
0000
0000
0000
0000
,  // measure 74
0000
0011
0000
0000
,  // measure 75
0000
0101
0000
0000
,  // measure 76
0000
1010
0000
0000
,  // measure 77
0000
0000
0000
0000
,  // measure 78
0000
0000
0000
0110
0000
0000
0000
0000
,  // measure 79
0000
0101
0000
1010
,  // measure 80
0000
0000
1000
0000
0010
0000
0000
0100
,  // measure 81
0010
0000
1000
0000
0001
0000
0000
0100
,  // measure 82
0010
0000
1000
0000
0001
0000
0000
0010
,  // measure 83
1000
0000
0010
0000
0100
0000
0010
1000
,  // measure 84
0001
0000
0100
0001
0010
0000
0000
0000
0100
0000
0000
0000
0000
0000
1000
0000
,  // measure 85
1010
0000
0100
0000
0010
0000
0000
0100
,  // measure 86
0101
0000
0001
0000
0010
0000
0000
1000
,  // measure 87
1010
0000
0010
0000
0100
0000
0010
1000
,  // measure 88
0001
0000
0010
0100
0010
0000
0001
0000
1000
0000
0010
1000
0001
0000
1000
0001
,  // measure 89
0000
1000
0000
0001
0100
0000
0010
0000
1000
0000
0100
0010
0100
1000
0001
0100
,  // measure 90
0000
0001
0000
0100
0001
0000
1000
0000
0100
0000
0010
0100
1000
0000
0100
1000
,  // measure 91
0000
0100
0000
1000
0010
0000
0100
0000
0010
0000
0100
0001
1000
0100
0010
0100
,  // measure 92
0000
0010
0000
0001
0100
0000
0001
0000
0010
0000
0100
0010
0100
0000
1000
0010
,  // measure 93
0000
0100
0000
0001
0010
0000
0100
0000
1000
0000
0001
0100
0001
0010
0001
0100
,  // measure 94
0000
0010
0000
1000
0100
0000
0010
0000
0100
0000
0100
1000
0010
0000
0100
0001
,  // measure 95
0000
0010
0000
0010
0100
0000
0010
0000
0001
0000
1000
0000
0010
0000
0100
0000
,  // measure 96
0001
0000
0100
0001
0010
0000
0100
0000
0010
0000
0100
0010
1000
0000
0010
0001
,  // measure 97
0000
0100
0000
0010
0001
0000
0010
0000
0100
0000
1000
0100
0010
0001
0010
0100
,  // measure 98
0000
0001
0000
1000
0010
0000
0100
0000
1000
0000
0100
0001
0010
0000
1000
0010
,  // measure 99
0000
0100
0000
1000
0001
0000
0010
0000
1000
0000
0010
0100
0001
0000
0100
0010
,  // measure 100
0000
1000
0000
0010
0001
0000
0100
0000
0010
0000
1000
0000
0001
0000
0100
0000
,  // measure 101
0001
0100
0010
0001
1000
0100
0001
0100
,  // measure 102
0010
0001
0010
1000
0010
0100
1000
0100
,  // measure 103
0010
0001
0010
1000
0100
0010
0001
0100
,  // measure 104
0010
1000
0001
1000
0001
0000
0100
0000
0010
0000
1000
0000
0100
0000
0010
0000
,  // measure 105
0100
0001
0000
0001
0100
0000
0010
0000
0100
0000
1000
0000
0001
0000
0100
0000
,  // measure 106
1000
0100
1000
0000
0100
0000
0010
0000
1000
0000
0001
0000
0010
0000
0100
0000
,  // measure 107
0010
0001
0000
0001
0100
0000
0010
0000
1000
0000
0001
0000
0010
0000
0100
0000
,  // measure 108
1000
0010
1000
0000
0010
0000
0100
0000
0010
0000
1000
0000
0001
0000
0010
0000
,  // measure 109
0100
0010
0000
0010
1000
0000
0010
0000
0001
0000
0100
0000
0010
0000
1000
0000
,  // measure 110
0100
0001
0100
0000
1000
0000
0010
0000
0100
0000
0010
0000
1000
0000
0001
0000
,  // measure 111
0010
0100
0000
0100
0001
0000
0100
0000
0010
0000
0100
0000
0010
0000
0001
0000
,  // measure 112
0100
0001
0010
0100
1000
0000
0000
0000
0000
0000
0000
0000
0000
0000
0000
0000
,  // measure 113
1000
0100
0010
0000
0010
0001
0100
0000
0100
1000
0100
0000
0100
0001
1000
0100
,  // measure 114
0010
0001
0100
0000
0100
0010
1000
0000
1000
0001
0010
0000
0010
1000
0000
1000
,  // measure 115
0000
1000
0010
0000
0010
0001
0100
0000
0100
0010
0001
0000
0001
0010
1000
0001
,  // measure 116
0010
0100
0001
0000
0001
0100
0010
0000
0010
1000
0010
0000
0010
0100
0000
0001
,  // measure 117
0100
1000
0010
0000
0010
0001
0010
0000
0010
1000
0100
0000
0100
0010
0001
1000
,  // measure 118
0010
0100
1000
0000
1000
0100
0010
0000
0010
0001
0010
0000
0010
0100
0000
0100
,  // measure 119
0000
0100
1000
0000
1000
0100
0010
0000
0010
1000
0001
0000
0001
0010
0100
0010
,  // measure 120
0001
0100
1000
0000
1000
0100
0010
0000
0010
1000
0100
0010
0001
0010
1000
0010
,  // measure 121
0001
0010
1000
0000
1000
0010
0100
0000
0100
0001
0100
0000
0100
0010
1000
0010
,  // measure 122
0001
0100
1000
0000
1000
0100
0010
0000
0010
0001
1000
0000
1000
0100
0000
0100
,  // measure 123
0000
0100
0001
0000
0001
0010
1000
0000
1000
0010
0100
0000
0100
0010
0001
0100
,  // measure 124
0010
0100
1000
0000
1000
0100
0001
0000
0001
0010
0100
0010
1000
0001
0000
0001
,  // measure 125
0100
1000
0010
0000
0010
0001
0010
0000
0010
1000
0100
0000
0100
0001
0010
1000
,  // measure 126
0010
0001
0100
0000
0100
1000
0010
0000
0010
0100
1000
0000
1000
0100
0000
0100
,  // measure 127
0000
0100
0010
0000
0010
0001
0010
0000
0010
0100
1000
0000
1000
0100
0001
0010
,  // measure 128
1000
0010
0001
0000
0001
0100
0010
0000
0010
1000
0001
0010
0100
1000
0001
0100
,  // measure 129
1001
0000
0000
0000
;
