#TITLE:Remember December;
#SUBTITLE:;
#ARTIST:Mind Reflection;
#TITLETRANSLIT:;
#SUBTITLETRANSLIT:;
#ARTISTTRANSLIT:;
#GENRE:;
#CREDIT:;
#BANNER:;
#BACKGROUND:;
#LYRICSPATH:;
#CDTITLE:;
#MUSIC:Remember December.OGG;
#OFFSET:-0.072; // offset by SM2ITG v2 (used to be -0.073162)
#SAMPLESTART:29.838997;
#SAMPLELENGTH:12.000000;
#SELECTABLE:YES;
#BPMS:0.000000=209.300003
;
#STOPS:64.000000=1.880000,
379.000000=0.280000
;
#KEYSOUNDS:;
#ATTACKS:;

//---------------dance-single - ----------------
#NOTES:
     dance-single:
     :
     Challenge:
     11:
     0.927704,0.903688,0.321436,0.177022,0.449544,1287.000000,69.000000,38.000000,120.000000,0.000000,3.000000,0.927704,0.903688,0.321436,0.177022,0.449544,1287.000000,69.000000,38.000000,120.000000,0.000000,3.000000:
// measure 0
0000
0000
0000
0000
,  // measure 1
0000
0000
0000
0000
,  // measure 2
0000
0000
0000
0000
,  // measure 3
0000
0000
0000
0000
,  // measure 4
2010
0000
30M1
0000
0100
0001
0000
0100
,  // measure 5
0010
0000
0000
0000
1000
0000
0010
0000
0000
0000
0100
0000
0000
0M00
0000
0000
,  // measure 6
0012
0000
10M3
0000
0001
0100
0000
0100
,  // measure 7
0010
0000
0010
1000
0000
0001
0000
0001
,  // measure 8
1000
0100
0010
0001
0100
0010
1000
0001
,  // measure 9
0010
0100
0010
0001
0100
0010
0100
0001
,  // measure 10
1000
0010
1000
0001
0010
0100
1000
0100
,  // measure 11
0010
0001
0100
0000
0001
1000
1000
1000
,  // measure 12
0010
0100
0001
1000
0100
1000
0010
0100
,  // measure 13
0001
1000
0001
0010
1000
0010
0001
0100
,  // measure 14
0001
1000
0010
0100
0010
0001
0010
0100
,  // measure 15
0010
1000
0100
1000
0001
0100
0010
1000
,  // measure 16
0001
000M
1000
0100
1000
0001
1000
0010
,  // measure 17
1000
0001
1000
0100
1000
0010
1000
0100
,  // measure 18
1000
0010
0001
1000
0001
0010
0001
0100
,  // measure 19
0001
0010
0001
1000
0001
0100
0001
0010
,  // measure 20
0001
0010
0100
1000
0001
0100
1000
0100
,  // measure 21
0010
1000
0001
0010
0100
0010
0100
1000
,  // measure 22
0001
0100
0010
1000
0001
0010
0001
0100
,  // measure 23
0010
0000
1000
0000
0010
0000
0001
0000
0010
0000
1000
0000
0100
0000
0100
0010
,  // measure 24
0001
1000
1001
0001
0100
0010
1000
0100
,  // measure 25
0001
0100
1000
0010
0100
0010
1000
0001
,  // measure 26
0010
0100
0010
1000
0010
0100
0010
0001
,  // measure 27
1000
0010
0100
0001
0100
0001
0010
0010
,  // measure 28
0100
0100
1000
0001
0010
0001
0100
0010
,  // measure 29
1000
0001
0010
1000
0010
0100
1000
0010
,  // measure 30
0100
0001
1000
0100
1000
0100
0010
0001
,  // measure 31
0010
0000
0001
0000
4000
0004
0000
0000
0000
0000
0000
0000
0000
0000
0000
0000
,  // measure 32
0000
0000
0000
3003
1000
0000
0000
0000
M010
0000
0000
0000
100M
0000
0010
1000
,  // measure 33
0001
0010
M100
0000
0010
0M01
0000
100M
,  // measure 34
0010
M000
0010
1M00
0001
1000
0100
000M
,  // measure 35
M010
0000
0100
0010
0001
0000
0000
0000
1M00
0000
001M
0000
0100
0000
0001
0000
,  // measure 36
0M10
0000
001M
0100
0010
0000
0M10
0000
,  // measure 37
0100
0000
0100
1000
0010
0000
0000
0000
1000
0000
00M1
0000
0000
0000
M010
0000
,  // measure 38
010M
M000
0010
0100
1000
0MM0
0001
M000
,  // measure 39
010M
0000
0010
0100
0001
0000
0M00
0000
0010
0000
010M
0000
1000
0000
0010
0000
,  // measure 40
0100
2010
00M1
001M
,  // measure 41
01M0
0M01
001M
00M1
,  // measure 42
310M
0102
1M00
M010
,  // measure 43
01M0
0M10
10M0
M010
,  // measure 44
01M3
0000
0001
0100
0000
0100
0M0M
0000
,  // measure 45
1001
0000
1000
0100
0000
0110
0000
0000
,  // measure 46
0010
0000
0100
1000
0000
0010
M0M0
0000
,  // measure 47
1010
0000
0100
0001
0000
0011
0000
0000
,  // measure 48
0000
0000
2001
3000
102M
0030
10M2
0003
,  // measure 49
M201
0300
001M
1000
0100
0010
0001
0100
,  // measure 50
0010
1000
0001
0010
0100
0010
0100
1000
,  // measure 51
0001
0100
0010
0100
0001
0010
0001
1000
,  // measure 52
0010
1000
0001
0100
0010
1000
0100
0001
,  // measure 53
0100
1000
0010
0100
0010
0001
0010
1000
,  // measure 54
0100
0010
0001
0100
0010
1000
0100
0001
,  // measure 55
0100
1000
0010
0001
0010
0100
0001
1000
,  // measure 56
0001
0000
0010
0000
0100
0000
0100
1000
0001
0000
0100
0000
0010
0000
1000
0000
,  // measure 57
0010
0100
0001
0000
1000
0000
0100
0000
0010
0000
0100
0000
0010
0000
0001
0000
,  // measure 58
1000
0010
0100
0010
1000
0001
0010
1000
,  // measure 59
0010
0001
0100
0010
0100
0010
1000
0001
,  // measure 60
0010
0100
0010
0001
1000
0010
1000
0001
,  // measure 61
0010
0100
1000
0010
0001
0010
1000
0010
,  // measure 62
0001
0010
1000
0100
0001
0100
1000
0100
,  // measure 63
0001
0100
1000
0100
0010
0001
0010
0100
,  // measure 64
1000
0000
0001
0000
1000
0000
0100
0010
0100
0000
1000
0000
0010
0000
0100
0000
,  // measure 65
0010
1000
0010
1000
0001
0000
0100
0010
1000
0000
0010
0000
0100
0000
0010
0000
,  // measure 66
0000
0000
0010
0000
1000
0000
0100
0010
0100
0000
0010
0000
0001
0000
1000
0000
,  // measure 67
0010
0000
0100
0010
0100
0000
0001
1000
0010
0000
0100
0000
0001
0000
0010
0000
,  // measure 68
0000
0000
0100
0000
0010
0000
0001
0100
0010
0000
1000
0000
0010
0000
0100
0010
,  // measure 69
1000
0000
1000
0010
0100
0000
0001
0010
0100
0000
1000
0000
0010
0000
1000
0000
,  // measure 70
0000
0000
0010
0000
0100
0000
0010
1000
0010
0000
0100
0000
0001
0000
0010
0000
,  // measure 71
0000
0000
0100
1000
0100
0000
1000
0010
1000
0000
0010
0000
0100
0000
0001
0000
,  // measure 72
0000
0000
1000
0000
0100
0000
1000
0010
1000
0000
0010
0000
0100
0000
0001
0010
,  // measure 73
0100
1000
0100
0010
0001
0000
1000
0000
0010
0000
0100
0000
0001
0000
0010
0000
,  // measure 74
0100
0000
0010
1000
0010
0000
0100
0010
0100
0000
0010
0000
0001
0000
1000
0000
,  // measure 75
0010
0000
0100
0010
1000
0000
0001
0010
0100
0000
0010
0000
0100
0000
1000
0000
,  // measure 76
0010
0000
0100
0000
0001
0000
0010
0100
0010
0000
0001
0000
0100
0000
0010
0100
,  // measure 77
0010
0000
0100
0001
0100
0000
0010
1000
0010
0000
0100
0000
0001
0000
0010
0000
,  // measure 78
0100
0000
1000
0000
0100
0000
0010
0100
0010
0000
0001
0000
1000
0000
0010
0000
,  // measure 79
0100
0000
0010
1000
0001
0000
0001
1000
0100
0000
0010
0000
0100
0000
1000
0000
,  // measure 80
0010
0000
0100
0000
0010
0100
0010
1000
0010
0000
0000
0010
1000
0000
1010
0000
,  // measure 81
1001
0000
0001
0100
0010
0000
0100
0000
0010
0000
1000
0000
0001
0000
0010
0000
,  // measure 82
0100
0000
1000
0100
0010
0000
0100
0000
0010
0000
0001
0000
0100
0000
0010
0100
,  // measure 83
0001
0000
0000
0001
0100
0000
0010
0000
1000
0000
0001
0000
0010
0000
0100
0000
,  // measure 84
0010
0000
0100
0000
1000
0000
0001
0000
0100
0000
0010
0000
1000
0000
0000
1000
,  // measure 85
0010
0000
0010
1000
0100
0000
1000
0000
0100
0000
0010
0000
0001
0000
0010
0000
,  // measure 86
0100
0010
0100
1000
0001
0100
0010
0100
,  // measure 87
1000
0100
0010
1000
0001
0010
1000
0010
,  // measure 88
0100
0000
0100
0000
0100
0000
0000
0100
1000
0000
0000
1000
0010
0000
1000
0000
,  // measure 89
0001
0000
1000
0010
0200
0000
0000
0000
M0M1
0000
0000
0000
M01M
0000
0000
0000
,  // measure 90
13MM
0000
1100
MMMM
1010
MMMM
0011
MMMM
,  // measure 91
0101
MMMM
0002
0000
MM10
0000
M1M0
0000
,  // measure 92
1MM3
0000
0000
0000
1010
0000
MMMM
0000
0110
0000
MMMM
0000
0101
0000
0000
0001
,  // measure 93
0100
0000
0001
0100
0020
0000
0000
0000
1M0M
0000
0000
0000
M10M
0000
0000
0000
,  // measure 94
MM31
0000
0011
MMMM
0101
MMMM
1100
MMMM
,  // measure 95
1010
MMMM
0101
MMMM
1001
MMMM
0110
MMMM
,  // measure 96
0010
0000
0000
0010
0100
0000
0000
0100
0001
0000
0101
0000
1001
0000
1000
0100
,  // measure 97
0010
0001
1000
0010
0100
0010
1000
0001
,  // measure 98
0010
0100
0010
0100
1000
0001
0100
0001
,  // measure 99
0010
1000
0010
0001
0100
1000
0100
0001
,  // measure 100
0010
0000
0100
0000
1000
0000
0010
0000
0100
0000
0000
0100
0010
0000
0010
0100
,  // measure 101
0001
0010
1000
0010
0100
0001
0100
1000
,  // measure 102
0001
0100
0010
0001
0010
1000
0001
1000
,  // measure 103
0100
0010
1000
0010
0100
0010
0001
0100
,  // measure 104
0010
0000
0000
0010
0100
0000
0000
0100
0001
0000
1000
0000
0010
0000
0000
0000
,  // measure 105
1001
0000
0001
0100
0000
0100
0000
0000
0010
1000
0000
1000
,  // measure 106
0100
0000
0100
0010
0000
0011
0000
0000
1100
0000
0000
0010
,  // measure 107
1010
0000
1000
0100
0000
0100
0000
0000
0010
0100
0000
0100
,  // measure 108
1000
0000
1000
0010
0000
0011
0000
0000
1000
0100
1000
0010
,  // measure 109
0200
0000
0010
0000
0000
0000
0320
0000
1000
0000
0000
0000
,  // measure 110
2030
0000
0100
0000
0000
0000
3200
0000
0010
0000
0000
0000
,  // measure 111
0310
0000
0001
0010
0000
0001
0100
0000
0010
0100
0000
0010
,  // measure 112
2000
0000
0100
0000
0000
3100
1000
0000
0100
0010
0100
1000
,  // measure 113
1001
0000
0001
0100
0000
0100
0010
0000
0010
1000
0000
1000
,  // measure 114
0100
0000
0100
0010
0000
0010
1000
0000
1000
0010
0000
0010
,  // measure 115
0100
0000
0100
1000
0000
1000
0010
0000
0010
0001
0000
0001
,  // measure 116
0100
0000
0100
1000
0000
1000
0010
0000
0010
1000
0100
1000
,  // measure 117
0010
0000
0010
0100
0000
0100
0010
0000
0010
1000
0000
1000
,  // measure 118
0001
0000
0001
0100
0000
0100
0010
0000
0010
0001
0000
0001
,  // measure 119
0010
0000
0010
1000
0000
1000
0001
0000
0001
0010
0000
0010
,  // measure 120
0200
0000
0000
0000
0010
0000
0000
0000
0000
0300
0010
0000
0001
0000
0100
0000
0010
0000
1000
0000
0100
0000
1000
0000
,  // measure 121
2100
0000
0000
0000
,  // measure 122
0000
3000
1020
0030
,  // measure 123
0201
0000
0000
0300
,  // measure 124
0012
0000
0000
0003
,  // measure 125
2100
0000
0000
0000
0000
0000
0000
3000
,  // measure 126
1020
0000
0000
0000
0000
0030
0110
0000
,  // measure 127
2002
0000
0000
0000
0000
0000
0000
3003
,  // measure 128
1000
0100
1000
0100
1000
0100
1000
0100
0010
0001
0010
0001
0010
0001
0010
0001
,  // measure 129
1000
0100
1000
0001
,  // measure 130
0010
1000
0001
0100
,  // measure 131
1000
0001
0100
0010
,  // measure 132
1000
0000
0000
0000
0100
0000
0000
0000
0010
0000
0000
0000
0100
0000
0000
0010
,  // measure 133
0100
0010
0100
1000
,  // measure 134
0010
0100
0010
1000
,  // measure 135
0001
0010
0100
1000
,  // measure 136
0001
0000
0000
0000
0100
0000
0000
0000
0010
0000
1000
0010
1000
0000
0100
0010
,  // measure 137
0100
0010
0001
1000
0010
0100
0001
0010
,  // measure 138
0100
1000
0100
0010
0100
0010
0001
1000
,  // measure 139
0010
0100
0010
1000
0001
0010
0100
0010
,  // measure 140
0001
0000
1000
0000
0010
0000
0100
0000
0010
0000
1000
0000
0001
0000
0000
1000
,  // measure 141
0001
1000
0010
0100
0010
1000
0100
0010
,  // measure 142
0001
0010
0100
1000
0001
0100
0010
0100
,  // measure 143
0001
1000
0010
0100
0010
1000
0001
0010
,  // measure 144
0001
0000
1000
0000
0001
0000
1000
0000
0001
0000
1000
0010
0100
0000
0010
0100
,  // measure 145
0001
0100
0010
1000
0100
0010
0100
1000
,  // measure 146
0020
1000
1000
1030
,  // measure 147
1000
0010
0100
0001
1000
0100
0010
0001
,  // measure 148
2000
0000
0000
0000
0010
0000
0000
0000
0010
0000
0000
0000
0010
0000
3000
1000
,  // measure 149
0010
0100
0001
0010
0100
0010
0001
0100
,  // measure 150
0002
0010
0010
0013
,  // measure 151
0001
0100
0010
0100
0001
1000
0010
0100
,  // measure 152
0020
0000
0000
0000
0130
0000
0000
0000
0010
0000
0100
0010
0100
0000
0001
1000
,  // measure 153
0010
0000
0000
0100
0000
0010
1000
0000
0000
0100
0000
0010
,  // measure 154
1001
0000
0000
0100
0000
0010
4000
0000
0000
0000
3000
0000
,  // measure 155
0010
0000
0000
0101
0000
1000
1001
0000
0000
0220
0000
0000
,  // measure 156
0330
0000
1010
0000
0010
0100
0000
0100
,  // measure 157
0101
0110
1010
0110
,  // measure 158
0002
0000
0200
0000
0303
0000
1010
0000
1010
0000
0000
0000
,  // measure 159
0010
0000
1000
0100
0000
0001
0100
0000
1000
0010
0000
0100
,  // measure 160
0010
0000
0010
1000
0010
0000
0100
0000
0001
0000
0010
0100
0010
0001
1000
0010
,  // measure 161
1000
0000
0001
0000
0100
0000
0010
0000
1000
0000
0100
0000
1000
0000
0100
0010
,  // measure 162
0100
0000
0010
0000
0001
0000
1000
0000
0001
0000
0010
0100
0010
0000
1000
0010
,  // measure 163
1000
0010
0100
1000
0100
0010
1000
0010
,  // measure 164
0001
0000
0100
0000
0010
0000
0100
0000
0001
0000
1000
0010
1000
0000
0010
0100
,  // measure 165
0010
0100
0001
1000
0010
0100
0010
0100
,  // measure 166
0001
0000
0010
0000
0100
0000
0010
0000
0001
0000
1000
0000
0010
0000
1000
0001
,  // measure 167
0010
0100
1000
0010
0100
0000
1010
0101
,  // measure 168
1001
0000
0000
1000
0100
0000
0000
0100
0010
0000
0001
0000
0100
0001
1000
0010
,  // measure 169
1000
0000
0010
0000
0001
0000
0010
0000
1000
0000
0100
0000
0010
0000
0100
0010
,  // measure 170
0001
0000
0010
0000
0100
0000
1000
0000
0010
0000
0100
0010
0100
0000
0010
0100
,  // measure 171
0001
0010
0100
0010
1000
0010
0001
0100
,  // measure 172
0001
0000
0001
0010
0100
0000
0010
0000
0001
0000
0001
0010
0100
0000
0010
0001
,  // measure 173
1000
0010
0100
0010
0001
0010
1000
0001
,  // measure 174
0010
0000
1000
0000
0010
1000
0010
0000
0100
0000
0010
0000
0001
0000
0100
0001
,  // measure 175
1000
0010
0100
0010
1000
0000
0011
1001
,  // measure 176
1100
0000
0000
1000
0100
0000
0000
0100
0010
0000
0001
0000
0100
0010
1000
0000
,  // measure 177
1002
0000
0100
1003
,  // measure 178
0010
0100
0000
0010
1000
0001
0000
0001
,  // measure 179
2001
0000
0000
0000
0010
3000
1000
0000
,  // measure 180
0001
0000
0100
0000
0000
0000
0100
0000
0001
1000
0010
0100
0010
1000
0001
0010
,  // measure 181
0100
0000
0100
1000
0000
1000
0010
0000
0010
0100
0000
0100
,  // measure 182
0101
0000
0001
0010
0000
0100
1000
0000
0100
0010
0001
0010
,  // measure 183
0011
0000
0001
1000
0000
1000
1010
0000
0010
0110
0000
0001
,  // measure 184
2001
3020
0200
0330
;
