#TITLE:Phoning to Mercury;
#SUBTITLE:;
#ARTIST:Canblaster;
#TITLETRANSLIT:;
#SUBTITLETRANSLIT:;
#ARTISTTRANSLIT:;
#GENRE:;
#CREDIT:;
#BANNER:;
#BACKGROUND:;
#LYRICSPATH:;
#CDTITLE:;
#MUSIC:Phoning to Mercury.mp3;
#OFFSET:-0.873071;
#SAMPLESTART:21.337994;
#SAMPLELENGTH:12.000000;
#SELECTABLE:YES;
#DISPLAYBPM:132.000000;
#BPMS:0.000000=132.000000
,127.500000=528.000000
,128.000000=132.000000
,224.000000=1056.000000
,224.500000=132.000000
,227.500000=1056.000000
,228.500000=132.000000
,231.500000=1056.000000
,232.500000=132.000000
,234.000000=1056.000000
,234.500000=132.000000
,236.000000=528.000000
,240.000000=132.000000
,243.250000=528.000000
,243.750000=132.000000
,246.750000=528.000000
,248.000000=132.000000
,251.250000=528.000000
,252.000000=132.000000
,255.125000=528.000000
,255.500000=264.000000
,255.750000=528.000000
,256.000000=132.000000
,256.250000=264.000000
,256.375000=528.000000
,256.500000=264.000000
,257.000000=132.000000
,260.250000=528.000000
,261.000000=132.000000
,264.000000=792.000000
,265.500000=132.000000
,268.750000=1056.000000
,269.750000=528.000000
,270.000000=132.000000
,277.250000=528.000000
,278.000000=132.000000
,281.000000=528.000000
,282.000000=132.000000
,285.250000=528.000000
,286.000000=132.000000
,288.000000=528.000000
,290.000000=132.000000
,293.250000=528.000000
,294.000000=132.000000
,297.000000=264.000000
,299.000000=132.000000
,302.250000=528.000000
,303.000000=132.000000
,307.000000=66.000000
,339.000000=132.000000
,595.000000=66.000000
,606.750000=132.000000
;
#STOPS:127.500000=0.170457,
224.000000=0.198865,
227.500000=0.198858,
228.000000=0.198858,
231.500000=0.198858,
232.000000=0.198858,
234.000000=0.198858,
236.000000=0.085226,
236.250000=0.085226,
236.500000=0.085226,
236.750000=0.085226,
237.000000=0.085226,
237.250000=0.085226,
237.500000=0.085226,
237.750000=0.085226,
238.000000=0.085226,
238.250000=0.085226,
238.500000=0.085226,
238.750000=0.085226,
239.000000=0.085226,
239.250000=0.085226,
239.500000=0.085226,
239.750000=0.085226,
243.250000=0.170454,
246.750000=0.170454,
247.250000=0.170454,
247.750000=0.085226,
251.250000=0.255682,
260.250000=0.255682,
264.000000=0.113637,
264.500000=0.113630,
265.000000=0.113630,
268.750000=0.255682,
277.250000=0.255682,
281.000000=0.056814,
281.166656=0.056821,
281.333344=0.056821,
281.500000=0.042615,
281.625000=0.042608,
281.750000=0.042623,
281.875000=0.042623,
285.250000=0.255682,
288.000000=0.340917,
289.000000=0.340917,
293.250000=0.255682,
302.250000=0.255682
;
#BGCHANGES:;
#KEYSOUNDS:;
#ATTACKS:;

//---------------dance-single - ----------------
#NOTES:
     dance-single:
     :
     Challenge:
     14:
     1.187665,1.665381,0.131748,0.736439,2.268435,2461.000000,2420.000000,39.000000,218.000000,376.000000,2.000000,1.187665,1.665381,0.131748,0.736439,2.268435,2461.000000,2420.000000,39.000000,218.000000,376.000000,2.000000:
// measure 0
0000
0000
0000
0000
,  // measure 1
0000
0000
0000
0000
,  // measure 2
0000
0000
0000
0000
,  // measure 3
0000
0000
0000
0000
,  // measure 4
1000
0000
0001
0010
0001
0000
0100
0000
0010
0000
1000
0010
0100
0000
0001
0000
,  // measure 5
0010
0000
0100
1000
0010
0000
0100
0000
0010
0000
0100
0001
0010
0000
0001
0000
,  // measure 6
1000
0000
0001
0010
1000
0000
0010
0000
0001
0000
1000
0010
0001
0000
0010
0000
,  // measure 7
0100
0000
1000
0100
0001
0000
0010
0000
0100
0000
0001
0100
0010
0000
0001
0000
,  // measure 8
1MM1
0000
0000
0000
0000
0000
2000
0000
0000
0010
0000
0000
0M0M
0000
0000
3010
0000
0000
0100
0000
0001
0000
0100
0000
0001
0000
0000
0000
0000
0000
0002
0000
0000
0010
0000
0000
MM00
0000
0000
0013
0000
0000
0100
0000
0010
0000
0100
0000
,  // measure 9
0010
0000
0000
0000
0000
0000
0000
0000
0000
0000
0000
0000
0000
0000
0000
0000
0000
0000
0000
0000
0000
0000
0000
0000
0020
0000
0000
0000
0000
0000
0000
0000
0000
0000
0000
0000
0001
0000
0000
0000
0000
0000
0000
0000
0000
0000
0000
0000
MM00
0000
0000
0000
0000
0000
0000
0000
0000
0000
0000
0000
0031
0000
0000
0000
0000
0000
0000
0000
0000
0000
0000
0000
1000
0000
0000
0000
0000
0000
0000
0000
0100
0000
0000
0000
0000
0000
0000
0000
1000
0000
0000
0000
0000
0000
0000
0000
0100
0000
0000
0000
0000
0000
0000
0000
0000
0000
0000
0000
0000
0000
0000
0000
0000
0000
0000
0000
0000
0000
0000
0000
1000
0000
0000
0000
0000
0000
0001
0000
0000
0000
0000
0000
1000
0000
0000
0000
0000
0000
0001
0000
0000
0000
0000
0000
1000
0000
0000
0000
0000
0000
0000
0000
0000
0000
0000
0000
0000
0000
0000
0000
0000
0000
0000
0000
0000
0000
0000
0000
0001
0000
0000
0000
0000
0000
0010
0000
0000
0000
0000
0000
0001
0000
0000
0000
0000
0000
0010
0000
0000
0000
0000
0000
,  // measure 10
0001
0000
0000
0000
0000
0000
2000
0000
0000
0010
0000
0000
0M0M
0000
0000
3010
0000
0000
0100
0000
0001
0000
0100
0000
0010
0000
0000
0000
0000
0000
0020
0000
0000
1000
0000
0000
0M0M
0000
0000
1030
0000
0000
0100
0000
0010
0000
0001
0000
,  // measure 11
0100
0000
0000
0000
0000
0000
0000
0000
0000
0000
0000
0000
0000
0000
0000
0000
0000
0000
0000
0000
0000
0000
0000
0000
0200
0000
0000
0000
0000
0000
0000
0000
0000
0000
0000
0000
0001
0000
0000
0000
0000
0000
0000
0000
0000
0000
0000
0000
M0M0
0000
0000
0000
0000
0000
0000
0000
0000
0000
0000
0000
0301
0000
0000
0000
0000
0000
0000
0000
0000
0000
0000
0000
0010
0000
0000
0000
0000
0000
0000
0000
0100
0000
0000
0000
0000
0000
0000
0000
1000
0000
0000
0000
0000
0000
0000
0000
0001
0000
0000
0000
0000
0000
0000
0000
0000
0000
0000
0000
0000
0000
0000
0000
0000
0000
0000
0000
0000
0000
0000
0000
1000
0000
0000
0000
0000
0000
0010
0000
0000
0000
0000
0000
1000
0000
0000
0000
0000
0000
0010
0000
0000
0000
0000
0000
1000
0000
0000
0000
0000
0000
0000
0000
0000
0000
0000
0000
0000
0000
0000
0000
0000
0000
0000
0000
0000
0000
0000
0000
0001
0000
0000
0000
0000
0000
0100
0000
0000
0000
0000
0000
0001
0000
0000
0000
0000
0000
0100
0000
0000
0000
0000
0000
,  // measure 12
0001
0000
0000
0000
0000
0000
0002
0000
0000
0010
0000
0000
MM00
0000
0000
0010
0003
0000
0100
0000
1000
0000
0001
0000
1000
0000
0000
0000
0000
0000
2000
0000
0000
0100
0000
0000
00MM
0000
0000
3100
0000
0000
0010
0000
0001
0000
1000
0000
,  // measure 13
0010
0000
0000
0000
0000
0000
0000
0000
0000
0000
0000
0000
0000
0000
0000
0000
0000
0000
0000
0000
0000
0000
0000
0000
0020
0000
0000
0000
0000
0000
0000
0000
0000
0000
0000
0000
0100
0000
0000
0000
0000
0000
0000
0000
0000
0000
0000
0000
M00M
0000
0000
0000
0000
0000
0000
0000
0000
0000
0000
0000
0130
0000
0000
0000
0000
0000
0000
0000
0000
0000
0000
0000
0001
0000
0000
0000
0000
0000
0000
0000
0010
0000
0000
0000
0000
0000
0000
0000
0001
0000
0000
0000
0000
0000
0000
0000
1000
0000
0000
0000
0000
0000
0000
0000
0000
0000
0000
0000
0000
0000
0000
0000
0000
0000
0000
0000
0000
0000
0000
0000
0001
0000
0000
0000
0000
0000
0010
0000
0000
0000
0000
0000
0001
0000
0000
0000
0000
0000
0010
0000
0000
0000
0000
0000
0001
0000
0000
0000
0000
0000
0000
0000
0000
0000
0000
0000
0000
0000
0000
0000
0000
0000
0000
0000
0000
0000
0000
0000
1000
0000
0000
0000
0000
0000
0010
0000
0000
0000
0000
0000
1000
0000
0000
0000
0000
0000
0010
0000
0000
0000
0000
0000
,  // measure 14
1000
0000
0000
0000
0000
0000
0001
0000
0000
0010
0000
0000
0000
0000
0000
0100
0000
0000
1000
0000
0100
0000
1000
0000
0010
0000
0000
0000
0000
0000
0100
0000
0000
0010
0000
0000
0000
0000
0000
0100
0000
0000
0001
0000
0010
0000
0001
0000
,  // measure 15
1000
0100
1000
0100
1000
0100
0010
0001
0010
0001
0010
0001
1000
0010
1000
0010
1000
0010
0100
0001
0100
0001
0100
0001
,  // measure 16
20M0
0000
3100
1000
0010
0000
0100
0000
MMM2
0000
0013
0100
1000
0000
0010
0000
,  // measure 17
M2MM
0000
0310
1000
0001
0000
0010
0000
M2MM
0000
0310
0001
0100
0000
0010
0000
,  // measure 18
2MMM
0000
3001
0010
1000
0000
0010
0000
MMM2
0000
0103
0010
0001
0000
0010
0000
,  // measure 19
M2MM
0000
0310
0001
0010
0000
1000
0000
M2MM
0000
0310
1000
0010
0000
0001
0000
,  // measure 20
M2MM
0000
0310
1000
0001
0000
0010
0000
M2MM
0000
0310
0001
1000
0000
0010
0000
,  // measure 21
M2MM
0000
0310
1000
0100
0000
0010
0000
M2MM
0000
0310
0001
0100
0000
0010
0000
,  // measure 22
100M
0010
1000
0010
1000
0010
1000
0010
1000
0200
0000
0000
M010
0000
0000
0310
0001
0100
0001
0010
0100
2000
0000
0000
,  // measure 23
01M0
0000
0000
0000
0000
0000
3100
0000
1000
0000
0001
0000
1000
0000
0010
0000
1000
0000
0002
0000
0000
0000
0000
0000
M010
0000
0000
0000
0000
0000
0013
0000
0100
0000
0010
0000
0001
0000
1000
0000
0001
0000
0020
0000
0000
0030
0000
0000
,  // measure 24
M11M
0000
0010
0001
0000
0001
0100
0000
M11M
0000
0010
1000
0000
1000
0100
0000
,  // measure 25
11MM
0000
1000
0010
0000
0010
0200
0000
M01M
0000
0310
0000
0020
0001
0000
0031
,  // measure 26
MM10
0000
2000
0100
0000
3002
0010
0000
MM13
0000
020M
0010
0000
2300
0100
0000
,  // measure 27
0MM1
3000
0002
M010
0000
2003
0010
0000
0MM1
0000
3001
0000
M002
0100
0000
0103
,  // measure 28
10M0
0000
1000
0100
0000
0001
0010
0000
1100
0000
1000
0100
0000
0001
0100
0000
,  // measure 29
1001
0000
0010
1000
0000
0100
0010
0000
0101
0000
1000
0010
0000
0001
0010
0000
,  // measure 30
1000
0010
1000
0001
0010
0001
1000
0010
1000
0001
0010
0001
1000
0100
1000
0100
,  // measure 31
0001
0100
1000
0100
0010
0001
0100
0010
0001
0010
1000
0001
0010
0100
2000
0000
,  // measure 32
30M1
0100
0001
0100
0001
0100
0001
0100
0001
0020
0000
0000
0M01
0000
0000
0031
0010
0100
1000
0100
0010
0002
0000
0000
,  // measure 33
1M03
0010
1000
0010
1000
0010
1000
0001
1000
0020
0000
0000
M100
0000
0000
0130
0001
0010
0001
1000
0001
0020
0000
0000
,  // measure 34
0M31
1000
0001
1000
0010
1000
0001
1000
0001
0020
0000
0000
010M
0000
0000
0130
1000
0100
0010
0100
1000
0020
0000
0000
,  // measure 35
M100
0000
0000
0130
0001
0100
0010
1000
0001
0020
0000
0000
010M
0000
0000
0130
1000
0100
1000
0001
1000
0200
0000
0000
,  // measure 36
M310
0001
0010
0001
0010
0001
1000
0010
0100
0002
0000
0000
1M00
0000
0000
1003
0100
1000
0100
0010
0001
2000
0000
0000
,  // measure 37
001M
0000
0000
3010
0100
0001
0100
0010
1000
0200
0000
0000
M010
0000
0000
0310
0001
1000
0010
1000
0001
0200
0000
0000
,  // measure 38
031M
1000
0010
1000
0001
0010
0001
1000
0100
0020
0000
0000
0M01
0000
0000
0031
0010
0100
1000
0010
1000
0002
0000
0000
,  // measure 39
M100
0000
0000
0103
0010
1000
0001
1000
0100
0020
0000
0000
0M01
0000
0000
0031
0010
0001
0100
0010
1000
0100
0000
0000
,  // measure 40
11MM
0000
0000
0000
0000
0000
1000
0000
0000
0100
0000
0000
0000
0000
0000
1000
0000
0000
0010
0000
0000
0000
0000
0000
1M1M
0000
0000
0000
0000
0000
1000
0000
0010
0000
1000
0000
0010
0000
1000
0000
0010
0000
1000
0000
0010
0000
1000
0000
,  // measure 41
0010
0100
0010
0100
0010
0100
0010
0100
0010
0100
0010
0100
0001
1000
0001
1000
0001
1000
0001
1000
0001
0010
0001
0010
,  // measure 42
0001
1000
0001
1000
0001
1000
0001
0010
0001
1000
0010
1000
0010
0100
0010
0100
0001
1000
0001
0010
0001
1000
0100
1000
,  // measure 43
0001
0100
0010
1000
0001
0010
0100
1000
0100
0010
0001
1000
0010
0100
0010
1000
0001
0010
0001
0100
0001
1000
0001
0010
,  // measure 44
0001
1000
0010
0100
0010
1000
0001
0010
0001
1000
0010
0100
0001
1000
0001
0100
0001
1000
0001
1000
0100
1000
0100
1000
,  // measure 45
0001
0100
0001
0100
0001
1000
0010
1000
0010
1000
0001
0010
0001
1000
0010
1000
0010
1000
0001
0010
0001
0010
0100
0010
,  // measure 46
0100
1000
0001
0010
0001
0010
0100
1000
0001
0100
0001
0100
0010
1000
0001
0010
0100
1000
0010
0100
0001
0010
0100
1000
,  // measure 47
0010
0100
0001
1000
0100
1000
0001
0100
0001
1000
0100
0010
0100
1000
0100
1000
0100
0010
0001
1000
0010
0100
0001
0010
,  // measure 48
0001
0000
0000
0010
0000
0000
0100
0000
0000
2000
0000
0000
0M00
0000
0000
3010
0000
0000
1000
0000
0100
0000
0010
0000
0001
0000
0000
0100
0000
0000
0010
0000
0000
2000
0000
0000
00M0
0000
0000
3100
0000
0000
1000
0000
0010
0000
0100
0000
,  // measure 49
0001
0000
0000
0000
0000
0000
0000
0000
0000
0000
0000
0000
1000
0000
0000
0000
0000
0000
0000
0000
0000
0000
0000
0000
0010
0000
0000
0000
0000
0000
0000
0000
0000
0000
0000
0000
0200
0000
0000
0000
0000
0000
0000
0000
0000
0000
0000
0000
M000
0000
0000
0000
0000
0000
0000
0000
0000
0000
0000
0000
0310
0000
0000
0000
0000
0000
0000
0000
0000
0000
0000
0000
1000
0000
0000
0000
0000
0000
0000
0000
0001
0000
0000
0000
0000
0000
0000
0000
0100
0000
0000
0000
0000
0000
0000
0000
0020
0000
0000
0000
0000
0000
0000
0000
0000
0000
0000
0000
0000
0000
0000
0000
0000
0000
0000
0000
0000
0000
0000
0000
1030
0000
0000
0000
0000
0000
0001
0000
0000
0000
0000
0000
1000
0000
0000
0000
0000
0000
0001
0000
0000
0000
0000
0000
1000
0000
0000
0000
0000
0000
0000
0000
0000
0000
0000
0000
0000
0000
0000
0000
0000
0000
0000
0000
0000
0000
0000
0000
0010
0000
0000
0000
0000
0000
0100
0000
0000
0000
0000
0000
0010
0000
0000
0000
0000
0000
0100
0000
0000
0000
0000
0000
,  // measure 50
0010
0000
0000
0100
0000
0000
0002
0000
0000
0010
0000
0000
0M00
0000
0000
0013
0000
0000
0100
0000
1000
0000
0100
0000
0010
0000
0000
0001
0000
0000
2000
0000
0000
0100
0000
0000
000M
0000
0000
3100
0000
0000
0010
0000
0001
0000
0010
0000
,  // measure 51
0100
0000
0000
0000
0000
0000
0000
0000
0000
0000
0000
0000
1000
0000
0000
0000
0000
0000
0000
0000
0000
0000
0000
0000
0020
0000
0000
0000
0000
0000
0000
0000
0000
0000
0000
0000
0100
0000
0000
0000
0000
0000
0000
0000
0000
0000
0000
0000
M000
0000
0000
0000
0000
0000
0000
0000
0000
0000
0000
0000
0130
0000
0000
0000
0000
0000
0000
0000
0000
0000
0000
0000
0001
0000
0000
0000
0000
0000
0000
0000
0010
0000
0000
0000
0000
0000
0000
0000
0001
0000
0000
0000
0000
0000
0000
0000
0200
0000
0000
0000
0000
0000
0000
0000
0000
0000
0000
0000
0000
0000
0000
0000
0000
0000
0000
0000
0000
0000
0000
0000
0310
0000
0000
0000
0000
0000
1000
0000
0000
0000
0000
0000
0010
0000
0000
0000
0000
0000
1000
0000
0000
0000
0000
0000
0010
0000
0000
0000
0000
0000
0000
0000
0000
0000
0000
0000
0000
0000
0000
0000
0000
0000
0000
0000
0000
0000
0000
0000
0100
0000
0000
0000
0000
0000
0001
0000
0000
0000
0000
0000
0100
0000
0000
0000
0000
0000
0001
0000
0000
0000
0000
0000
,  // measure 52
0100
0000
0000
0010
0000
0000
0100
0000
0000
0002
0000
0000
0000
0000
0000
0013
0000
0000
0100
0000
1000
0000
0001
0000
0010
0000
0000
0100
0000
0000
1000
0000
0000
0002
0000
0000
0000
0000
0000
0103
0000
0000
0010
0000
1000
0000
0001
0000
,  // measure 53
0100
0000
0000
0000
0000
0000
0000
0000
0000
0000
0000
0000
0010
0000
0000
0000
0000
0000
0000
0000
0000
0000
0000
0000
1000
0000
0000
0000
0000
0000
0000
0000
0000
0000
0000
0000
0200
0000
0000
0000
0000
0000
0000
0000
0000
0000
0000
0000
0000
0000
0000
0000
0000
0000
0000
0000
0000
0000
0000
0000
0310
0000
0000
0000
0000
0000
0000
0000
0000
0000
0000
0000
0001
0000
0000
0000
0000
0000
0000
0000
0010
0000
0000
0000
0000
0000
0000
0000
0100
0000
0000
0000
0000
0000
0000
0000
2000
0000
0000
0000
0000
0000
0000
0000
0000
0000
0000
0000
0000
0000
0000
0000
0000
0000
0000
0000
0000
0000
0000
0000
3001
0000
0000
0000
0000
0000
0010
0000
0000
0000
0000
0000
0001
0000
0000
0000
0000
0000
0010
0000
0000
0000
0000
0000
0001
0000
0000
0000
0000
0000
0000
0000
0000
0000
0000
0000
0000
0000
0000
0000
0000
0000
0000
0000
0000
0000
0000
0000
1000
0000
0000
0000
0000
0000
0100
0000
0000
0000
0000
0000
1000
0000
0000
0000
0000
0000
0100
0000
0000
0000
0000
0000
,  // measure 54
1000
0000
0000
0010
0000
0000
0200
0000
0000
0001
0000
0000
00M0
0000
0000
0301
0000
0000
0010
0000
0100
0000
1000
0000
0010
0000
0000
0100
0000
0000
0002
0000
0000
0010
0000
0000
0M00
0000
0000
0013
0000
0000
0001
0000
1000
0000
0001
0000
,  // measure 55
1000
0010
1000
0010
1000
0010
0100
0001
0100
0001
0100
0001
1000
0100
0010
0001
0010
0100
1000
0001
0100
0010
0100
0001
,  // measure 56
1000
0000
0100
0000
0010
0001
0000
0001
0100
0000
0010
0000
1000
0000
11MM
0000
,  // measure 57
M11M
0000
0010
0000
0001
0100
0000
0100
0010
0000
1000
0000
0001
0000
M11M
0000
,  // measure 58
1MM1
0000
0100
0000
1000
0010
0000
0100
M1M1
0000
1000
0000
0001
0010
0000
0100
,  // measure 59
1000
0100
M0M1
0100
100M
0010
MM01
0010
100M
0100
M0M1
0100
100M
0010
MM01
0010
,  // measure 60
1000
0100
0020
0001
0M00
0031
0200
0000
M320
0000
2M30
0000
3010
2002
0000
3003
,  // measure 61
0001
0010
0200
1000
00M0
1300
0020
0000
0230
0000
0301
M011
0000
M11M
0000
11MM
,  // measure 62
1000
0100
002M
0100
0000
0130
0002
0000
M203
0000
230M
0000
3M01
2020
0000
3030
,  // measure 63
1000
0000
0010
0000
0100
0000
0001
0000
0000
0000
0010
0000
0001
0000
0000
0000
0011
0000
0000
0000
1000
0000
0000
0000
0M4M
4000
0000
0000
0000
0000
0000
0000
,  // measure 64
0000
0000
0000
3030
1000
0010
0002
0010
0000
0013
0200
0000
0320
0000
2030
0000
,  // measure 65
3100
0022
0000
0033
0001
0010
2000
0010
000M
3010
0002
0000
M203
0000
0320
0030
,  // measure 66
101M
0000
0000
0000
0000
0000
0110
0000
0000
0000
0000
0000
M101
0000
0000
0000
0000
0000
0001
0000
0000
1000
0000
0000
0010
0000
0000
1000
0000
0000
0001
0000
0010
0000
0001
0000
M200
0000
0000
0000
0000
0000
2300
0000
0000
0000
0000
0000
,  // measure 67
3200
0000
0301
2020
0000
0000
3030
0000
1000
010M
M010
0M01
0010
1M0M
0010
M001
,  // measure 68
01M0
100M
01M0
0001
1M00
0010
M001
0010
1M00
001M
M100
00M1
0M00
100M
0100
0000
,  // measure 69
1M00
0000
M001
0000
011M
2020
0000
3030
0010
1000
0100
0010
0000
0010
0001
0000
,  // measure 70
1000
0000
0000
0000
0000
0000
0000
0000
0000
0000
0000
0000
0000
0000
0000
0000
0000
0000
0000
0000
0000
0000
0000
0000
0001
0000
0000
0000
0000
0000
0000
0000
0000
0000
0000
0000
0000
0000
0000
0000
0000
0000
0000
0000
0000
0000
0000
0000
1000
0000
0000
0000
0000
0000
0000
0000
0010
0000
0000
0000
0000
0000
0000
0000
0100
0000
0000
0000
0000
0000
0000
0000
0001
0000
0000
0000
0000
0000
1000
0000
0000
0000
0000
0000
0001
0000
0000
0000
0000
0000
1000
0000
0000
0000
0000
0000
0M01
0000
0000
0000
0000
0000
0000
0000
0000
0000
0000
0000
1000
0000
0000
0000
0000
0000
0000
0000
0000
0000
0000
0000
0010
0000
0000
0000
0000
0000
0000
0000
0000
0000
0000
0000
1000
0000
0000
0000
0000
0000
0000
0000
0000
0000
0000
0000
0000
0000
0000
0000
0000
0000
0000
0000
0000
0000
0000
0000
0001
0000
0000
0000
0000
0000
0000
0000
0000
0000
0000
0000
0010
0000
0000
0000
0000
0000
0000
0000
0000
0000
0000
0000
0000
0000
0000
0000
0000
0000
0000
0000
0000
0000
0000
0000
,  // measure 71
0100
0000
1000
0000
0110
0202
0000
0303
0001
0100
0010
1000
0000
1000
0100
0000
,  // measure 72
11M1
0000
0000
0000
0000
0000
0000
0000
0000
0000
0000
0000
1M11
0000
0000
0000
0000
0000
0000
0000
0000
0000
0000
0000
MM10
0000
0000
0001
0000
0000
0100
0000
0000
0010
0000
0000
1000
0000
0100
0000
1000
0000
0001
0000
0000
1000
0000
0000
,  // measure 73
0001
0000
0000
0000
0000
0000
1000
0000
0000
0000
0000
0000
0011
0000
0000
2002
0000
0000
0000
0000
0000
3003
0000
0000
1000
0000
0000
0100
0000
0000
1000
0000
0000
0010
0000
0000
0100
0000
0001
0000
0010
0000
0100
0000
0000
1000
0000
0000
,  // measure 74
0001
0000
0000
0000
1000
0000
0000
0000
MM1M
0000
0000
0000
0000
0010
0000
0000
0100
0000
0000
0000
0000
0100
0000
0000
M0M1
0000
0000
0000
1000
0000
0010
0000
,  // measure 75
1000
0000
0100
0000
1000
0000
0010
0000
0000
0100
0000
0000
0001
0000
0000
0000
0000
0000
1000
0000
0000
0000
0000
0000
0101
0000
0000
0220
0000
0000
0000
0000
0000
0330
0000
0000
0100
0000
0000
0001
0000
0000
0010
0000
0000
0000
0001
0000
,  // measure 76
0010
0000
0000
0000
0000
0000
0000
0000
0100
0000
0000
0000
0000
0000
0000
0000
0010
0000
0000
0000
0000
0000
0000
0000
0100
0000
0000
0000
0000
0000
0000
0000
0000
0000
0000
0000
0000
0000
0000
0000
0000
0000
0000
0000
0000
0000
0000
0000
1000
0000
0000
0000
0000
0000
0000
0000
0001
0000
0000
0000
0000
0000
0000
0000
0010
0000
0000
0000
0000
0000
0000
0000
0001
0000
0000
0000
0000
0000
0000
0000
1000
0000
0000
0000
0000
0000
0000
0000
0010
0000
0000
0000
0000
0000
0000
0000
1000
0000
0000
0000
0000
0000
0000
0000
0001
0000
0000
0000
0000
0000
0000
0000
0100
0000
0000
0000
0000
0000
0000
0000
0010
0000
0000
0000
0000
0000
0000
0000
1000
0000
0000
0000
0000
0000
0000
0000
0100
0000
0000
0000
0000
0000
0000
0000
1000
0000
0000
0000
0000
0000
0100
0000
0000
0000
0000
0000
10M0
0000
0000
0000
0000
0000
0100
0000
0000
0000
0000
0000
1000
0000
0000
0000
0000
0000
0010
0000
0000
0000
0000
0000
1M00
0000
0000
0000
0000
0000
0010
0000
0000
0000
0000
0000
,  // measure 77
0100
0001
01M0
0001
0010
0001
M010
0001
1000
0100
M010
0001
1000
0010
M100
0001
0010
0100
10M0
0001
0100
0010
1M00
0010
0100
0001
01M0
0001
0100
0010
010M
0010
,  // measure 78
1000
0010
1M00
0010
1000
0001
10M0
0001
1000
0100
001M
0100
0010
0001
1M00
0010
0100
0010
M100
0001
1000
0100
10M0
0001
1000
0010
1M00
0010
0100
0010
010M
0010
,  // measure 79
0001
0010
0M01
0010
0100
0010
M100
0010
1000
0100
100M
0010
0100
0010
0M01
0010
0100
0010
100M
0100
1000
0001
M010
0100
1000
0100
10M0
0100
0010
0100
001M
0100
,  // measure 80
0001
0100
00M1
0100
0010
0001
0M10
0001
1000
0010
100M
0100
0010
0100
001M
1000
0010
0100
M010
0001
1000
0010
M100
0001
1000
0100
00M1
0100
1000
0100
00M1
0100
,  // measure 81
1000
0010
0M01
0010
1000
0010
0M01
0010
1000
0100
M010
0100
0001
0100
001M
0100
1000
0010
M100
0010
0001
0010
010M
0010
1000
0001
0M10
1000
0010
0001
10M0
0001
,  // measure 82
0100
1000
01M0
0001
1000
0100
M010
0001
1000
0010
010M
0010
1000
0001
M010
0100
0010
0001
10M0
0100
0001
1000
00M1
0100
1000
0001
M100
0010
0100
0010
100M
0100
,  // measure 83
0010
0100
M010
0001
1000
0010
010M
0010
0001
0010
010M
1000
0100
0010
100M
0100
0010
0001
M010
0100
1000
0001
M100
0010
0100
0010
1M00
0001
0010
1000
0M10
0001
,  // measure 84
1000
0000
0000
0000
0000
0000
0010
0000
0000
0000
0000
0000
M001
0000
0000
0000
0000
0000
0010
0000
0000
0000
0000
0000
0100
0000
0000
0000
0000
0000
0001
0000
0000
0000
0000
0000
M010
0000
0000
0000
0000
0000
0100
0000
0000
0000
0000
0000
1000
0000
0000
0000
0000
0000
0001
0000
0000
0000
0000
0000
M100
0000
0000
0000
0000
0000
0010
0000
0000
0000
0000
0000
1000
0000
0000
0000
0000
0000
0100
0000
0000
0000
0000
0000
00M1
0000
0000
0000
0000
0000
0100
0000
0000
0000
0000
0000
1000
0000
0000
0000
0000
0000
0010
0000
0000
0000
0000
0000
M100
0000
0000
0000
0000
0000
0001
0000
0000
0000
0000
0000
0010
0000
0000
0000
0000
0000
0001
0000
0000
0000
0000
0000
1M00
0000
0000
0000
0000
0000
0001
0000
0000
0000
0000
0000
1000
0000
0000
0000
0000
0000
0000
0000
0001
0000
0000
0000
0000
0000
0000
0000
1000
0000
0000
0000
0000
0000
0000
0000
0010
0000
0000
0000
0000
0000
0000
0000
1000
0000
0000
0000
0000
0000
0000
0000
0001
0000
0000
0000
0000
0000
0000
0000
,  // measure 85
1000
0010
0100
0002
0000
0000
0M10
0000
0000
0013
0100
1000
0010
1000
0001
0020
0000
0000
0130
1000
0001
1000
0001
0100
,  // measure 86
0010
0100
0001
0020
0000
0000
010M
0000
0000
0130
1000
0001
0100
0001
1000
0020
0000
0000
M130
0010
0100
0001
0100
0001
,  // measure 87
1000
0100
0010
0002
0000
0000
MM10
0000
0000
0013
0100
1000
0010
0100
0001
0020
0000
0000
010M
0000
0000
0130
1000
0010
,  // measure 88
1000
0010
1000
0200
0000
0000
M010
0000
0000
0310
0001
0100
0001
0100
0001
0020
0000
0000
013M
1000
0100
1000
0001
1000
,  // measure 89
0001
1000
0010
0200
0000
0000
M010
0000
0000
0310
1000
0010
1000
0010
1000
0020
0000
0000
0130
0001
0100
0001
1000
0010
,  // measure 90
0100
0010
1000
0002
0000
0000
M010
0000
0000
0013
0100
0010
0100
0010
0100
2000
0000
0000
3010
0100
0001
1000
0010
0100
,  // measure 91
0001
1000
0001
0020
0000
0000
010M
0000
0000
0130
1000
0100
1000
0010
1000
0200
0000
0000
M010
0000
0000
0310
0001
1000
,  // measure 92
0001
0010
0001
0200
0000
0000
001M
0000
0000
0310
1000
0100
1000
0010
1000
0002
0000
0000
0103
0001
0100
0010
1000
0010
,  // measure 93
0100
0001
1000
0020
0000
0000
M100
0000
0000
0130
0001
0010
0100
1000
0001
0200
0000
0000
001M
0000
0000
0310
1000
0100
,  // measure 94
0010
0001
1000
0020
0000
0000
M100
0000
0000
0130
0001
0100
0001
1000
0100
0020
0000
0000
0031
0010
0100
1000
0100
0010
,  // measure 95
0001
1000
0010
0200
0000
0000
M010
0000
0000
0310
1000
0010
1000
0010
1000
0002
0000
0000
M010
0000
0000
0013
0001
0010
,  // measure 96
0001
0010
0001
2000
0000
0000
001M
0000
0000
3010
0100
0010
1000
0100
0010
0002
0000
0000
0103
0001
1000
0010
1000
0001
,  // measure 97
0010
0100
1000
0020
0000
0000
M100
0000
0000
0130
0001
0100
0010
1000
0001
0020
0000
0000
010M
0000
0000
0130
1000
0100
,  // measure 98
0010
0001
0010
0200
0000
0000
10M0
0000
0000
1300
0010
1000
0001
0010
0100
2000
0000
0000
3001
0100
0001
0010
0001
0100
,  // measure 99
0001
1000
0010
0200
0000
0000
001M
0000
0000
0310
1000
0100
0010
0001
0100
0020
0000
0000
010M
0000
0000
0130
0001
0010
,  // measure 100
0100
1000
0010
0200
0000
0000
M001
0000
0000
0301
1000
0010
1000
0001
1000
0100
0000
0000
1100
0000
0000
1000
0000
0000
,  // measure 101
0010
0100
0000
0001
0M20
0000
M230
0000
230M
0000
3M02
0000
M103
0000
0010
0000
,  // measure 102
1000
0000
0010
0000
0000
0000
0100
0000
0001
0000
0000
0000
1000
0100
1000
0100
1000
0000
0000
0000
0010
1000
0010
1000
0010
0000
0000
0000
0100
0000
0000
0000
,  // measure 103
0001
0010
0000
0100
20M0
0000
302M
0000
M032
0000
0023
0000
103M
0000
0100
0000
,  // measure 104
0010
0000
0100
0000
0000
0000
1000
0000
0010
0000
0000
0000
0100
0001
0100
0001
0100
0000
0000
0000
0010
0100
0010
0100
0010
0000
0000
0000
1000
0000
0010
0000
,  // measure 105
0000
0000
0000
1000
0000
0000
0010
0000
1000
0000
0010
0000
1000
0000
0000
0000
0000
0000
0001
0000
0000
0010
0000
0000
0000
0000
0000
0001
0000
0000
0010
0000
0001
0000
0010
0000
0001
0000
0000
0000
0000
0000
1000
0000
0000
0010
0000
0000
,  // measure 106
0000
0000
0000
0100
0000
0000
0001
0000
0100
0000
0010
0000
1000
0000
0000
0000
0000
0000
1000
0000
0000
0010
0000
0000
0000
0000
0000
1000
0000
0000
0100
0000
0010
0000
0001
0000
1000
0000
0000
0001
0000
0000
0100
0000
0000
0010
0000
0000
,  // measure 107
1000
0000
0000
0100
0000
0000
0010
0000
0000
0001
0000
0000
1000
0000
0000
0100
0000
0000
1000
0000
0000
0100
0000
0000
0010
0000
0000
0001
0000
0000
1000
0000
0000
0100
0000
0000
1000
0000
0100
0000
1000
0000
0100
0000
1000
0000
0100
0000
,  // measure 108
1000
0000
0010
0000
1000
0000
0010
0000
1000
0000
0010
0000
1000
0000
0001
0000
1000
0000
0001
0000
1000
0000
0001
0000
1000
0000
0010
0000
1000
0000
0010
0000
1000
0000
0010
0000
200M
0000
0000
0000
0000
0000
3100
0000
0000
1000
0000
0000
,  // measure 109
0M20
0000
0031
0010
1000
0100
0010
1000
0000
1000
0010
0001
20M0
0000
3010
0001
,  // measure 110
M020
0000
0031
0010
1000
0001
1000
0100
0000
0100
0001
0100
200M
0000
3100
0001
,  // measure 111
M200
0000
0301
0100
1000
0001
0100
2000
0000
3100
0001
1000
002M
0000
0130
0001
,  // measure 112
0M20
0000
1030
0010
0001
1000
0001
2002
0000
3003
1000
0001
2M01
0000
3100
0001
,  // measure 113
M200
0000
0310
0001
0100
1000
0100
0020
0000
0130
0001
0010
200M
0000
3010
0100
,  // measure 114
20M0
0000
3010
0001
0010
1000
0100
0020
0000
1030
0010
0001
20M0
0000
3010
1000
,  // measure 115
00M2
0000
0000
0000
0000
0000
1003
0000
0000
0100
0000
0000
1000
0000
0000
0010
0000
0000
0100
0000
0000
0001
0000
0000
1000
0000
0100
0000
0010
0000
0001
0000
1000
0000
0100
0000
0020
0000
0000
0000
0000
0000
0031
0000
0000
0010
0000
0000
,  // measure 116
0001
1000
0001
1000
0000
0000
0001
0010
0100
1000
0100
0010
0001
0100
0010
1000
0010
0100
0002
0000
0000
0013
0000
0000
,  // measure 117
00M2
1003
M002
0013
00M2
0103
0M20
0130
,  // measure 118
0M20
1030
M200
0310
00M2
0103
0M20
1030
,  // measure 119
M002
0013
20M0
3010
00M2
0103
2M00
3100
,  // measure 120
0M02
0000
0000
0013
0000
0000
02M0
0000
0000
1300
0000
0000
M002
0000
0000
1003
0000
0000
0001
0100
0001
0100
0001
0100
,  // measure 121
0010
1000
0010
1000
0010
1000
0001
0010
0001
0010
0001
0010
0100
1000
0100
1000
0100
1000
0001
0100
0010
1000
0010
0100
,  // measure 122
0010
1000
0100
0010
0100
1000
0001
0100
0001
1000
0100
0010
0100
0010
0001
1000
0010
0100
0010
1000
0100
0010
0001
0100
,  // measure 123
0010
0000
0000
0000
0000
0000
0000
0000
1000
0000
0000
0000
0000
0000
0000
0000
0001
0000
0000
0000
0000
0000
0000
0000
0010
0000
0000
0000
0000
0000
0000
0000
0100
0000
0000
0000
0000
0000
0000
0000
1000
0000
0000
0000
0000
0000
0000
0000
0010
0000
0000
0000
0000
0000
0000
0000
0100
0000
0000
0000
0000
0000
0000
0000
0001
0000
0000
0000
0000
0000
0000
0000
1000
0000
0000
0000
0000
0000
0000
0000
0100
0000
0000
0000
0000
0000
0000
0000
1000
0000
0000
0000
0000
0000
0000
0000
0010
0000
0000
0000
0000
0000
0000
0000
1000
0000
0000
0000
0000
0000
0000
0000
0100
0000
0000
0000
0000
0000
0000
0000
1000
0000
0000
0000
0000
0000
0000
0000
0001
0000
0000
0000
0000
0000
0000
0000
0010
0000
0000
0000
0000
0000
0000
0000
0001
0000
0000
0000
0000
0000
0000
0000
0000
0000
0000
0000
M000
0000
0000
0010
0M00
0000
0000
0000
0000
0000
0000
0000
0001
0000
0000
0000
0000
0000
0000
0000
0000
0000
0000
0000
0000
0000
0000
0010
0000
0000
0000
0000
0000
0000
0000
0000
,  // measure 124
0100
0000
0000
0000
0000
0000
0000
0000
0000
0000
0000
0000
0000
0000
0000
1000
000M
0000
0000
0000
0000
0000
0000
0000
0100
0000
0000
0000
0000
0000
0000
0000
0000
0000
0000
0000
0000
0000
0000
0010
0000
0000
0000
0000
0000
0000
0000
0000
0001
0000
0000
0000
0000
0000
0000
0000
0000
0000
0000
0000
0000
0000
0000
1000
0000
0000
0000
0000
0000
0000
0000
0000
001M
0000
0000
0000
0000
0000
0000
0000
0000
0000
0000
0000
0000
0000
0000
1000
0M00
0000
0000
0000
0000
0000
0000
0000
00M1
0000
0000
0000
0000
0000
0000
0000
0000
0000
0000
0000
0000
0000
0000
1000
0000
0000
0000
0000
0000
0000
0000
0000
001M
0000
0000
0000
0000
0000
0000
0000
0000
0000
0000
0000
0000
0000
0000
0100
0000
0000
0000
0000
0000
0000
0000
0000
M001
0000
0000
0000
0000
0000
0000
0000
0000
0000
0000
0000
0000
0000
0000
0010
0000
0000
0000
0000
0000
0000
0000
0000
010M
0000
0000
0000
0000
0000
0000
0000
0000
0000
0000
0000
0000
0000
0000
0010
0000
0000
0000
0000
0000
0000
0000
0000
,  // measure 125
M001
0000
0000
0000
0000
0100
0000
0000
001M
0000
0000
0000
0000
1000
0000
0000
0M10
0000
1000
0000
0010
0000
0000
0000
1000
0000
0000
0000
0000
0001
0000
0000
M100
0000
0010
0000
0100
0000
0000
0000
001M
0000
0000
0000
0000
1000
0000
0000
0001
0000
0100
0000
0001
0000
0000
0000
M010
0000
0000
0000
0000
0100
0000
0000
,  // measure 126
10M0
0000
0000
0000
0000
0000
0100
0000
0000
0000
0000
0000
1000
0000
0000
0000
0000
0000
0000
0000
0000
0000
0000
0000
010M
0000
0000
0000
0000
0000
0000
0000
0000
0000
0000
0000
0000
0000
0000
0010
0000
0000
0000
0000
0000
0000
0000
0000
M10M
0000
0000
0000
0000
0000
0010
0000
0000
0000
0000
0000
0100
0000
0000
0000
0000
0000
0000
0000
0000
0000
0000
0000
0010
0000
0000
0000
0000
0000
0000
0000
0000
0000
0000
0000
0000
0000
0000
0001
0000
0000
0000
0000
0000
0000
0000
0000
0M10
0000
0000
0000
0000
0000
0001
0000
0000
0000
0000
0000
0010
0000
0000
0000
0000
0000
0000
0000
0000
0000
0000
0000
0001
0000
0000
0000
0000
0000
0000
0000
0000
0000
0000
0000
0000
0000
0000
1000
0000
0000
0000
0000
0000
0000
0000
0000
0100
0000
0000
0000
0000
0000
0010
0000
000M
0000
0000
0000
0100
0000
0000
0000
0000
0000
0000
0000
0000
0000
0000
0000
M010
0000
0000
0000
0000
0000
0000
0000
0000
0000
0000
0000
0000
0000
0000
0001
0000
0000
0000
0000
0000
0000
0000
0000
,  // measure 127
1M00
0000
0000
0000
0000
0000
0010
0000
0000
0000
0000
0000
1000
0000
0000
0000
0000
0000
0000
0000
0000
0000
0000
0000
0001
0000
0000
0000
0000
0000
0000
0000
00M0
0000
0000
0000
0000
0000
0000
1000
0000
0000
0000
0000
0000
0000
0000
0000
0M01
0000
0000
0000
0000
0000
0000
0000
0010
0000
0000
0000
0000
0000
0000
0000
0001
0000
0000
0000
0000
0000
0000
0000
1000
0000
0000
0000
0000
0000
0000
0000
0100
0000
0000
0000
0000
0000
0000
0000
0010
0000
0000
0000
0000
0000
0000
0000
0001
0000
0000
0000
0000
0000
0000
0000
0100
0000
0000
0000
0000
0000
0000
0000
0001
0000
0000
0000
0000
0000
0000
0000
1000
0000
0000
0000
0000
0000
0000
0000
0100
0000
0000
0000
0000
0000
0000
0000
0010
0000
0000
0000
0000
0000
0000
0000
0001
0000
0000
0000
0000
0000
0000
0000
1000
0000
0000
0000
0000
0000
0000
0000
0001
0000
0000
0000
0000
0000
0000
0000
0100
0000
0000
0000
0000
0000
0000
0000
0010
0000
0000
0000
0000
0000
0000
0000
1000
0000
0000
0000
0000
0000
0000
0000
,  // measure 128
0100
0010
0100
1000
0010
0100
0001
0010
0100
0010
0001
1000
0010
1000
0010
1000
0001
0010
0001
1000
0001
1000
0100
1000
,  // measure 129
0001
0010
0100
0010
0001
1000
0100
0010
0001
0010
0100
0010
0001
1000
0010
1000
0010
1000
0001
0100
0001
0100
0001
1000
,  // measure 130
0100
1000
0100
1000
0010
0100
0010
0100
0001
0010
0001
0010
0001
0100
0010
0100
0010
1000
0010
1000
0001
0010
0100
1000
,  // measure 131
0001
0000
0000
0000
0000
0000
0000
0000
0010
0000
0000
0000
0000
0000
0000
0000
0100
0000
0000
0000
0000
0000
0000
0000
1000
0000
0000
0000
0000
0000
0000
0000
0100
0000
0000
0000
0000
0000
0000
0000
0010
0000
0000
0000
0000
0000
0000
0000
0001
0000
0000
0000
0000
0000
0000
0000
1000
0000
0000
0000
0000
0000
0000
0000
0100
0000
0000
0000
0000
0000
0000
0000
0010
0000
0000
0000
0000
0000
0000
0000
0001
0000
0000
0000
0000
0000
0000
0000
1000
0000
0000
0000
0000
0000
0000
0000
0010
0000
0000
0000
0000
0000
0000
0000
0100
0000
0000
0000
0000
0000
0000
0000
0010
0000
0000
0000
0000
0000
0000
0000
1000
0000
0000
0000
0000
0000
0000
0000
0001
0000
0000
0000
0000
0000
0000
0000
1000
0000
0000
0000
0000
0000
0000
0000
0001
0000
0000
0000
0000
0000
1000
0000
0000
0000
0000
0000
0001
0000
0000
0000
0000
0000
0000
0000
0000
0000
0000
0000
1000
0000
0000
0000
0000
0000
0001
0000
0000
0000
0000
0000
1000
0000
0000
0000
0000
0000
0000
0000
0000
0000
0000
0000
,  // measure 132
0010
0000
0000
0000
0000
0000
0100
0000
0000
0000
0000
0000
0010
0000
0000
0000
0000
0000
0000
0000
0000
0000
0000
0000
0100
0000
0000
0000
0000
0000
0010
0000
0000
0000
0000
0000
0100
0000
0000
0000
0000
0000
0000
0000
0000
0000
0000
0000
0001
0000
0000
0000
0000
0000
0100
0000
0000
0000
0000
0000
0001
0000
0000
0000
0000
0000
0000
0000
0000
0000
0000
0000
1000
0000
0000
0000
0000
0000
0010
0000
0000
0000
0000
0000
1000
0000
0000
0000
0000
0000
0000
0000
0000
0000
0000
0000
0100
0000
0000
0000
0000
0000
0010
0000
0000
0000
0000
0000
0100
0000
0000
0000
0000
0000
0000
0000
0000
0000
0000
0000
1000
0000
0000
0000
0000
0000
0001
0000
0000
0000
0000
0000
1000
0000
0000
0000
0000
0000
0000
0000
0000
0000
0000
0000
0001
0000
0000
0000
0000
0000
0000
0000
0010
0000
0000
0000
0000
0000
0000
0000
0001
0000
0000
0000
0000
0000
0000
0000
0010
0000
0000
0000
0000
0000
0000
0000
0100
0000
0000
0000
0000
0000
0000
0000
1000
0000
0000
0000
0000
0000
0000
0000
,  // measure 133
0100
1000
0010
0200
0000
0000
00M1
0000
0000
0301
0010
0001
0100
0010
0100
0002
0000
0000
1M00
0000
0000
1003
0100
1000
,  // measure 134
0001
0100
0010
2000
0000
0000
01M0
0000
0000
3100
0010
0001
1000
0100
1000
0020
0000
0000
M130
0001
0100
0010
1000
0010
,  // measure 135
1000
0001
0100
0020
0000
0000
M100
0000
0000
0130
0001
0100
0010
1000
0001
0020
0000
0000
010M
0000
0000
0130
1000
0001
,  // measure 136
0100
0001
1000
0020
0000
0000
100M
0000
0000
1030
0010
1000
0001
0010
0100
2000
0000
0000
30M1
0100
0001
0100
0010
0100
,  // measure 137
0010
1000
0010
0200
0000
0000
M010
0000
0000
0310
1000
0001
0010
0100
1000
0002
0000
0000
M100
0000
0000
0103
0010
0100
,  // measure 138
0001
0010
0001
0200
0000
0000
001M
0000
0000
0310
1000
0100
1000
0010
0100
0002
0000
0000
1003
0100
0010
0001
0010
0100
,  // measure 139
1000
0010
0100
0002
0000
0000
1M00
0000
0000
1003
0010
1000
0001
0010
0100
2000
0000
0000
0M01
0000
0000
3001
0100
0001
,  // measure 140
1000
0010
0100
0002
0000
0000
0M10
0000
0000
0013
0001
0100
0010
1000
0010
2000
0000
0000
3M01
0010
0001
1000
0010
0100
,  // measure 141
0001
0010
0100
2000
0000
0000
0M10
0000
0000
3010
1000
0001
0010
0001
0010
0002
0000
0000
01M0
0000
0000
0103
0010
1000
,  // measure 142
0010
1000
0001
0020
0000
0000
010M
0000
0000
0130
1000
0100
1000
0010
1000
0020
0000
0000
M130
0001
0100
0010
1000
0001
,  // measure 143
0010
0001
0100
0020
0000
0000
010M
0000
0000
0130
0001
0010
0001
1000
0001
0200
0000
0000
001M
0000
0000
0310
1000
0010
,  // measure 144
0100
0010
1000
0020
0000
0000
M100
0000
0000
0130
0001
0010
0001
0100
0001
0020
0000
0000
013M
1000
0100
0010
0100
1000
,  // measure 145
0010
1000
0100
0020
0000
0000
0M01
0000
0000
0031
0010
0100
0010
0001
0010
0200
0000
0000
10M0
0000
0000
1300
0100
0010
,  // measure 146
0100
1000
0100
0020
0000
0000
0M01
0000
0000
0031
0010
0100
1000
0100
0010
0002
0000
0000
1M03
0010
1000
0001
1000
0010
,  // measure 147
0100
0001
0010
0002
0000
0000
01M0
0000
0000
0103
0001
0010
0100
1000
0010
0200
0000
0000
M010
0000
0000
0310
1000
0100
,  // measure 148
0010
0000
0001
0000
0100
0000
0020
0000
0000
0000
0000
0000
M100
0000
0000
0000
0000
0000
0130
0000
0001
0000
0010
0000
0100
0000
1000
0000
0001
0000
1000
0000
0000
0000
0000
0000
2MM2
0000
0000
0000
0000
0000
0000
0000
0000
0M03
0000
0000
,  // measure 149
020M
0000
0000
300M
M002
0000
0000
0300
0200
0000
0000
M003
200M
0000
0000
03M0
,  // measure 150
0M20
0000
0000
0000
0000
0000
0000
0000
0000
300M
0000
0000
M002
0000
0000
0000
0000
0000
0000
0000
0000
0000
0000
0000
0000
0000
0000
0000
0000
0000
0000
0000
0000
0030
0000
0000
0013
0100
0010
010M
0010
0100
0010
0100
0010
0100
0010
0100
,  // measure 151
0010
0100
0010
0100
0010
0100
0010
0100
0010
0100
0010
0200
0020
0000
0000
0000
0000
0000
0000
0000
0000
0000
0000
0000
0000
0000
0000
0000
0000
0000
0330
0000
0000
MMMM
0000
0000
0000
0000
0000
0000
0000
0000
0000
0000
0000
0000
0000
0000
;
