#TITLE:MAX 340;
#SUBTITLE:;
#ARTIST:BON;
#TITLETRANSLIT:;
#SUBTITLETRANSLIT:;
#ARTISTTRANSLIT:;
#GENRE:;
#CREDIT:;
#BANNER:MAX340.png;
#BACKGROUND:MAx340-bg.png;
#LYRICSPATH:;
#CDTITLE:!DOD5th.png;
#MUSIC:MAX340.mp3;
#OFFSET:-0.516168;
#SAMPLESTART:49.151997;
#SAMPLELENGTH:26.528000;
#SELECTABLE:YES;
#BPMS:0.000000=320.000000
,200.000000=340.000000
,392.000000=680.000000
,400.000000=510.000000
,404.000000=340.000000
,406.000000=255.000000
,408.000000=170.000000
,408.500000=150.000000
,409.000000=112.000000
,409.500000=80.000000
,410.000000=68.000000
,411.000000=340.000000
;
#STOPS:
;
#BGCHANGES:;
#KEYSOUNDS:;
#ATTACKS:;

//---------------dance-single - ----------------
#NOTES:
     dance-single:
     :
     Hard:
     10:
     0.886544,1.136909,0.347901,0.094027,0.000000,660.000000,623.000000,37.000000,10.000000,0.000000,0.000000,0.886544,1.136909,0.347901,0.094027,0.000000,660.000000,623.000000,37.000000,10.000000,0.000000,0.000000:
0000
0000
0000
0000
,
0000
0000
0000
0000
,
0000
0000
0000
0000
,
0000
0000
0000
0000
,
0000
0000
0000
0000
,
0000
0000
0000
0000
,
0000
0000
0000
0000
,
0000
0000
0000
0000
,
0100
0000
0001
0000
1000
0001
0000
0001
,
0100
0000
0010
0000
0100
0010
0000
0010
,
1000
0000
0001
0000
1000
0010
0000
0010
,
0100
0110
1001
0000
,
0001
0000
0100
0000
0010
1000
0000
1000
,
0001
0000
0100
0000
0010
0100
0000
0100
,
0001
0000
0010
0000
0001
0100
0000
0100
,
0010
1000
0001
0100
0010
0100
0001
1000
,
0001
0100
0010
1000
,
0010
0000
0100
0000
0001
0010
0100
0000
,
1000
0001
0100
0010
,
1000
0000
0001
0000
0100
0010
0001
0000
,
1000
0010
0100
0010
,
1000
0000
0001
0000
1000
0100
0010
0000
,
1000
0001
0100
0010
,
1000
0001
1000
0010
0100
0010
0001
0010
,
0100
0010
1000
0001
,
0100
0000
0010
0000
0001
0010
0100
0000
,
1000
0010
0100
0010
,
0001
0000
0100
0000
0010
0100
1000
0000
,
0010
0100
0001
0100
,
0010
0000
1000
0000
0010
1000
0100
0000
,
1000
0001
0100
0010
,
1000
0001
0010
0100
1000
0100
0010
0100
,
1000
0000
1010
0000
0000
0110
0000
0000
,
0101
0000
0000
0110
0000
0000
1010
0000
,
0101
0000
0110
0000
0000
0101
0000
0000
,
0110
0000
0000
1010
0000
0000
0110
0000
,
1001
0000
1000
0010
0000
0010
0100
0000
,
0100
0001
0000
0001
0100
0000
0010
1000
,
0010
0000
0010
0100
0000
0010
1000
0000
,
0010
0100
0010
0001
0010
0100
1000
0100
,
0010
0000
1000
0010
0100
0000
0001
0100
,
0010
1010
0100
0101
,
0001
0000
0100
0010
1000
0000
0010
0100
,
0001
0110
0010
1001
,
1000
0000
0010
0100
0001
0000
0100
0010
,
1000
0101
0010
1010
,
0100
0000
0001
1000
0010
0000
0100
0010
,
1000
0010
0100
0001
0010
0001
0010
0100
,
2002
0000
0000
0000
,
0000
0000
0000
0000
,
0000
3003
1000
0000
0010
0000
1010
0000
,
0000
0001
0100
0101
,
0000
1000
0001
1010
,
0000
0001
1000
0101
,
0000
0100
0001
1010
,
0000
0001
1000
0101
,
1000
0010
0100
0001
0000
0100
0000
0010
,
1000
0010
0100
0001
0000
0100
0000
0010
,
1000
0100
1000
0001
1000
0001
1000
0010
,
1000
0010
1000
0100
1000
0100
1000
0010
,
1000
0010
1000
0001
1000
0001
0100
0010
,
1000
0001
0100
0000
0010
0000
1000
0000
,
0001
0100
0001
0100
0001
1000
0001
1000
,
0001
0010
0001
0010
0001
1000
0010
0000
,
0100
0001
0010
0001
0000
0100
0000
0010
,
1000
0000
1000
0010
0000
0100
0000
0001
,
0100
0010
1000
0000
0010
0000
0100
0000
,
0001
0100
0010
0100
,
1000
0001
0100
0010
,
0100
0000
0010
0000
0001
0010
1000
0000
,
0100
1000
0010
0100
,
0010
1000
0100
0010
,
0001
0000
0100
0000
0010
0100
1000
0001
,
0010
0000
0100
0001
0010
0001
1000
0000
,
0001
0100
0010
1000
,
0001
0100
0010
1000
,
0100
0010
1000
0001
,
0100
0000
0010
0000
0100
0001
1000
0000
,
0010
0100
1000
0010
,
0100
0001
0010
0100
,
0010
0000
0100
0000
0001
0100
0010
1000
,
0100
0000
1000
0100
0010
0100
0001
0000
,
1000
0000
0010
0100
0001
0000
0100
0010
,
1000
0000
0010
0000
0100
0010
1000
0002
,
0000
0000
0103
0000
0010
0100
0001
0000
,
0100
0010
1000
0000
0010
0100
0001
1000
,
0010
0000
0100
0010
1000
0000
0010
0100
,
0001
0000
0100
0000
0010
0100
1000
0020
,
0000
0000
1030
0000
0010
1000
0100
0000
,
1000
0010
0100
0000
0001
0100
0010
0100
,
1000
0000
0100
0010
0001
0000
0010
0100
,
1000
0000
0100
0000
0010
0100
1000
0200
,
0000
0000
1300
0000
0010
0100
0001
0000
,
0010
0001
1000
0000
0010
0100
0001
0100
,
0010
0000
0100
0001
0010
0000
0001
0010
,
1000
0000
0010
0000
1000
0001
0010
2000
,
0000
0000
3001
0000
0010
0100
0001
0000
,
0001
0010
0100
0000
0010
0100
0001
1000
,
2002
0000
0000
0000
,
0000
0000
0000
0000
,
0000
0000
0000
0000
,
0000
0000
0000
0000
,
0000
0000
0000
0000
0000
3003
1000
0000
,
0010
0100
0001
1000
,
0100
1000
0010
0100
,
0001
0100
0010
1000
,
0010
0000
0100
0001
1000
0010
0100
0000
,
0010
1000
0001
0100
,
0010
0100
1000
0100
,
0001
0100
0010
1000
,
0010
0000
0100
0001
0100
0010
1000
0000
,
0010
0100
0010
0001
,
0100
0010
1000
0010
,
0100
0001
0100
0010
,
1000
0000
0100
1000
0010
0100
0001
0000
,
0100
0010
1000
0010
,
0100
0001
0100
0010
,
1000
0010
0100
0001
,
0010
0000
0001
0100
0010
1000
0100
0000
,
1000
0010
0000
0010
0100
0000
0100
0010
,
0000
0010
0100
0000
0001
0000
1001
0000
,
1000
0010
0000
0010
0100
0000
0100
0010
,
0000
0010
1000
0000
0010
0000
0110
0000
,
0010
1000
0000
1000
0001
0000
0001
0100
,
0000
0100
0010
0000
1000
0000
0110
0000
,
0001
0100
0000
0100
0010
0000
0010
1000
,
0000
1000
0010
0000
0100
0000
1001
0000
,
1000
0010
0100
0010
0100
0000
0100
0001
,
0000
0010
0100
0000
1000
0001
0100
0010
,
1000
0010
0100
0001
0010
0000
0100
0001
,
0000
0010
1000
0000
0100
0001
0010
0001
,
1000
0010
0100
0001
0100
0000
0010
0100
,
0000
0001
1000
0000
0010
0100
0001
0100
,
0010
1000
0010
0100
0001
0000
0100
0010
,
0000
1000
0001
0000
0100
0010
1010
0000
,
0000
0101
0000
0000
1100
0000
0000
0011
,
0000
0000
0100
0010
0000
0000
2002
0000
,
0000
0000
0000
0000
,
0000
0000
0000
0000
,
0000
0000
0000
0000
,
0000
0000
0000
0000
,
0000
0000
0000
0000
,
0000
3003
0000
0000
;

//---------------dance-single - TRICKY----------------
#NOTES:
     dance-single:
     TRICKY:
     Medium:
     8:
     0.585656,0.735647,0.216263,0.094027,0.000000,436.000000,413.000000,23.000000,10.000000,0.000000,0.000000,0.585656,0.735647,0.216263,0.094027,0.000000,436.000000,413.000000,23.000000,10.000000,0.000000,0.000000:
0000
0000
0000
0000
,
0000
0000
0000
0000
,
0000
0000
0000
0000
,
0000
0000
0000
0000
,
0000
0000
0000
0000
,
0000
0000
0000
0000
,
0000
0000
0000
0000
,
0000
0000
0000
0000
,
0100
0001
0010
0000
,
1000
0010
0100
0000
,
1000
0001
1000
0010
,
0100
0001
1001
0000
,
0001
0100
0010
0000
,
1000
0010
0100
0000
,
0001
0010
0001
0100
,
0010
1000
1001
0000
,
0001
0100
0010
1000
,
0010
0000
0110
0000
,
0100
0001
0100
0010
,
1000
0000
1001
0000
,
0001
0010
0100
1000
,
0100
0000
1010
0000
,
0100
0010
0001
0010
,
0100
0000
0011
0000
,
0100
0010
1000
0010
,
0100
0001
0100
0010
,
1000
0010
0100
0001
,
1000
0010
0100
0001
,
0010
0100
0001
0100
,
0010
1000
0010
0100
,
1000
0100
0010
0001
,
0010
0001
1000
0010
,
1000
0000
0100
0000
0000
0010
0000
0000
,
0001
0000
0000
0100
0000
0000
0010
0000
,
0000
0000
0100
0000
0000
0001
0000
0000
,
0010
0000
0000
1000
0000
0000
0100
0000
,
0000
0000
1000
0000
0000
0010
0000
0000
,
0100
0000
0000
0001
0000
0000
1000
0000
,
0000
0000
0010
0000
0000
0100
0000
0000
,
0010
0000
0000
0001
0000
0000
1000
0000
,
0010
1000
0010
0001
,
0010
0000
0110
0000
,
0100
1000
0100
0001
,
0100
0000
1001
0000
,
0010
0001
0010
0100
,
0010
0000
0101
0000
,
0100
1000
0100
0010
,
0100
0000
0110
0000
,
2002
0000
0000
0000
,
0000
0000
0000
0000
,
0000
3003
1000
0000
0000
0000
1010
0000
,
0000
0001
0000
0101
,
0000
1000
0000
1010
,
0000
0001
0000
0101
,
0000
0100
0000
1010
,
0000
0010
0000
0101
,
1000
0100
0010
0001
,
0100
0010
1000
0100
,
0010
0001
0010
0001
,
0100
0001
0100
0001
,
0010
0001
0010
0001
,
0100
0010
0000
0000
,
0001
0100
0001
0100
,
0010
1000
0010
1000
,
0010
0100
0001
0100
,
0010
1000
0010
0100
,
0001
1000
0001
1000
,
0001
1000
0001
1000
,
0001
0100
0001
0100
,
0001
0100
0001
0100
,
0010
0100
0010
0100
,
0010
0100
0010
0100
,
0010
1000
0010
1000
,
0010
1000
0010
1000
,
0001
1000
0010
0100
,
0001
1000
0010
0100
,
0001
0100
0010
0100
,
0001
0100
0010
0100
,
0010
0100
0010
1000
,
0010
1000
0010
0100
,
0001
1000
0010
0100
,
0001
1000
0010
0100
,
0001
0100
0001
1000
,
0010
0000
0100
0000
0010
0000
1000
0002
,
0000
0103
0010
0001
,
0100
0010
0000
0000
0010
0000
0100
0000
,
0010
0100
0010
1000
,
0001
0000
0100
0000
0010
0000
1000
0020
,
0000
1030
0010
0100
,
0001
0100
0000
0000
0100
0000
0010
0000
,
1000
0100
0010
0001
,
0100
0000
0010
0000
1000
0000
0010
0200
,
0000
0301
0010
0001
,
0100
0001
0000
0000
0100
0000
0010
0000
,
1000
0010
0100
0001
,
0010
0000
0100
0000
1000
0000
0001
2000
,
0000
3001
0010
0100
,
0001
1000
0001
0000
1000
0001
1000
0000
,
2002
0000
0000
0000
,
0000
0000
0000
0000
,
0000
0000
0000
0000
,
0000
0000
0000
0000
,
0000
0000
3003
1000
,
0000
1000
0000
0001
,
0000
0001
0000
0100
,
0000
0100
0000
0010
,
0100
0010
0001
0010
,
0000
0010
0000
1000
,
0000
1000
0000
0001
,
0000
0001
0000
0100
,
0010
0100
1000
0100
,
0000
0100
0000
0001
,
0000
0001
0000
1000
,
0000
1000
0000
0010
,
1000
0010
0001
0010
,
0000
0010
0000
1000
,
0000
1000
0000
0001
,
0000
0001
0000
0100
,
1000
0100
0001
0100
,
1000
0000
0000
0010
0000
0000
0100
0000
,
0000
0010
0000
0000
1001
0000
0000
0000
,
0001
0000
0000
0100
0000
0000
0010
0000
,
0000
1000
0000
0000
0110
0000
0000
0000
,
0010
0000
0000
1000
0000
0000
0001
0000
,
0000
0100
0000
0000
1001
0000
0000
0000
,
0001
0000
0000
0100
0000
0000
0010
0000
,
0000
1000
0000
0000
0110
0000
0000
0000
,
1000
0010
0000
0010
0100
0000
0100
0001
,
0000
0001
0100
0000
0010
0000
0000
0000
,
1000
0010
0000
0010
0100
0000
0100
0001
,
0000
0001
0100
0000
0010
0000
0000
0000
,
0100
0001
0000
0001
0100
0000
0100
0010
,
0000
0010
1000
0000
0010
0000
0000
0000
,
0100
0001
0000
0001
1000
0000
1000
0100
,
0000
0100
1000
0000
0001
0000
1000
0000
,
0000
0001
0000
0000
1000
0000
0000
0001
,
0000
0000
1000
0001
0000
0000
2002
0000
,
0000
0000
0000
0000
,
0000
0000
0000
0000
,
0000
0000
0000
0000
,
0000
0000
0000
0000
,
0000
0000
0000
0000
,
0000
3003
0000
0000
;

//---------------dance-single - BASIC----------------
#NOTES:
     dance-single:
     BASIC:
     Easy:
     5:
     0.306261,0.601893,0.122236,0.094027,0.000000,228.000000,215.000000,13.000000,10.000000,0.000000,0.000000,0.306261,0.601893,0.122236,0.094027,0.000000,228.000000,215.000000,13.000000,10.000000,0.000000,0.000000:
0000
0000
0000
0000
,
0000
0000
0000
0000
,
0000
0000
0000
0000
,
0000
0000
0000
0000
,
0000
0000
0000
0000
,
0000
0000
0000
0000
,
0000
0000
0000
0000
,
0000
0000
0000
0000
,
0100
0000
0100
0000
,
0010
0000
0010
0000
,
0100
0000
0100
0000
,
0010
1000
0001
0000
,
1000
0000
1000
0000
,
0001
0000
0001
0000
,
1000
0000
1000
0000
,
0001
0100
0010
0000
,
0100
0000
0010
0000
,
0100
0000
0010
0000
,
0100
0000
0010
0000
,
1000
0001
1000
0000
,
0001
0000
1000
0000
,
0001
0000
1000
0000
,
0001
0000
1000
0000
,
0010
0100
0010
0000
,
0100
0000
0100
0000
,
0010
0000
0010
0000
,
1000
0000
1000
0000
,
0001
0000
0001
0000
,
0010
0000
0010
0000
,
0100
0000
0100
0000
,
0001
0000
0001
0000
,
1000
0000
1000
0000
,
0010
0000
0000
0000
,
0110
0000
0000
0000
,
1000
0000
0000
0000
,
1001
0000
0000
0000
,
0010
0000
0000
0000
,
1001
0000
0000
0000
,
0001
0000
0000
0000
,
0110
0000
0000
0000
,
0010
0000
0010
0000
,
0020
0000
0030
0000
,
0100
0000
0100
0000
,
0200
0000
0300
0000
,
0001
0000
0001
0000
,
0002
0000
0003
0000
,
1000
0000
1000
0000
,
2000
0000
3000
0000
,
2002
0000
0000
0000
,
0000
0000
0000
0000
,
0000
3003
1000
0000
0000
0000
0000
0000
,
0000
0001
0000
0000
,
0000
1000
0000
0000
,
0000
0001
0000
0000
,
0000
0100
0000
0000
,
0000
0010
0000
0000
,
1000
0001
1000
0001
,
1000
0001
1000
0001
,
1000
0000
0010
0000
,
1000
0000
0010
0000
,
1000
0000
0010
0000
,
1000
0000
0000
0000
,
0001
0000
0100
0000
,
0001
0000
0100
0000
,
0001
0000
0100
0000
,
0010
0000
1000
0000
,
0001
0000
1000
0000
,
0001
0000
1000
0000
,
0001
0000
0100
0000
,
0001
0000
0100
0000
,
0010
0000
0100
0000
,
0010
0000
0100
0000
,
0010
0000
1000
0000
,
0010
0000
1000
0000
,
0001
0000
1000
0000
,
0010
0000
0100
0000
,
0001
0000
1000
0000
,
0010
0000
0100
0000
,
0010
0000
1000
0000
,
0001
0000
0100
0000
,
0001
0000
0100
0000
,
0010
0000
1000
0000
,
0001
0000
0001
0000
,
1000
0000
1000
0000
,
0010
0000
0100
0000
,
0001
0000
1000
0000
,
0001
0000
0001
0000
,
1000
0000
1000
0000
,
0010
0000
0100
0000
,
0001
0000
1000
0000
,
0010
0000
0010
0000
,
0100
0000
0100
0000
,
0001
0000
0100
0000
,
0010
0000
1000
0000
,
0010
0000
0010
0000
,
0100
0000
0100
0000
,
0001
0000
0100
0000
,
0010
0000
1000
0000
,
2002
0000
0000
0000
,
0000
0000
0000
0000
,
0000
0000
0000
0000
,
0000
0000
0000
0000
,
0000
0000
3003
1000
,
0000
0000
0000
0001
,
0000
0000
0000
0100
,
0000
0000
0000
0010
,
0000
0010
0000
0010
,
0000
0000
0000
1000
,
0000
0000
0000
0001
,
0000
0000
0000
0100
,
0000
0100
0000
0100
,
0000
0000
0000
0001
,
0000
0000
0000
1000
,
0000
0000
0000
0010
,
0000
0001
0000
0010
,
0000
0000
0000
1000
,
0000
0000
0000
0001
,
0000
0000
0000
0100
,
0000
1000
0000
0100
,
0000
0000
0000
0110
,
0000
0000
0000
0001
,
0000
0000
0000
1001
,
0000
0000
0000
0010
,
0000
0000
0000
1010
,
0000
0000
0000
0100
,
0000
0000
0000
0101
,
0000
0001
0000
0001
,
0000
1000
0000
1000
,
0000
0010
0000
0010
,
0000
0100
0000
0100
,
0000
0001
0000
0100
,
0000
0010
0000
1000
,
0000
0010
0000
0100
,
0000
0001
0000
1000
,
0000
0001
0000
1001
,
0000
0000
0000
0110
,
0000
0000
0000
2002
,
0000
0000
0000
0000
,
0000
0000
0000
0000
,
0000
0000
0000
0000
,
0000
0000
0000
0000
,
0000
0000
0000
0000
,
0000
3003
0000
0000
;

//---------------dance-single - ----------------
#NOTES:
     dance-single:
     :
     Challenge:
     12:
     1.152507,1.201670,0.470137,0.319693,0.065819,858.000000,808.000000,50.000000,34.000000,0.000000,0.000000,1.152507,1.201670,0.470137,0.319693,0.065819,858.000000,808.000000,50.000000,34.000000,0.000000,0.000000:
// measure 0
0001
1000
0002
0000
0000
0000
0013
0100
,  // measure 1
0010
0100
0020
0000
0000
0000
0031
0100
,  // measure 2
0001
0100
0002
0000
0000
0000
1003
0010
,  // measure 3
1000
0010
2000
0000
3002
1003
0100
0010
,  // measure 4
0001
0010
0200
0000
0000
0000
1300
0010
,  // measure 5
1000
0001
0020
0000
0000
0000
0130
1000
,  // measure 6
0100
0010
0200
0000
0000
0000
0000
0000
,  // measure 7
1300
0100
1000
0010
1000
0001
1000
0100
,  // measure 8
1000
0001
0010
0000
0100
0010
0000
0010
,  // measure 9
0100
0000
1000
0000
0001
0100
0000
0100
,  // measure 10
0010
0000
1000
0000
0010
0100
0000
0100
,  // measure 11
0001
0011
0220
0330
,  // measure 12
0100
0000
1000
0000
0010
0100
0000
0010
,  // measure 13
1000
0000
0000
0000
0000
0000
0001
0000
0000
0000
0000
0000
0010
0000
0000
0001
0000
0000
0000
0000
0000
0100
0000
0010
,  // measure 14
0000
0100
0000
0010
0000
0000
0100
0000
0000
0010
0000
0000
0000
0000
0000
0010
0000
0000
0100
0000
0000
0000
0000
0000
,  // measure 15
0001
0010
0001
0100
0001
1000
0001
0010
,  // measure 16
0100
0000
1000
0000
0010
0000
0100
0001
,  // measure 17
0100
0000
0001
0000
0010
0001
0100
0010
,  // measure 18
1000
0100
0010
0000
0001
0000
0010
0100
,  // measure 19
0010
0000
0001
0000
1000
0010
1000
0100
,  // measure 20
0010
0001
0100
0000
0010
0000
1000
0001
,  // measure 21
0010
0000
0100
0000
0010
0001
0010
0001
,  // measure 22
0100
0000
0000
0010
0000
0000
1000
0000
0001
0000
1000
0000
0001
0000
0000
0000
0000
0000
0010
0000
0000
0001
0000
0000
,  // measure 23
0010
0000
0000
0100
0000
0000
0010
0000
0000
0100
0000
0000
1000
0000
0000
0100
0000
0010
0000
0100
0000
0010
0000
0000
,  // measure 24
0100
0010
0001
0000
0001
0010
0001
0000
,  // measure 25
0001
1000
0001
0000
0001
0100
0001
0000
,  // measure 26
0001
0100
0010
0000
0010
1000
0010
0000
,  // measure 27
0010
0100
0010
0000
0010
0001
0010
0100
,  // measure 28
0010
1000
0001
0000
1000
0100
0010
0000
,  // measure 29
0010
0001
0100
0000
0001
0010
0100
0000
,  // measure 30
0100
1000
0010
0000
1000
0001
0100
0000
,  // measure 31
0100
0001
0100
0010
0100
1000
0100
0010
,  // measure 32
0100
0000
0101
0000
0100
0001
0000
0001
,  // measure 33
0010
0000
0010
0100
0000
0100
1000
0000
,  // measure 34
1100
0000
1010
0000
0010
0100
0000
0100
,  // measure 35
0001
0000
0001
1000
0000
1000
0010
0000
,  // measure 36
0110
0000
1001
0000
1000
0010
0000
0001
,  // measure 37
0010
0000
1000
0100
0000
0001
0100
0000
,  // measure 38
1000
0100
1000
0100
0001
0100
0001
0100
,  // measure 39
1000
0010
0001
0010
1000
0001
0010
1000
,  // measure 40
0020
0000
0031
0100
0020
0000
1030
0000
,  // measure 41
2010
0100
0001
3100
,  // measure 42
1200
0000
1300
0010
0100
0000
0001
0000
,  // measure 43
0012
0100
0010
1003
,  // measure 44
2010
0000
3010
1000
0200
0000
0310
0000
,  // measure 45
0210
0001
0010
1300
,  // measure 46
1002
0000
1003
0001
0200
0000
0310
0000
,  // measure 47
1000
0010
0100
0010
0001
0010
0100
0020
,  // measure 48
2000
0000
0000
0000
,  // measure 49
0000
0000
0000
3030
,  // measure 50
1000
0010
0100
0000
0110
0000
0101
0000
,  // measure 51
0000
0001
0100
0000
0110
0000
1010
0000
,  // measure 52
0000
1000
0100
0000
0110
0000
0011
0000
,  // measure 53
0000
0001
0010
0000
0110
0000
1100
0000
,  // measure 54
0000
1000
0001
0000
0101
0000
1100
0000
,  // measure 55
0000
0100
1000
0000
1010
0000
0011
0000
,  // measure 56
0010
0001
0100
1000
0100
0001
0010
0100
,  // measure 57
0010
0001
0100
0010
0100
0001
1000
0100
,  // measure 58
1000
0001
1000
0001
0100
0010
0100
0010
,  // measure 59
1000
0010
1000
0010
0100
0001
0100
0001
,  // measure 60
1000
0100
0010
0001
0010
0100
1000
0010
,  // measure 61
0100
0002
0200
0000
0000
0000
0303
0000
,  // measure 62
0001
0100
0001
0100
1000
0100
1000
0100
,  // measure 63
0001
0010
0001
0010
1000
0010
1000
0010
,  // measure 64
0001
0010
0001
0100
0010
1000
0100
0010
,  // measure 65
0100
1000
0010
0100
0001
0010
0100
0010
,  // measure 66
0001
0100
0001
0100
0010
0100
0010
0100
,  // measure 67
0010
1000
0010
1000
0001
1000
0001
1000
,  // measure 68
0100
0010
0100
0010
0001
0100
0001
0100
,  // measure 69
0010
1000
0010
1000
0100
0010
0100
0000
,  // measure 70
1000
0100
1000
0100
1000
0001
1000
0001
,  // measure 71
1000
0100
0010
0001
0010
0100
1000
0010
,  // measure 72
0100
0000
0000
0001
0000
0000
0100
0000
0000
0010
0000
0000
1000
0000
0001
0000
1000
0000
0001
0000
0000
1000
0000
0000
,  // measure 73
0010
0100
0001
0100
0010
1000
0001
0000
,  // measure 74
0010
0100
0010
0100
0010
0001
0010
0001
,  // measure 75
0010
0100
0001
0100
1000
0010
0100
0010
,  // measure 76
0100
1000
0100
0010
1000
0010
0100
0001
,  // measure 77
0010
0100
0010
0001
0100
0010
1000
0000
,  // measure 78
0001
0100
0001
0010
0100
1000
0010
1000
,  // measure 79
0100
0010
0100
0010
1000
0010
0100
0010
,  // measure 80
0100
0000
0000
1000
0000
0000
0010
0000
0000
0100
0000
0000
0001
0000
1000
0000
0001
0000
1000
0000
0000
0001
0000
0000
,  // measure 81
0100
0001
1000
0010
1000
0001
1000
0000
,  // measure 82
1000
0100
0001
0100
0010
0000
0001
0100
,  // measure 83
0010
0100
0010
0001
0010
0100
0002
0000
,  // measure 84
0000
0000
1003
0100
1000
0100
0001
0000
,  // measure 85
0100
0010
0001
0100
0010
1000
0010
0100
,  // measure 86
0001
0010
0100
0010
1000
0010
0001
0000
,  // measure 87
0100
1000
0100
0001
0010
0100
2000
0000
,  // measure 88
0100
0000
0000
0100
0000
0000
3100
0010
0100
0010
0000
0000
,  // measure 89
0010
0001
0100
1000
0000
1000
0100
0010
,  // measure 90
1000
0001
1000
0001
0010
1000
0020
0000
,  // measure 91
0130
1000
0001
0100
1000
0100
0020
0000
,  // measure 92
0000
0000
1030
0100
0010
0001
0020
0000
,  // measure 93
0130
1000
0010
0100
0001
1000
0010
0100
,  // measure 94
0010
1000
0001
0010
1000
0010
0002
0000
,  // measure 95
1003
0010
0100
1000
0100
0010
2000
0000
,  // measure 96
0000
0000
0000
0000
0000
0000
3001
0000
0000
0100
0000
0000
0001
0000
0100
0000
0001
0000
0100
0000
0000
0000
0000
0000
,  // measure 97
0100
1000
0100
0001
0000
0001
1000
0001
,  // measure 98
4000
0004
0000
0000
0000
0000
0000
0000
,  // measure 99
0000
0000
0000
0000
,  // measure 100
0000
0000
0000
0000
,  // measure 101
0000
0000
0000
0000
,  // measure 102
0000
0000
0000
0000
3000
0003
1000
0001
,  // measure 103
1000
0000
0010
0000
0100
0001
0010
0100
,  // measure 104
0010
0000
0001
0000
0100
0010
1000
0010
,  // measure 105
0100
0000
1000
0000
0100
0010
1000
0001
,  // measure 106
0010
0000
0100
0010
0001
0010
0100
0010
,  // measure 107
0001
0000
0100
0000
0010
1000
0100
1000
,  // measure 108
0100
0000
1000
0000
0001
0100
0001
0010
,  // measure 109
0001
0000
1000
0000
0010
0001
0010
0100
,  // measure 110
0010
1000
0010
0100
0010
0100
0010
0001
,  // measure 111
0010
0000
0110
0000
0100
0001
0010
1000
,  // measure 112
0010
0000
0110
0000
0100
1000
0010
0100
,  // measure 113
1000
0000
1100
0000
1000
0100
0010
1000
,  // measure 114
0001
0010
0100
1000
0010
0100
0001
1000
,  // measure 115
0100
0000
0110
0000
0010
1000
0010
0001
,  // measure 116
0010
0000
0110
0000
0100
1000
0100
0010
,  // measure 117
0100
1000
0010
0100
0001
0010
1000
0010
,  // measure 118
0100
0001
0100
1000
0001
0010
0100
0010
,  // measure 119
1000
0000
0010
0100
0000
1000
0100
0000
,  // measure 120
0010
0001
0000
0100
0001
0000
0101
0000
,  // measure 121
1010
0000
0010
0100
0000
0010
0001
0000
,  // measure 122
0010
0100
0000
0010
1000
0000
1100
0000
,  // measure 123
0011
0000
0001
0100
0000
0100
0010
0000
,  // measure 124
0010
1000
0000
0001
1000
0000
1100
0000
,  // measure 125
0110
0000
0010
0001
0000
0001
0100
0000
,  // measure 126
0010
0001
0000
0010
1000
0000
1010
0000
,  // measure 127
1001
0000
0001
0100
0000
0010
0100
0000
,  // measure 128
0001
0010
0000
1000
0010
0000
0011
0000
,  // measure 129
0101
0000
0010
0100
0000
0010
1000
0000
,  // measure 130
0001
0010
0000
0100
0010
0000
0011
0000
,  // measure 131
0110
0000
0100
1000
0000
1000
0010
0000
,  // measure 132
0010
0100
0000
0100
0001
0000
1010
0000
,  // measure 133
0110
0000
0001
0100
0000
1000
0010
0000
,  // measure 134
0100
0010
0000
0001
1000
0001
1001
0000
,  // measure 135
0000
0110
0000
0000
1010
0000
0000
0011
,  // measure 136
0000
0000
1000
1100
0000
0000
0220
0000
,  // measure 137
0000
0000
0000
0000
,  // measure 138
0000
0000
0300
0002
,  // measure 139
0000
0000
0000
0000
,  // measure 140
0000
0000
0000
0000
,  // measure 141
0000
0000
0000
0000
,  // measure 142
0033
0000
0000
0000
;
