#TITLE:Love Me Do;
#SUBTITLE:The Acolyte's mix;
#ARTIST:Akira Yamaoka;
#TITLETRANSLIT:;
#SUBTITLETRANSLIT:;
#ARTISTTRANSLIT:;
#GENRE:;
#CREDIT:;
#BANNER:;
#BACKGROUND:;
#LYRICSPATH:;
#CDTITLE:;
#MUSIC:Love Me Do The Acolyte's remix.OGG;
#OFFSET:0.021000;
#SAMPLESTART:57.480000;
#SAMPLELENGTH:15.000000;
#SELECTABLE:YES;
#DISPLAYBPM:167.000000;
#BPMS:0.000000=167.005005
;
#STOPS:
;
#BGCHANGES:;
#KEYSOUNDS:;
#ATTACKS:;

//---------------dance-single - ----------------
#NOTES:
     dance-single:
     :
     Beginner:
     1:
     0.122449,0.182857,0.019048,0.000000,0.000000,90.000000,88.000000,2.000000,0.000000,0.000000,0.000000,0.122449,0.182857,0.019048,0.000000,0.000000,90.000000,88.000000,2.000000,0.000000,0.000000,0.000000:
0000
0000
0000
0000
,
0000
0000
0000
0000
,
0000
0000
0000
0000
,
0000
0000
0000
0000
,
0001
0000
0000
0000
,
1000
0000
0000
0000
,
0010
0000
0000
0000
,
0100
0000
0000
0000
,
0001
0000
0001
0000
,
0000
0000
0000
1000
,
1000
0000
1000
0000
,
0000
0000
0000
0100
,
0100
0000
0100
0000
,
0000
0000
0000
0001
,
0001
0000
0001
0000
,
1000
0000
0000
0000
,
0010
0000
0000
0000
,
0100
0000
0000
0000
,
0001
0000
0001
0000
,
0001
0000
0000
0000
,
1000
0000
1000
0000
,
1000
0000
0000
0000
,
0010
0000
0010
0000
,
0010
0000
0000
0000
,
0100
0000
0000
0100
,
0100
0000
0000
0001
,
0001
0000
0000
1000
,
1000
0000
0000
0001
,
0001
0000
0000
0010
,
0010
0000
0000
1000
,
1000
0000
1000
0000
,
0001
0001
0001
0000
,
0001
0000
0000
0000
,
0000
0000
1000
1000
,
1000
0000
0000
0000
,
0000
0000
0100
0100
,
0100
0000
0000
0000
,
0000
0000
0010
0010
,
0010
0000
0000
0000
,
0000
0000
0000
0000
,
1001
0000
0000
0000
,
0000
0000
0001
0001
,
0001
0000
0000
0000
,
0000
0000
0100
0100
,
0100
0000
0000
0000
,
0000
0000
0010
0010
,
0010
0000
0000
0000
,
1000
0000
1000
0000
,
0001
0000
0000
0000
,
0010
0000
0010
0000
,
0100
0000
0000
0000
,
1000
0000
1000
0000
,
0001
0000
0000
0000
,
0001
0000
1000
0000
,
1000
0000
0000
0000
,
0100
0000
0010
0000
,
0010
0000
0000
0000
,
0100
0000
0000
0000
,
0001
0000
0000
0000
,
1000
0000
0000
0000
,
0100
0000
0000
0000
,
0010
0000
0010
0000
,
0010
0000
0000
0000
,
0001
0000
0000
0000
,
1001
0000
0000
0000
;

//---------------dance-single - ----------------
#NOTES:
     dance-single:
     :
     Easy:
     4:
     0.234014,0.274286,0.104762,0.114286,0.000000,172.000000,161.000000,11.000000,12.000000,0.000000,0.000000,0.234014,0.274286,0.104762,0.114286,0.000000,172.000000,161.000000,11.000000,12.000000,0.000000,0.000000:
0000
0000
0000
0000
,
0000
0000
0000
0000
,
0000
0000
0000
0000
,
0000
0000
0000
0000
,
1001
0000
1000
1000
,
1000
0000
0001
0001
,
0001
0000
0010
0010
,
0110
0000
0000
0000
,
1000
0100
1000
0100
,
0020
0000
0000
0030
,
0001
0010
0001
0010
,
0200
0000
0000
0300
,
1000
0001
1000
0001
,
0200
0000
0000
0300
,
0001
1000
0001
1000
,
0020
0000
0000
0030
,
0100
0000
0001
0000
,
1001
0000
0000
0010
,
0020
0030
2000
3000
,
0002
0003
1000
0100
,
1000
0000
0010
0000
,
0110
0000
0000
0001
,
0002
0003
2000
3000
,
0020
0000
0000
0030
,
0100
0100
0100
0000
,
0001
1000
0001
0000
,
0010
0010
0010
0000
,
0100
1000
0100
0000
,
1000
1000
1000
0000
,
0001
0010
0001
0000
,
0100
0000
1001
0000
,
1000
1000
0001
0000
,
1000
0100
0010
0001
,
0100
0000
1001
0000
,
0001
1000
0001
1000
,
0010
0000
1000
0001
,
0100
0010
0100
0010
,
0100
0000
0110
0000
,
0001
0010
0100
1000
,
0100
0000
1001
0000
,
1000
0001
1000
0001
,
0010
0000
0001
1000
,
0010
0100
0010
0100
,
0010
0000
1000
0010
,
0100
0001
0100
0001
,
0100
0000
0001
1000
,
2002
0000
0000
0000
,
0000
0000
0000
3003
,
1000
0000
0001
0000
,
0010
0000
0001
0001
,
0001
0000
1000
0000
,
0010
0000
0100
0100
,
0100
0000
0001
0000
,
1000
0000
0001
0001
,
0001
0000
1000
0000
,
0010
0000
0100
0100
,
0100
0000
0010
1000
,
0010
0000
0010
0100
,
0010
0000
1000
0001
,
1000
0000
0001
0010
,
0001
0000
1000
0100
,
1000
0000
0001
1000
,
0001
0000
0110
0000
,
0010
0100
0010
0100
,
1001
0000
0000
0000
;

//---------------dance-single - ----------------
#NOTES:
     dance-single:
     :
     Medium:
     6:
     0.394558,0.457143,0.400000,0.247619,0.004762,290.000000,248.000000,42.000000,26.000000,0.000000,0.000000,0.394558,0.457143,0.400000,0.247619,0.004762,290.000000,248.000000,42.000000,26.000000,0.000000,0.000000:
0000
0000
0000
0000
,
0000
0000
0000
0000
,
0000
0000
0000
0000
,
0000
0000
0000
0000
,
1000
0000
0001
0000
0000
0010
0100
0000
,
1000
0000
0010
0000
0000
0100
0001
0000
,
1000
0000
0001
0000
0000
0010
0100
0000
,
0220
0000
0000
0330
,
1000
0001
1000
0001
,
1000
0000
0001
0000
1000
0100
0000
0001
,
0100
0010
0100
0010
,
0100
0000
0010
0000
1000
0100
0000
0100
,
0010
0001
0010
0001
,
0010
0000
0001
0000
0100
0010
0000
1000
,
0001
1000
0001
1000
,
2002
0000
0000
3003
,
0100
0110
0010
0110
,
0100
0110
0000
0001
,
1001
0000
1000
0000
1000
0100
0001
0000
,
0100
0000
1000
0000
0001
0100
1000
0000
,
0100
0110
0010
0110
,
0100
0110
0000
1000
,
1001
0000
0001
0000
0010
0100
0000
0100
,
2002
0000
0000
3003
,
0100
1100
0100
0101
,
0100
0000
1100
0000
0001
0100
0000
1000
,
0100
0110
0100
1001
,
0100
0000
0110
0000
0010
0100
0000
0001
,
1000
1100
0100
0101
,
0100
0000
1100
0000
0001
0100
0000
1000
,
0200
0300
0020
0030
,
0002
0100
0103
0000
,
1000
0100
1000
0100
,
0010
0001
1001
0011
,
0001
0010
0001
0010
,
0100
1000
1001
1100
,
0100
0010
0100
0010
,
0001
1000
0110
1001
,
0001
1000
0001
1000
,
0110
0000
1001
1100
,
1001
0100
0001
0100
,
0010
1000
1010
1001
,
1000
0100
1000
0100
,
0010
0001
1001
0011
,
0001
0010
0001
0010
,
0100
1000
1001
1100
,
0100
0010
0100
0010
,
1001
1100
1001
0101
,
0001
0100
1000
0000
1000
0100
0002
0000
,
0203
2300
3000
0000
,
1000
0010
0001
0000
0001
0010
2000
0000
,
3020
0032
0003
0000
,
0010
1000
0100
0000
0100
1000
0020
0000
,
2030
3200
0300
0000
,
0001
0100
1000
0000
1000
0100
0001
0000
,
0010
0001
0100
0000
0100
0001
0010
0000
,
0001
0010
1000
0000
1000
0010
0001
0000
,
2000
0001
3002
1000
,
1003
0010
0100
0000
0010
0100
0001
0000
,
0200
0010
0320
1000
,
1030
0100
0010
0000
0001
0000
1001
0000
,
0001
0010
0100
0000
1000
0000
1001
0000
,
2000
3200
0320
0032
,
1003
0000
0100
0000
0010
0000
0001
0000
1000
0000
0000
0010
0000
0000
0100
0000
,
0001
0000
0000
0000
;

//---------------dance-single - ----------------
#NOTES:
     dance-single:
     :
     Hard:
     9:
     0.662585,0.670476,0.476190,0.133333,0.423810,487.000000,437.000000,50.000000,14.000000,0.000000,0.000000,0.662585,0.670476,0.476190,0.133333,0.423810,487.000000,437.000000,50.000000,14.000000,0.000000,0.000000:
0000
0000
0000
0000
,
0000
0000
0000
0000
,
0000
0000
0000
0000
,
0000
0000
0000
0000
,
0011
0001
1000
0000
1001
0010
0100
0000
,
1100
1000
0010
0000
0110
0100
0001
0000
,
1100
1000
0001
0000
1001
0100
0010
0000
,
0022
0000
0000
0033
,
0010
0001
0000
0001
1000
0000
1000
0010
0000
0010
0100
0000
0010
0000
0000
0000
,
1000
0001
0000
0001
0010
0000
0010
0001
0000
0001
1000
0000
0100
0000
0010
0000
,
0001
0100
0000
0100
0010
0000
0010
1000
0000
1000
0001
0000
0001
0000
0000
0000
,
1000
0100
0000
0100
0010
0000
0010
0001
0000
0001
0010
0000
1000
0000
0010
0000
,
0001
1000
0000
1000
0001
0000
0001
0010
0000
0010
0100
0000
0100
0000
0000
0000
,
0010
0001
0000
0001
1000
0000
1000
0100
0000
0100
0010
0000
0001
0000
0100
0000
,
0010
1000
0000
1000
0001
0000
0001
0010
0000
0010
0100
0000
0100
0000
1000
0000
,
2000
0000
0000
0000
0000
0000
0000
0000
0001
0000
0000
0001
3000
0000
0001
0000
,
1001
0100
0010
0000
0110
0010
0100
0000
,
1001
0100
0010
0000
2000
0000
3002
0000
,
1003
0000
0100
0000
0000
0020
0000
0000
0001
0000
0000
0032
0000
0000
1000
0000
,
1000
0000
1003
0000
0000
0020
0000
0000
0100
0000
0000
0100
0000
0000
0130
0000
,
0110
0100
0010
0000
1001
0010
0100
0000
,
0110
0100
0010
0000
2000
0000
3002
0000
,
1003
0100
1000
0100
1000
0100
1000
0001
,
1002
0000
0003
0001
,
0100
1000
0000
1000
0001
0000
0001
0100
0000
0100
0010
0000
0100
0000
0000
0000
,
0001
1000
0000
1000
0100
0000
0100
1000
0000
1000
0001
0000
0010
0000
0100
0000
,
1000
0010
0000
0010
0100
0000
0100
0001
0000
0001
1000
0000
1000
0000
0000
0000
,
0001
0010
0000
0010
0100
0000
0100
1000
0000
1000
0100
0000
0001
0000
0100
0000
,
1000
0001
0000
0001
1000
0000
1000
0100
0000
0100
0010
0000
0010
0000
0000
0000
,
0100
1000
0000
1000
0001
0000
0001
0010
0000
0010
1000
0000
1000
0000
0010
0000
,
0110
0000
1010
0000
,
0011
1100
0011
0000
,
1010
1000
0001
1000
0100
0010
1000
0100
,
0010
1000
1100
0000
1001
0000
1100
0000
,
0101
1000
0100
0010
0001
0100
1000
0100
,
0001
0100
1100
0000
0101
0000
1001
0000
,
1100
0001
0100
1000
0100
0001
0010
0100
,
0001
0100
1001
0000
0110
0000
1100
0000
,
0101
1000
0100
0010
0001
0100
0010
0100
,
0010
0100
0010
0100
2002
0000
3003
0000
,
0110
0001
0100
1000
0100
0001
0100
1000
,
0100
0001
1001
0000
0011
0000
1100
0000
,
0110
0100
0001
0010
0100
0001
0100
1000
,
0100
0001
1001
0000
0110
0000
1100
0000
,
0101
1000
0100
0010
0001
0100
1000
0100
,
0001
0100
1100
0000
0110
0000
0011
0000
,
1100
0100
0001
0100
1000
0100
0001
0100
,
1000
0000
0100
0000
1001
0000
0000
0000
0101
0000
0000
0100
0000
0000
0100
0000
,
0110
0000
1000
0000
0001
0000
0000
1000
0100
0000
0010
0000
0001
0000
0000
0001
,
0010
0000
0100
0000
1000
0000
0000
1000
0100
0000
0010
0000
0001
0000
0001
0000
,
0100
0000
1000
0000
0100
0000
0000
1000
0100
0000
0010
0000
0001
0000
0000
0001
,
0010
0000
0100
0000
1000
0000
0000
1000
0100
0000
0010
0000
0001
0000
0010
0000
,
1000
0000
0100
0000
0001
0000
0000
0001
0100
0000
1000
0000
0100
0000
0000
0001
,
0100
0000
1000
0000
0100
0000
0000
0001
0100
0000
1000
0000
0100
0000
0010
0000
,
0001
0000
0100
0000
1000
0000
0000
1000
0100
0000
0001
0000
0100
0000
0000
1000
,
0100
0000
0001
0000
0100
0000
0000
0010
0200
0000
0000
0000
0300
0000
0000
0000
,
0001
0000
0100
0000
0001
0000
1000
0001
0000
0001
1000
0000
0100
0000
0010
0000
,
0001
0000
0100
0000
0001
0000
1000
0001
0000
0001
1000
0000
0100
0000
1000
0000
,
0010
0000
0100
0000
0001
0000
0010
0100
0000
0100
0010
0000
0001
0000
1000
0000
,
0010
0000
0100
0000
0001
0000
0010
0100
0000
0100
0010
0000
0001
0000
1000
0000
,
0100
0000
0001
0000
0100
0000
1000
0100
0000
0100
1000
0000
0100
0000
0001
0000
,
0100
0000
1000
0000
0100
0000
1000
0100
0000
0100
1000
0000
0100
0000
0010
0000
,
0001
0000
0100
0000
0001
0000
0010
0001
0000
0001
0010
0000
0001
0000
1000
0000
,
0001
0100
0001
0100
0010
1000
0010
1000
0010
0000
0000
0100
0000
0000
0100
0000
,
1001
0000
0000
0000
;

//---------------dance-double - ----------------
#NOTES:
     dance-double:
     :
     Beginner:
     1:
     0.130612,0.213333,0.009524,0.085714,0.000000,96.000000,95.000000,1.000000,9.000000,0.000000,0.000000,0.130612,0.213333,0.009524,0.085714,0.000000,96.000000,95.000000,1.000000,9.000000,0.000000,0.000000:
00000000
00000000
00000000
00000000
,
00000000
00000000
00000000
00000000
,
00000000
00000000
00000000
00000000
,
00000000
00000000
00000000
00000000
,
00000001
00000000
00000000
00000000
,
00001000
00000000
00000000
00000000
,
00010000
00000000
00000000
00000000
,
00000100
00000000
00000000
00000000
,
00010000
00000000
00010000
00000000
,
00001000
00000000
00000000
00000000
,
01000000
00000000
01000000
00000000
,
00100000
00000000
00000000
00000000
,
10000000
00000000
01000000
00000000
,
01000000
00000000
00000000
00000000
,
00001000
00000000
00001000
00000000
,
00010000
00000000
00000000
00000000
,
00000100
00000000
00000000
00000001
,
00000001
00000000
00000000
00001000
,
00002000
00000000
00000000
00003000
,
00000000
00000000
00000000
00000000
,
00000001
00000000
00000001
00000000
,
00001000
00000000
00000000
00010000
,
00010000
00000000
00000000
00000000
,
00001000
00000000
00000000
00000000
,
00000100
00000000
00000100
00000000
,
00001000
00000000
00001000
00000000
,
00010000
00000000
00010000
00000000
,
01000000
00000000
01000000
00000000
,
10000000
00000000
00000000
00010000
,
00010000
00000000
00000000
00100000
,
00100000
00000000
00100000
00000000
,
00001000
00000000
00000000
00000000
,
00020000
00000000
00000000
00030000
,
00000000
00000000
00000001
00000001
,
00000002
00000000
00000000
00000003
,
00000000
00000000
00010000
00010000
,
00020000
00000000
00000000
00030000
,
00000000
00000000
01000000
01000000
,
02000000
00000000
00000000
03000000
,
00000000
00000000
00000000
00000000
,
00002000
00000000
00000000
00003000
,
00000000
00000000
00000100
00000100
,
00000200
00000000
00000000
00000300
,
00000000
00000000
00001000
00001000
,
00002000
00000000
00000000
00003000
,
00000000
00000000
00000001
00000001
,
00000002
00000000
00000000
00000003
,
00000000
00000000
00000000
00000000
,
00010000
00000000
00010000
00000000
,
01000000
00000000
00000000
10000000
,
10000000
00000000
01000000
00000000
,
01000000
00000000
00000000
00001000
,
00001000
00000000
00000100
00000000
,
00000100
00000000
00000000
00000001
,
00000001
00000000
00000100
00000000
,
00000100
00000000
00000000
00000000
,
00010000
00000000
00010000
00000000
,
00100000
00000000
00100000
00000000
,
10000000
00000000
10000000
00000000
,
01000000
00000000
01000000
00000000
,
00010000
00000000
00010000
00000000
,
00001000
00000000
00001000
00000000
,
00000100
00000000
00000100
00000000
,
00000001
00000001
00000001
00000000
,
00001001
00000000
00000000
00000000
;

//---------------dance-double - ----------------
#NOTES:
     dance-double:
     :
     Easy:
     5:
     0.274830,0.304762,0.066667,0.076190,0.000000,202.000000,195.000000,7.000000,8.000000,0.000000,0.000000,0.274830,0.304762,0.066667,0.076190,0.000000,202.000000,195.000000,7.000000,8.000000,0.000000,0.000000:
00000000
00000000
00000000
00000000
,
00000000
00000000
00000000
00000000
,
00000000
00000000
00000000
00000000
,
00000000
00000000
00000000
00000000
,
00000001
00000001
00000010
00000001
,
00000100
00001000
00010000
01000000
,
10000000
10000000
00100000
10000000
,
10010000
00000000
00000000
00000000
,
00001000
00010000
00001000
00010000
,
00000100
00000010
00000000
00000001
,
00001000
00000001
00000100
00001000
,
00010000
01000000
00000000
10000000
,
00010000
10000000
01000000
00010000
,
00001000
00000100
00000000
00010000
,
00001000
00010000
00001000
00000100
,
00000020
00000000
00000000
00000030
,
00010000
00000100
00001000
00000010
,
00000100
00000001
00000000
00000100
,
00002000
00000000
00000000
00003000
,
00000000
00000000
00000000
00000000
,
00001000
00100000
00010000
01000000
,
00100000
10000000
00000000
01000000
,
00020000
00000000
00000000
00030000
,
00001000
00000000
00011000
00000000
,
00000010
00001000
00000010
00001000
,
00000001
00000100
00000001
00000100
,
00001000
00010000
00001000
00010000
,
01000000
10000000
01000000
10000000
,
00100000
00010000
00100000
00010000
,
00001000
00000010
00001000
00000010
,
00000002
00000003
00002000
00003000
,
00000002
00000203
00002300
00003000
,
00010000
01000000
10000000
01000000
,
00010000
00000000
00001000
00010000
,
00001000
00010000
00000000
01000000
,
01100000
00000000
10000000
01000000
,
00010000
00001000
00010000
01000000
,
00010000
00000000
00000100
00000010
,
00000100
00000010
00000000
00001000
,
00001001
00000000
00000010
00000001
,
00000100
00001000
00010000
00001000
,
00000100
00000000
00010000
00001000
,
00010000
00001000
00000000
01000000
,
01100000
00000000
00010000
10000000
,
00100000
00010000
00001000
00010000
,
00100000
00000000
10000000
00010000
,
10000000
00010000
00000000
01000000
,
01100000
00000000
01000000
00001000
,
01000000
00000000
00010000
00001000
,
00010000
00001000
00000100
00000001
,
00000010
00000000
00000001
00001000
,
00000001
00001000
00000001
00000100
,
00001000
00000000
00010000
01000000
,
00010000
01000000
10000000
00100000
,
01000000
00000000
00001000
00010000
,
00001000
00010000
01000000
10000000
,
00100000
00010000
00001000
00000000
,
00000010
00000001
00000010
00000000
,
00000100
00001000
00000100
00000000
,
00010000
00001000
00010000
00000000
,
01000000
01000000
10000000
01000000
,
00100000
00010000
10000000
01000000
,
00010000
00010000
00001000
00000100
,
00000001
00000010
00000100
00001000
,
00001001
00000000
00000000
00000000
;

//---------------dance-double - ----------------
#NOTES:
     dance-double:
     :
     Medium:
     7:
     0.371429,0.426667,0.295238,0.361905,0.028571,273.000000,242.000000,31.000000,38.000000,0.000000,0.000000,0.371429,0.426667,0.295238,0.361905,0.028571,273.000000,242.000000,31.000000,38.000000,0.000000,0.000000:
00000000
00000000
00000000
00000000
,
00000000
00000000
00000000
00000000
,
00000000
00000000
00000000
00000000
,
00000000
00000000
00000000
00000000
,
00000001
00000010
00000001
00000100
,
00001000
00000000
00010000
00000000
00000000
01000000
00010000
00000000
,
01000000
00000000
00100000
00000000
00000000
01000000
00010000
00000000
,
20020000
00000000
00000000
30030000
,
10000000
01000000
00010000
00000000
01000000
00010000
00001000
00000000
,
00010000
00000000
00001000
00000000
00000100
00000001
00000000
00000010
,
00000100
00000010
00000001
00000000
00000010
00000001
00000100
00000000
,
00000001
00000000
00001000
00000000
00000001
00001000
00000000
00000001
,
00000100
00001000
00010000
00000000
00001000
00010000
01000000
00000000
,
10000000
00000000
00010000
00000000
10000000
00010000
00000000
10000000
,
01000000
00010000
00001000
00000000
00010000
00001000
00000100
00000000
,
00000220
00000000
00000000
00000330
,
00000002
00000000
00000000
00000000
00001000
00000000
00000000
00000003
00002000
00000000
00000000
00000000
00000100
00000000
00000000
00000000
,
00003200
00010300
00000000
00001000
,
00011000
00000000
00000000
00000000
00010000
00000000
00000000
00000000
01000000
00000000
00000000
01000000
00000000
00000000
00000000
00000000
,
10010000
00000000
00000000
00000000
10000000
00000000
00000000
00000000
00100000
00000000
00000000
00100000
00000000
00000000
00000000
00000000
,
20000000
00010000
30020000
01000000
,
02030000
03001000
00000000
00010000
,
00011000
00001000
00000100
00000001
,
00002002
00000000
00000000
00003003
,
00000020
00000230
00010000
00020300
,
00001000
00000000
00000000
00000000
00031000
00000000
00000000
00000000
00010000
00000000
00000000
00010000
00000000
00000000
01000000
00000000
,
02000000
23000000
00100000
30200000
,
01000000
00000000
00000000
00000000
01300000
00000000
00000000
00000000
00010000
00000000
00000000
00010000
00000000
00000000
00100000
00000000
,
00200000
00302000
00010000
00023000
,
00000100
00000000
00000000
00000000
00030100
00000000
00000000
00000000
00001000
00000000
00000000
00001000
00000000
00000000
00000001
00000000
,
00000002
00000003
00002000
00003000
,
00000002
00000203
00002300
00003000
,
00010000
01000000
00010000
01000000
,
00010000
00001000
00011000
01001000
,
00100000
10000000
00100000
10000000
,
01000000
00010000
00011000
00010100
,
00001000
00000100
00001000
00000100
,
00000001
00000010
00000110
00001001
,
00000001
00000100
00000001
00000100
,
00001000
00010000
00011000
01001000
,
00100000
00001000
00100000
00001000
,
00010000
01000000
01100000
11000000
,
01000000
00010000
01000000
00010000
,
00001000
00000100
00000101
00000011
,
00001000
00000001
00001000
00000001
,
00000010
00000100
00000110
00010100
,
00001000
00010000
00001000
00010000
,
00011000
00101000
00011000
01001000
,
00002000
00010000
00023000
01000000
,
02030000
23000000
30000000
00000000
,
10000000
11000000
00100000
01100000
,
01000000
01010000
00000000
00000000
,
00020000
00001000
00032000
00000100
,
00003200
00000302
00000003
00000000
,
00000001
00000101
00000010
00000110
,
00000100
00001100
00000000
00000000
,
00010000
00000000
00001000
00000000
00010000
01000000
00000000
01000000
,
10000000
00000000
00100000
00000000
01000000
00010000
00000000
00010000
,
00100000
00000000
00001000
00000000
00010000
00001000
00000000
00001000
,
00000100
00000000
00000001
00000000
00001000
00000010
00000000
00000010
,
00000100
00000000
00001000
00000000
00010000
01000000
00000000
10000000
,
00100000
00000000
00010000
00000000
00001000
00000010
00000000
00000010
,
00000002
00000203
00002300
00023000
,
01030000
00000000
10000000
00000000
00100000
00000000
10000000
00000000
01000000
00000000
00000000
00010000
00000000
00000000
00001000
00000000
,
00011000
00000000
00000000
00000000
;

//---------------dance-double - ----------------
#NOTES:
     dance-double:
     :
     Hard:
     10:
     0.619048,0.670476,0.304762,0.066667,0.309524,455.000000,423.000000,32.000000,7.000000,0.000000,0.000000,0.619048,0.670476,0.304762,0.066667,0.309524,455.000000,423.000000,32.000000,7.000000,0.000000,0.000000:
00000000
00000000
00000000
00000000
,
00000000
00000000
00000000
00000000
,
00000000
00000000
00000000
00000000
,
00000000
00000000
00000000
00000000
,
00000001
00001000
00000001
00000010
00000100
00010000
00000010
00000100
,
00001000
00010000
00100000
10000000
01000000
00010000
00001000
00000010
,
00001000
00010000
00001000
00000100
00000010
00010000
00001000
01000000
,
00020000
00000000
00000000
00030000
,
10000000
00000000
01000000
00000000
00100000
00000000
00010000
10000000
00000000
00000000
01000000
00000000
00010000
00000000
00000000
00000000
,
00001000
00000000
00000100
00000000
00000001
00000000
00001000
00000100
00001000
00000000
00000100
00000000
00000010
00000000
00000000
00000000
,
00000001
00000000
00000100
00000000
00001000
00000000
00010000
01000000
00000000
00000000
01000000
00000000
10000000
00000000
00000000
00000000
,
10000000
00000000
01000000
00000000
00100000
00000000
00010000
10000000
00010000
00000000
10000000
00000000
01000000
00000000
00010000
00000000
,
00001000
00000000
00000100
00000000
00000001
00000000
00001000
00000001
00000000
00000000
00000100
00000000
00000010
00000000
00000000
00000000
,
00000001
00000000
00000100
00000000
00001000
00000000
00010000
01000000
00010000
00000000
01000000
00000000
10000000
00000000
00100000
00000000
,
01000000
00000000
00010000
00000000
10000000
00000000
00010000
01000000
00000000
00100000
10000000
00000000
01000000
00000000
00010000
00000000
,
20020000
00000000
00000000
30030000
,
00100000
00000000
00010000
00000000
00001000
00000000
00000000
00000010
00000001
00000000
00000010
00000000
00000001
00000000
00000000
00000100
,
00000001
00000100
00000001
00000000
00000000
00000000
00001000
00000000
,
00000001
00000000
00000100
00000000
00001000
00000000
00010000
00000000
00001000
00000000
00010000
01000000
00000000
00000000
01000000
00000000
,
10000000
00000000
01000000
00000000
00100000
00000000
00010000
00000000
00100000
00000000
00010000
10000000
00000000
00000000
00000000
00000000
,
10000000
00000000
01000000
00000000
00010000
00000000
00000000
00001000
00010000
00000000
01000000
00000000
00010000
00000000
00000000
00001000
,
00010000
00000100
00001000
00000000
00000000
00000000
00000100
00000000
,
00000010
00000000
00000001
00000000
00001000
00000100
00000000
00001000
00000010
00000000
00001000
00000100
00000000
00010000
00001000
00000000
,
00010000
00000000
10000000
00100000
,
10000000
00000000
00010000
00000000
00100000
00000000
00001000
00000000
00010000
00000000
00000100
00001000
00000000
00000000
00000100
00000000
,
00000010
00000000
00000001
00000000
00000100
00000000
00001000
00000000
00000100
00000000
00000001
00001000
00000000
00000000
00000001
00000000
,
00000100
00000000
00001000
00000000
00010000
00000000
01000000
00000000
00010000
00000000
00001000
00010000
00000000
00000000
00001000
00000000
,
00010000
00000000
01000000
00000000
10000000
00000000
00100000
00000000
10000000
00000000
01000000
10000000
00000000
00000000
00010000
00000000
,
10000000
00000000
01000000
00000000
00010000
00000000
00000100
00000000
00001000
00000000
00000010
00000100
00000000
00000000
00000001
00000000
,
00000100
00000000
00000010
00000000
00001000
00000000
00000001
00000000
00001000
00000000
00000001
00001000
00000000
00000010
00001000
00000010
,
00002000
00003000
00000002
00000003
,
00000110
00000001
00001000
00000100
00011000
00000000
00000000
00000000
,
00010000
10000000
00100000
01000000
00001000
00000100
00001000
01000000
,
00100000
01000000
00010000
10000000
10010000
00000000
10000000
00000000
,
00100000
00010000
00001000
00000010
00000001
00000100
00001000
00010000
,
00001000
00000100
00001000
00010000
01010000
00000000
01000000
00000000
,
10000000
00010000
10000000
01000000
00010000
00000100
00000010
00000001
,
00001000
00000001
00000100
00001000
00011000
00000000
01000000
00000000
,
00010000
00100000
00001000
00010000
00001000
00000100
00000010
00001000
,
00000001
00000010
00001000
00010000
01100000
00000000
01000000
00000000
,
01000000
10000000
00100000
10000000
00010000
01000000
00001000
00010000
,
00000100
00010000
00001000
00000010
00000011
00000000
00000001
00000000
,
00001000
00000001
00000010
00000100
00010000
01000000
00010000
00000100
,
00000010
00000100
00001000
00000001
00001001
00000000
00000001
00000000
,
00000010
00001000
00010000
00100000
10000000
01000000
00010000
00001000
,
00010000
01000000
00010000
00001000
00001100
00000000
00000100
00000000
,
00001001
00001100
00001001
00011000
,
20020000
00000000
00000000
30030000
,
10000000
00000000
01000000
00000000
00100000
00000000
00010000
01000000
00000000
00000000
01010000
00000000
00000000
00011000
00000000
00000000
,
00001000
00000000
00000100
00000000
00000001
00000000
00000010
00000100
00000000
00000000
00000110
00000000
00000000
00000011
00000000
00000000
,
00000001
00000000
00000100
00000000
00001000
00000000
00010000
01000000
00000000
00000000
01010000
00000000
00000000
01100000
00000000
00000000
,
01000000
00000000
00100000
00000000
00010000
00000000
00100000
00010000
00000000
00000000
00110000
00000000
00000000
00011000
00000000
00000000
,
00001000
00000000
00000010
00000000
00000001
00000000
00000100
00000001
00000000
00000000
00000101
00000000
00000000
00001100
00000000
00000000
,
00000001
00000000
00000100
00000000
00000001
00000000
00000010
00000100
00000000
00000000
00000110
00000000
00000000
00001001
00000000
00000000
,
00000001
00000000
00001000
00000000
00000001
00000000
00000100
00001000
00000000
00000000
00001100
00000000
00000000
00011000
00000000
00000000
,
01000000
00000000
00010000
00000000
00100000
00000000
01000000
10000000
00000000
00000000
11000000
00000000
00000000
10010000
00000000
00000000
,
10000000
00000000
01000000
00000000
00010000
00000000
00001000
00010000
00000000
00001000
00010000
00000000
00001000
00010000
00000000
00001000
,
00010000
00000000
00000100
00000000
00000010
00000000
00000001
00000100
00000000
00000001
00000100
00000000
00000001
00000100
00000001
00000100
,
00000001
00000000
00001000
00000000
00000001
00000000
00000100
00000010
00000000
00000100
00000010
00000000
00000000
00000000
00001000
00000000
,
00000001
00000000
00000100
00000000
00001000
00000000
00010000
00001000
00000000
00010000
00001000
00000000
00000000
00000000
00000000
00000000
,
00100000
00000000
01000000
00000000
10000000
00000000
00010000
10000000
00000000
00010000
10000000
00000000
00010000
10000000
00000000
00010000
,
10000000
00000000
01000000
00000000
00010000
00000000
00001000
00010000
00000000
00001000
00010000
00000000
00001000
00010000
00001000
00010000
,
00001000
00000000
00000100
00000000
00000001
00000000
00001000
00000100
00000000
00001000
00000100
00000000
00001000
00000000
00000001
00000000
,
00001000
00000000
00000001
00000000
00001000
00000000
00000000
00000000
00000100
00000000
00000000
00001000
00000000
00000000
00000001
00000000
,
00001001
00000000
00000000
00000000
;

//---------------dance-single - ----------------
#NOTES:
     dance-single:
     :
     Challenge:
     12:
     1.081633,1.196697,0.419048,0.085714,1.471429,795.000000,751.000000,44.000000,9.000000,46.000000,4.000000,1.081633,1.196697,0.419048,0.085714,1.471429,795.000000,751.000000,44.000000,9.000000,46.000000,4.000000:
// measure 0
0000
0000
0000
0000
,  // measure 1
0000
0000
0000
0000
,  // measure 2
0000
0000
0000
0000
,  // measure 3
0000
0000
0000
0000
,  // measure 4
0010
1000
0100
0010
0100
0000
0010
0100
0000
0010
0100
0000
M11M
0000
0000
0000
,  // measure 5
0010
0001
0100
0001
1000
0000
0001
1000
0000
0001
1000
0000
1MM1
0000
0000
0000
,  // measure 6
0001
1000
0100
1000
0010
0000
1000
0010
0000
1000
0010
0000
1M1M
0000
0000
0000
,  // measure 7
0001
0100
0010
0100
0001
0000
0100
0001
0000
0100
0002
0000
0M00
0000
0003
0000
,  // measure 8
0010
0001
0100
0010
0100
0000
0010
1000
0100
0010
0100
0000
0010
0000
00M0
0000
,  // measure 9
0001
0100
0010
1000
0010
0000
1000
0010
0100
0001
0100
0000
1001
0000
0101
0000
,  // measure 10
0100
0001
1000
0100
0010
0000
0100
0010
0001
1000
0001
0000
0100
0000
0M00
0000
,  // measure 11
0010
1000
0001
1000
0100
0000
0010
0001
1000
0001
0100
0000
0101
0000
1010
0000
,  // measure 12
0100
0010
0100
0001
0100
0000
0010
0100
0010
1000
0010
0000
0100
0000
0M00
0000
,  // measure 13
0001
0010
0100
0010
0001
0000
1000
0100
0010
0100
1000
0000
1100
0000
0011
0000
,  // measure 14
0100
0001
0010
0100
1000
0000
0010
1000
0100
0010
0001
0000
0100
0000
0110
0000
,  // measure 15
2002
0000
0000
0000
0000
0000
0000
0000
0010
0000
0000
0010
0000
0000
30M3
0000
,  // measure 16
1001
0000
0001
0000
0101
0000
0100
0010
1000
0100
0010
0000
0110
0000
0010
0000
,  // measure 17
0001
0000
1000
0000
1010
0000
0010
1000
0100
0010
0001
0000
0101
0000
1001
0000
,  // measure 18
0001
0010
0100
1000
0010
0100
0010
0100
0001
0010
0001
1000
0010
0100
0010
0000
,  // measure 19
0010
1000
0001
0010
0100
0010
0001
0100
0010
1000
0001
0010
0100
0010
0001
0000
,  // measure 20
0011
0000
1000
0000
1001
0000
1000
0010
0100
0001
0010
0000
0110
0000
0100
0000
,  // measure 21
0010
0000
0001
0000
1100
0000
0100
1000
0010
0100
0001
0000
0101
0000
1010
0000
,  // measure 22
1000
0100
0010
0001
0100
0000
0010
0100
0010
1000
0001
0000
1001
0000
1010
0000
,  // measure 23
0010
1000
0100
0010
0001
1000
0010
1000
2020
0000
0000
0000
0M01
0000
0000
3030
,  // measure 24
0010
1000
0100
0010
0001
0100
0001
1000
0010
0000
0100
0010
1000
0010
0100
0000
,  // measure 25
0001
0010
0100
0010
0100
1000
0001
0100
0010
0000
0100
0010
0100
0001
0010
0000
,  // measure 26
0100
0010
0100
1000
0010
0100
0001
0010
0001
0000
1000
0010
0100
0001
0010
0000
,  // measure 27
0100
0010
0100
1000
0010
0100
0010
1000
0001
0000
1000
0010
0100
0010
0100
0000
,  // measure 28
0010
1000
0001
0010
0100
0010
0001
0100
0001
1000
0010
0100
0001
0010
0100
1000
,  // measure 29
0001
0010
0001
0100
0001
0100
0010
0100
0001
0010
0001
0100
0001
0010
0100
1000
,  // measure 30
0010
0000
0000
1000
0000
0000
0010
0000
0000
1000
0000
0000
0010
0000
1000
0000
0010
0000
1000
0000
0000
0010
0000
0000
1000
0000
0000
0010
0000
0000
0100
0000
0000
0010
0000
0000
0100
0000
0000
0010
0000
0000
0100
0000
0010
0000
0100
0000
,  // measure 31
0010
0000
0000
0100
0000
0000
0001
0000
0100
0000
0001
0000
0100
0000
0000
0010
0000
0000
1000
0000
0001
0000
1000
0000
0001
0000
0000
1000
0000
0000
0100
0000
1000
0000
0100
0000
1000
0000
0000
0100
0000
0000
0010
0000
0001
0000
0010
0000
,  // measure 32
0001
0001
1M01
1000
0100
0010
0M11
0001
,  // measure 33
0100
0000
M010
0000
011M
0000
0100
0000
0001
0000
0010
0000
M110
0000
0100
000M
,  // measure 34
1000
01M0
1100
1000
001M
0100
0110
M100
,  // measure 35
0001
0M00
0010
0000
0110
0000
0100
00M0
1000
0000
001M
0000
1M10
0000
0010
0000
,  // measure 36
1000
01M0
1001
0M10
M001
01M0
1001
0010
,  // measure 37
M10M
0000
0010
0000
1001
00M0
0100
0000
M010
0000
0100
0000
1010
0000
0100
0000
,  // measure 38
0010
0M00
1000
0000
0110
0000
M001
00M0
0100
0000
M010
0000
0101
0000
1000
0000
,  // measure 39
0040
0100
0000
0000
0000
0000
0000
0100
0000
0000
1000
0000
0000
1000
0030
0000
,  // measure 40
0010
1000
0100
0010
0001
0000
0100
0010
1000
0001
0010
0100
0010
0000
0001
0100
,  // measure 41
0001
0100
0010
1000
0001
0000
0010
0100
0010
0001
1000
0010
0100
0000
0010
1000
,  // measure 42
0100
0010
0001
0010
0100
0000
0010
0001
1000
0010
0100
0010
1000
0000
0001
0010
,  // measure 43
0100
0010
0001
1000
0010
0000
0100
0010
1000
0001
0010
0100
0010
0000
0001
0100
,  // measure 44
0010
1000
0001
0010
0100
1000
0100
0010
0001
0100
0010
0100
0001
0000
1000
0001
,  // measure 45
0010
0000
0000
0100
0000
0000
0010
0000
0000
0001
0000
0000
0100
0000
0000
0010
0000
0000
0100
0000
0000
0001
0000
0000
0100
0000
0000
0010
0000
0000
1000
0000
0000
0100
0000
0000
0010
0000
0000
0001
0000
0000
1000
0000
0010
0000
1000
0000
,  // measure 46
0010
0000
0000
1000
0000
0000
0010
0000
0000
0100
0000
0000
0010
0000
0000
0100
0000
0000
0010
0000
0100
0000
0010
0000
0100
0000
0000
0010
0000
0000
0100
0000
0000
0001
0000
0000
0100
0000
0000
0001
0000
0000
0100
0000
0001
0000
0100
0000
,  // measure 47
0001
0000
0000
0100
0000
0000
0010
0000
0100
0000
0010
0000
0100
0000
0000
0010
0000
0000
0100
0000
0000
0020
0000
0000
0200
0000
0000
0000
0000
0000
0000
0000
0000
0001
0000
0000
0000
0000
0000
0000
0000
0000
033M
0000
0000
0000
0000
0000
,  // measure 48
0010
1000
0001
0010
0100
0000
0010
0001
1000
0010
0100
0000
0010
1000
0100
0000
,  // measure 49
1000
0100
0010
0100
0010
0000
0001
0100
0010
1000
0010
0000
0100
0001
0010
0000
,  // measure 50
0001
0010
0100
1000
0010
0000
1000
0100
0010
0001
0100
0000
0010
1000
0010
0000
,  // measure 51
1000
0010
0100
0001
1000
0000
0100
0010
0100
1000
0010
0000
0100
0010
1000
0000
,  // measure 52
0010
1000
0001
1000
0010
0000
0010
1000
0001
1000
0010
0000
0100
0001
0010
0000
,  // measure 53
0010
0100
1000
0100
0010
0000
0010
0100
1000
0100
0010
0000
0010
0001
1000
0000
,  // measure 54
0100
1000
0001
1000
0010
0000
0100
0010
1000
0100
0010
0000
0001
0100
0010
0000
,  // measure 55
1000
0010
1000
0001
1000
0000
1000
0100
1000
0010
1000
0000
0001
0100
0010
0000
,  // measure 56
0100
0001
0010
0100
0010
0001
0100
0010
0100
0001
1000
0100
0010
0100
1000
0010
,  // measure 57
0100
0010
1000
0001
0010
0100
1000
0001
0100
0010
1000
0100
0010
0001
1000
0010
,  // measure 58
0100
0001
0010
0001
1000
0010
1000
0001
0100
0001
1000
0100
1000
0010
0100
0001
,  // measure 59
0010
0100
1000
0100
0010
0001
1000
0010
0100
0001
0010
0001
1000
0100
0010
0100
,  // measure 60
0010
0001
0100
0010
1000
0001
0010
0100
1000
0001
1000
0100
0010
0100
0010
0001
,  // measure 61
0100
0000
0000
0010
0000
0000
1000
0000
0000
0001
0000
0000
0010
0000
0000
0100
0000
0000
0010
0000
0000
0001
0000
0000
1000
0000
0000
0010
0000
0000
0100
0000
0000
0001
0000
0000
1000
0000
0000
0100
0000
0000
1000
0000
0100
0000
1000
0000
,  // measure 62
0100
0000
0000
0010
0000
0000
0100
0000
0000
0010
0000
0000
0100
0000
0000
0010
0000
0000
0100
0000
0010
0000
0100
0000
0010
0000
0000
0001
0000
0000
0010
0000
0000
0001
0000
0000
0010
0000
0000
0001
0000
0000
0010
0000
0001
0000
0010
0000
,  // measure 63
0001
0000
0000
1000
0000
0000
0001
0000
0010
0000
0100
0000
1000
0000
0000
0100
0000
0000
1000
0000
0000
0100
0000
0000
1100
0000
0000
0000
0000
0000
0000
0000
0000
MM11
0000
0000
0000
0000
0000
0000
0000
0000
0110
0000
0000
0000
0000
0000
,  // measure 64
2002
0MM0
0000
0000
3003
0000
0000
MMMM
0000
0000
0000
0000
0000
0000
0000
0000
;
