#TITLE:Liquify (Remix);
#SUBTITLE:;
#ARTIST:CanBlaster (as Dr. Tanner);
#TITLETRANSLIT:;
#SUBTITLETRANSLIT:;
#ARTISTTRANSLIT:;
#GENRE:;
#CREDIT:;
#BANNER:banner.png;
#BACKGROUND:background.png;
#LYRICSPATH:;
#CDTITLE:;
#MUSIC:liquifyremix.ogg;
#OFFSET:0.010000;
#SAMPLESTART:38.609001;
#SAMPLELENGTH:11.960000;
#SELECTABLE:YES;
#BPMS:0.000000=135.000000
;
#STOPS:
;
#BGCHANGES:;
#KEYSOUNDS:;
#ATTACKS:;

//---------------dance-single - Benny Factor----------------
#NOTES:
     dance-single:
     Benny Factor:
     Hard:
     12:
     0.707906,1.016155,0.523117,0.361426,0.794187,521.000000,466.000000,55.000000,38.000000,44.000000,1.000000,0.707906,1.016155,0.523117,0.361426,0.794187,521.000000,466.000000,55.000000,38.000000,44.000000,1.000000:
0000
0000
0000
0000
,
0000
0000
0000
0000
,
0000
0000
0000
0000
,
0000
0000
0000
0000
,
0000
0000
0000
0000
M1M1
0000
0000
0000
11MM
0000
0000
0000
0010
1000
0100
0010
,
0002
1003
0100
0010
,
0001
0100
0010
2001
,
3010
0120
0130
2001
,
3001
0000
0000
0000
0000
0000
0000
0000
0000
0000
0000
0000
2000
0000
0000
3000
,
1002
0000
1000
0003
0201
0000
0001
0300
0120
0000
0100
0030
2010
0000
0010
3000
,
1200
0000
0010
0300
2100
0000
0001
3000
1020
0000
0100
0030
2010
0000
0100
3000
,
1200
0000
0010
0300
2100
0000
0001
3000
1200
0000
0010
0300
2100
0000
0010
3000
,
1020
0000
0001
0030
0210
0000
0001
0300
0120
0000
0030
0000
MMMM
0000
0000
0000
,
1000
0010
1000
0000
0100
0000
0010
0000
0100
1000
0001
0100
0010
0000
0100
0000
,
0001
0000
0010
0001
0000
0100
0010
0000
1000
0100
1000
0010
0100
0001
0010
0001
,
0100
0010
1000
0000
1000
0000
0100
0000
0000
1000
0010
0100
0001
0100
0010
0000
,
0010
0000
0100
0001
0000
0001
0010
0000
0100
1000
0010
0100
0001
0010
0100
0010
,
0001
1000
0100
0000
0100
0000
1000
0000
0000
1000
0010
0100
0001
0010
0100
0000
,
0010
0000
0001
0100
0000
0100
0010
0000
1000
0010
0100
0001
1000
0100
0010
0001
,
0100
0010
1000
0000
0010
0000
0100
0000
0000
0100
0001
0010
0001
1000
0100
0000
,
0100
0000
0000
0000
0000
0000
1000
0000
0000
0010
0000
0000
0000
0000
0000
0010
0000
0000
0100
0000
0000
0000
0000
0000
0100
0000
0000
0001
0000
0000
0000
0000
0000
0000
0000
0000
0010
0000
0000
0000
0000
0000
0001
0000
0010
0000
0100
0000
,
1000
0000
0001
0000
1000
0001
0000
0202
0000
0000
0000
0000
0000
0000
0003
0000
,
0001
0000
0010
1000
0010
0301
1M1M
M1M1
,
0001
0000
0010
0100
1000
0001
0100
0020
0000
0000
0000
0000
0000
0000
M000
0M00
,
000M
0000
M000
0000
0M00
0000
M030
0000
100M
0010
0000
0010
0100
0000
M001
0000
,
1001
0000
0000
100M
0000
0000
1001
0000
0000
0000
0000
0000
MM11
0000
0000
0000
,
12MM
0000
0000
0010
0000
0000
0010
0000
1300
0000
0000
0000
1MM1
0000
0001
0000
,
2000
0000
3001
0000
0001
0100
0000
0010
0000
0010
1000
0000
0100
0000
0011
0000
,
2200
0000
0000
0000
0000
0000
0000
3300
,
1001
0000
100M
M001
1001
100M
0000
0000
,
0000
01M0
0110
01M0
,
M021
0100
0000
0000
,
0002
0000
0000
0000
0000
0000
0000
0000
0000
0000
0000
0000
0000
0000
0000
0000
0000
0000
0000
0000
0000
0000
0000
0000
0000
0000
0000
0000
0000
0000
0000
0000
0000
0000
0000
0000
0003
0000
0000
0001
0000
0000
0000
0000
0031
0000
0000
0000
,
MM11
0000
0000
0000
1000
0000
0000
1000
0001
0000
0001
0000
0100
0000
0010
0000
,
0010
0000
0000
0000
1000
0000
0000
1000
0100
0000
0100
0000
0010
0001
0100
0010
,
1000
0000
0000
0000
0000
0000
0000
0000
0000
0000
0000
0000
0001
0000
0000
0000
0000
0000
0000
0000
0000
1000
0000
0000
0001
0000
0000
0000
0000
0000
0100
0000
0000
0000
0000
0000
0010
0000
0000
0000
1000
0000
0000
0000
0001
0000
0000
0000
,
0010
0000
0000
0000
0100
0000
0000
1000
0010
0100
0001
1000
0010
0100
0001
0010
,
0100
0000
0000
0000
0010
0000
0000
0010
0001
0000
0001
0000
0100
0000
0001
0000
,
0001
0000
0000
0000
0000
0000
0000
0000
1000
0000
0000
0000
0000
0000
0100
0000
1000
0000
0000
0000
0100
0000
0000
0000
1000
0100
0010
0100
1000
0100
0010
0100
,
1000
0000
0000
0000
0000
0000
0000
0000
0000
0000
0000
0000
0000
0000
0000
0000
0000
0000
0000
0000
0000
0000
0000
0000
0000
0000
0000
0000
0000
0000
0000
0000
0000
0000
0000
0000
0000
0000
0000
0000
0000
0000
0000
0000
0000
0000
0000
0000
0100
0000
0000
0000
0000
0000
0000
0000
0000
0000
0000
0000
0000
0000
0000
0000
0000
0000
0000
0000
0000
0000
0000
0000
0000
0000
0000
0000
0000
0000
0000
0000
0000
0000
0000
0000
1000
0000
0000
0000
0000
0000
0000
0000
0000
0000
0000
0000
0010
0000
0000
0000
0000
0000
0100
0000
0000
0000
0000
0000
0001
0000
0000
0000
0000
0000
1000
0000
0000
0000
0000
0000
0010
0000
0000
0000
0000
0000
0000
0000
0100
0000
0000
0000
0000
0000
0000
0000
0001
0000
0000
0000
0000
0000
0000
0000
0010
0000
0000
0000
0000
0000
0000
0000
0000
0000
0000
0000
0000
0000
0000
0000
0100
0000
0000
0000
0000
0000
0000
0000
1000
0000
0000
0000
0000
0000
0000
0000
0000
0000
0000
0000
0000
0000
0000
0000
0000
0000
0000
0000
0000
0000
0000
0000
,
0020
0000
0100
0000
0001
0000
0000
0130
0010
0000
0000
1000
0001
0000
1001
0000
,
0102
0100
1000
0100
0100
1000
1003
0110
,
2001
0001
0010
0010
0001
0010
3001
1001
,
1020
0100
0001
0100
1000
0100
1030
1001
,
0201
0000
0000
0010
0000
0000
0010
0000
0000
1000
0000
0000
0010
0000
0000
0001
0000
0000
0310
0000
1001
0000
0001
0000
,
1000
0100
1000
0001
0100
0010
1000
0100
0010
0100
1000
0000
1001
0000
1001
0000
,
1000
0001
0100
0010
1000
0001
0010
0001
1000
0100
1000
0000
1100
0000
0101
0000
,
0100
0001
0100
0010
1000
0100
0010
0100
1000
0001
1000
0000
1001
0000
1100
0000
,
0200
0000
0000
0000
0000
0000
0000
0000
0000
0000
0000
0000
0000
0000
0000
0000
0000
0000
0000
0000
0000
0000
0000
0000
0000
0000
0000
0000
0000
0000
0000
0000
0000
0000
0000
0000
0000
0000
0000
0000
2000
0000
0000
0000
0000
0000
0000
0000
0300
0000
0000
0000
0000
0000
0000
0000
3000
0000
0000
0000
0100
0000
0000
0000
0000
0000
1000
0000
0000
0000
0000
0000
0100
0000
0000
0000
0000
0000
1000
0000
0000
0000
0000
0000
0100
0000
0000
0000
0000
0000
1000
0000
0000
0000
0000
0000
0100
0000
0000
0000
0000
0000
0000
0000
1000
0000
0000
0000
0000
0000
0000
0000
0100
0000
0000
0000
0000
0000
0000
0000
0010
0000
0000
0000
0000
0000
0000
0000
0100
0000
0000
0000
0000
0000
0000
0000
1000
0000
0000
0000
0000
0000
0000
0000
0001
0000
0000
0000
0000
0000
0000
0000
0000
0000
0000
0000
0000
0000
0000
0000
0000
0000
0000
0000
0000
0000
0000
0000
0100
0000
0000
0000
0000
0000
0000
0000
0000
0000
0000
0000
0000
0000
0000
0000
0000
0000
0000
0000
0000
0000
0000
0000
,
0001
0000
0100
0000
0100
0001
0000
0010
0000
0001
0100
0000
0010
0000
1000
0000
,
0100
0000
1000
0000
0001
0100
0010
1000
0001
0000
1000
0000
0000
0000
0100
0000
0010
0000
0001
0000
0000
0000
1100
0000
0000
0000
0000
0000
1000
0000
0010
0000
,
0100
0000
0100
0000
0001
1000
0010
0100
0001
0010
0000
0010
0001
0000
0100
0000
,
0010
0000
1000
0000
0010
0100
0001
1000
0001
0000
1000
0000
0000
0000
0100
0000
0000
0000
0010
0000
0001
0000
0100
0000
0000
0000
0100
0000
0010
0000
1000
0000
,
0100
0000
0000
0000
0010
0000
0000
0000
0001
0000
0100
0000
0010
0000
1000
0000
0000
0000
1000
0000
0100
0000
0000
0000
0010
0000
0000
0000
0001
1000
0001
0100
,
0010
0000
0000
0000
0000
0000
0000
0000
0000
0000
0000
0000
0100
0000
0000
0000
0000
0000
0000
0000
0000
0000
0000
0000
0001
0000
0000
0000
0000
0000
1000
0000
0000
0000
0000
0000
0001
0000
0000
0000
0000
0000
0100
0000
0000
0000
0000
0000
0010
0000
0000
0000
0000
0000
0000
0000
0000
0000
0000
0000
0100
0000
0000
0000
0000
0000
0000
0000
0000
0000
0000
0000
0010
0000
0000
0000
0000
0000
1000
0000
0000
0000
0000
0000
0001
0000
0000
0000
0000
0000
1000
0000
0000
0000
0000
0000
0010
0000
0000
0000
0000
0000
0000
0000
0000
0000
0000
0000
0100
0000
0000
0000
0000
0000
0000
0000
0000
0000
0000
0000
0000
0000
0000
0000
0000
0000
0000
0000
0010
0000
0000
0000
0000
0000
0000
0000
0000
0000
0000
0000
0000
0000
0000
0000
1000
0000
0000
0000
0000
0000
0000
0000
0000
0000
0000
0000
0000
0000
0000
0000
0100
0000
0000
0000
0000
0000
0000
0000
0000
0000
0000
0000
0000
0000
0000
0000
0010
0000
0000
0000
0000
0000
0000
0000
0000
0000
0000
0000
0000
0000
0000
0000
,
0010
0000
0001
0000
0100
0000
0000
0000
0100
0000
0010
0000
1000
0000
0100
0000
0000
0000
1000
0010
0100
0000
0001
0000
1000
0000
0001
1000
0100
0000
0010
0000
,
0001
0000
0000
M11M
0000
0000
M1M1
0000
1M1M
0000
0000
2MM2
,
0000
0000
0000
0000
0000
0M10
0000
0000
0000
3003
0000
0000
;

//---------------dance-single - ----------------
#NOTES:
     dance-single:
     :
     Challenge:
     12:
     0.925306,1.200554,0.951122,0.504095,1.231703,681.000000,578.000000,100.000000,53.000000,76.000000,16.000000,0.925306,1.200554,0.951122,0.504095,1.231703,681.000000,578.000000,100.000000,53.000000,76.000000,16.000000:
// measure 0
0000
0000
0000
0000
0000
0000
0000
0000
0000
0000
0000
0000
0000
0000
0000
1000
,  // measure 1
4M04
0000
0000
0000
0000
0000
00M0
0000
0000
0000
0000
0000
0M00
0000
0000
0000
0000
0000
00M0
0000
0000
0000
0000
0000
0M00
0000
0000
0000
0000
0000
00M0
0000
0000
0000
0000
0000
0M00
0000
0000
0000
0000
0000
00M0
0000
0000
0000
0000
0000
0M00
0000
0000
0000
0000
0000
0000
0000
0000
0000
0000
0000
00M0
0000
0000
0000
0000
0000
0000
0000
0000
0000
0000
0000
0M00
0000
0000
0000
0000
0000
0000
0000
0000
0000
0000
0000
00M0
0000
0000
0000
0000
0000
0000
0000
0000
0000
0000
0000
0M00
0000
0000
0000
0000
0000
0000
0000
0000
0000
0000
0000
00M0
0000
0000
0000
0000
0000
0000
0000
0000
0000
0000
0000
0000
0000
0000
0000
0000
0000
0000
0000
0M00
0000
0000
0000
0000
0000
0000
0000
0000
0000
0000
0000
0000
0000
0000
0000
00M0
0000
0000
0000
0000
0000
0000
0000
0000
0000
0000
0000
0000
0000
0000
0000
0000
0000
0000
0000
0000
0000
0000
0000
0000
0000
0000
0000
0000
0000
0000
0000
0M00
0000
0000
0000
0000
0000
0000
0000
0000
0000
0000
0000
0000
0000
0000
0000
,  // measure 2
0000
0000
0003
0000
,  // measure 3
3000
0000
0000
0000
0000
0020
0000
0000
,  // measure 4
1030
0000
0000
0000
101M
0000
0000
0000
10M1
0000
0000
0000
1000
0100
0010
0001
,  // measure 5
MM11
0000
0010
0001
0100
0001
0010
0000
0001
0100
0000
0001
0020
0000
0000
0031
,  // measure 6
0020
0031
2M01
3010
M210
0301
M021
0130
,  // measure 7
021M
0301
02M1
1300
102M
0031
0M21
1030
,  // measure 8
11MM
0000
0000
0000
0000
0000
0000
0000
0000
0000
0000
0000
11MM
0000
0000
0000
0000
0000
0000
0000
0000
0000
0000
0000
M11M
0000
0000
0000
0000
0000
0000
0000
MM00
0011
0000
0000
0000
0000
0000
0000
0MM0
0000
1001
0000
0000
0000
0000
0000
,  // measure 9
11MM
0000
0100
1000
0010
0000
0100
0001
0100
0000
0001
0010
0100
0000
1000
0001
,  // measure 10
1000
0000
0010
1000
0001
0000
0010
0100
1000
0000
0010
0100
0001
0000
0010
0100
,  // measure 11
0010
0000
0001
0100
1000
0000
0100
0010
1000
0000
0100
0001
0100
0000
0010
0001
,  // measure 12
0100
0000
0010
0100
1000
0000
0100
0001
0010
0000
0010
0001
0200
0000
0000
0300
,  // measure 13
0M10
1000
0100
0000
0110
0000
1001
0000
0001
0010
0001
0010
0100
1000
0010
0000
,  // measure 14
0110
0000
0101
0001
0000
0010
0001
0000
1000
0100
0001
0100
1000
0010
0001
0010
,  // measure 15
1000
0100
0010
0000
0021
0000
0130
0000
0100
1000
0100
1000
0010
0100
0001
0000
,  // measure 16
0101
0000
0100
0110
0000
0001
1001
0000
1100
0100
0010
0001
0100
0010
1000
0100
,  // measure 17
0001
0100
1000
0000
1010
0000
0101
0000
0001
0010
0100
0010
1000
0010
0001
0000
,  // measure 18
0201
0000
0302
0010
0000
0023
1000
0030
1000
0010
1000
0010
0001
0100
0001
0100
,  // measure 19
0010
0100
0001
0000
1001
0000
1010
0000
0010
1000
0100
1000
0010
0100
0001
0000
,  // measure 20
0011
0000
0000
0000
0001
0000
0011
0000
0000
0000
0010
0000
0110
0000
0000
0000
0100
0000
1100
0000
0000
0000
1000
0000
1001
0000
0000
0000
0001
1000
0001
1000
,  // measure 21
0001
0000
0001
0000
0010
0001
0000
02M1
0000
0000
0000
0000
0000
0000
0000
0000
,  // measure 22
M010
0000
0000
0000
0000
0000
10M0
0000
0000
0000
0010
0000
M010
0000
0000
0310
0000
0000
M110
0000
0000
101M
0000
0000
,  // measure 23
0M11
0000
0010
0001
0100
0001
1000
0020
0000
0000
0000
0000
0000
0000
0130
0010
,  // measure 24
1000
0000
0010
0000
0001
0000
0010
0000
0100
0001
0000
0010
0100
0000
1100
0000
,  // measure 25
11M1
0000
0000
111M
0000
0000
1M11
0000
0001
1000
0001
1000
0020
0000
0000
0030
,  // measure 26
0110
0000
0000
1010
0000
0000
2000
0000
01M1
0000
0000
0000
3200
0000
M320
0030
,  // measure 27
0M11
0000
0011
0000
1000
1010
0000
0110
0000
0010
0101
0000
1001
0000
0110
0000
,  // measure 28
2002
0000
0000
0000
0000
0000
0000
3000
,  // measure 29
M023
0000
0000
0000
0000
0000
2030
0000
0000
0000
0010
0000
3020
0000
0000
M200
0000
0000
0000
0000
0000
0000
0000
0000
,  // measure 30
0000
0030
20M0
0300
0M20
3000
M200
0030
,  // measure 31
00M2
0300
2M00
0000
0000
0000
0003
000M
,  // measure 32
3010
0100
0010
1000
0001
1000
0001
0100
0010
1000
0010
0100
0001
0010
0100
1000
0100
0010
0001
0000
1000
0000
0001
0000
,  // measure 33
1000
0000
0010
0000
0100
0000
0001
0000
0010
0000
0100
0000
1000
0000
0000
0100
0000
0000
1000
0000
0000
0010
0000
0000
0100
0000
0000
0000
0001
0000
0000
0000
0010
0000
0000
0000
0001
0000
0000
0000
1000
0000
0000
0000
0001
0000
0000
0000
,  // measure 34
0202
0000
0000
0000
M010
0000
0000
M010
0000
0003
0301
0000
1000
0100
0010
0001
,  // measure 35
2002
0000
0000
0000
0000
0000
0000
0000
0000
0000
0000
0000
0M10
0000
0000
0000
0000
0000
3003
0000
0000
11M0
0000
0000
0000
0000
0000
0000
0000
0000
0M11
0000
0000
0000
0000
0000
1010
0000
0000
0000
0110
0000
0000
0000
1001
0000
0000
0000
,  // measure 36
0022
0000
0000
0000
1M00
0000
0030
0013
0100
0010
1000
0010
0100
0010
0001
0100
,  // measure 37
0202
0000
0000
0000
10M0
0000
0000
M010
0000
0303
0001
0000
0101
0000
0010
0000
,  // measure 38
2200
0000
0000
0000
0000
0000
0000
0000
001M
0000
0000
0000
0300
0000
3200
0000
0000
0000
0000
0000
0310
0000
0000
0000
0100
0010
0100
0010
0100
0010
0100
0020
,  // measure 39
0200
0000
0000
0000
0000
0000
0000
0000
0000
0000
0000
0000
100M
0000
0000
0000
0000
0000
0330
0000
0000
0100
0000
0000
0010
0000
0001
0000
0010
0000
0001
0000
0000
0000
1000
0000
0010
0000
0000
0000
0010
0000
0100
0000
0000
0000
0000
0000
,  // measure 40
0220
0000
0000
0000
1001
0000
0330
0010
1020
0000
0000
0031
0010
0000
0100
0000
,  // measure 41
0001
0100
0001
0100
0010
1000
0010
1000
0001
0010
0100
0010
0001
0100
0010
1000
,  // measure 42
0001
0010
0001
0100
0001
0010
0001
1000
0010
0100
0010
0001
0010
0100
0010
1000
,  // measure 43
0100
0001
0100
1000
0001
1000
0010
0100
0010
1000
0001
0010
1000
0010
1000
0010
,  // measure 44
0100
0000
0000
1000
0000
0000
0010
0000
0000
0100
0000
0000
0001
0000
0000
0100
0000
0000
1000
0000
0000
0100
0000
0000
0010
0000
0000
1000
0000
0000
0001
0000
0000
0010
0000
0000
0011
0000
0000
0000
0110
0000
0000
0000
1100
0000
0000
0000
,  // measure 45
1001
1000
0001
1000
0010
0100
0001
0010
0001
1000
0010
1000
0010
0100
0010
0001
,  // measure 46
0010
0100
0001
1000
0001
0010
0100
0010
0001
1000
0100
0001
0100
1000
0001
0100
,  // measure 47
1000
0100
0001
1000
0010
0001
0010
1000
0001
0010
1000
0010
0001
0100
0001
1000
,  // measure 48
0040
0000
0000
0000
0000
0000
0000
0000
0130
0000
0000
0000
0100
0000
0001
0000
1000
0000
0010
0000
1000
0000
0001
0000
0010
0000
0100
0000
0010
0000
0001
0000
0000
0100
0000
0000
0101
0000
0000
0000
0000
0000
0110
0000
0000
0000
0000
0000
,  // measure 49
1010
0000
1010
0000
0100
0101
0000
0011
0000
0010
0100
0000
1100
0000
0011
0000
,  // measure 50
0101
0000
0001
0000
0100
0000
0010
0100
0010
0000
1000
0000
0010
0000
0100
0000
0002
0000
0010
0000
0000
0000
0020
0000
0003
0000
0000
0000
1030
0000
0000
0000
,  // measure 51
0110
0000
0110
0000
0011
0010
0001
0100
0020
0000
1030
0000
1010
0000
0101
0000
,  // measure 52
1001
0000
1000
0000
0010
1000
0010
1000
0010
0000
0100
0000
0000
0000
0101
0000
0000
0000
0001
0000
1000
0000
0010
0000
0000
0000
0010
0000
0100
0000
0001
0000
,  // measure 53
0101
0000
0000
0000
0101
0000
0000
0000
0110
0000
0010
0000
1000
0000
0100
0000
0001
0000
0100
0000
0010
0000
0000
0000
0011
0000
0000
0000
1000
0010
1000
0010
,  // measure 54
1000
0000
0000
0000
0000
0000
0000
0000
0000
0000
0000
0000
0100
0000
0000
0000
0000
0000
0000
0000
0000
0000
0000
0000
0010
0000
0000
0000
0000
0000
0001
0000
0000
0000
0000
0000
0010
0000
0000
0000
0000
0000
0001
0000
0000
0000
0000
0000
0010
0000
0000
0000
0000
0000
0000
0000
0000
0000
0000
0000
0100
0000
0000
0000
0000
0000
0000
0000
0000
0000
0000
0000
1000
0000
0000
0000
0000
0000
0001
0000
0000
0000
0000
0000
1000
0000
0000
0000
0000
0000
0001
0000
0000
0000
0000
0000
1000
0000
0000
0000
0000
0000
0000
0000
0000
0000
0000
0000
0000
0000
0000
0000
1010
0000
0000
0000
0000
0000
0000
0000
0000
0000
0000
0000
0000
0000
0000
0000
0101
0000
0000
0000
0000
0000
0000
0000
0000
0000
0000
0000
0000
0000
0000
0000
0011
0000
0000
0000
0000
0000
0000
0000
0000
0000
0000
0000
0000
0000
0000
0000
1100
0000
0000
0000
0000
0000
0000
0000
0000
0000
0000
0000
0000
0000
0000
0000
0110
0000
0000
0000
0000
0000
0000
0000
0000
0000
0000
0000
0000
0000
0000
0000
,  // measure 55
1001
0000
1000
0000
0010
0000
0000
0000
0100
0000
0001
0000
0010
0000
0100
0000
0010
0000
0001
0010
0001
0000
1000
0000
0010
0000
1000
0010
1000
0000
0001
0000
,  // measure 56
0201
0000
0000
0000
0020
0000
0000
0000
0001
0000
0000
0001
0000
0000
0001
0000
,  // measure 57
0000
0000
0330
MMMM
0000
0000
0000
0000
;
