#TITLE:Lament Configuration;
#SUBTITLE:;
#ARTIST:Rephaim;
#TITLETRANSLIT:;
#SUBTITLETRANSLIT:;
#ARTISTTRANSLIT:;
#GENRE:;
#CREDIT:;
#BANNER:Lament Configuration.png;
#BACKGROUND:Lament Configuration-bg.png;
#LYRICSPATH:;
#CDTITLE:;
#MUSIC:Lament Configuration.mp3;
#OFFSET:-0.041000;
#SAMPLESTART:6.678001;
#SAMPLELENGTH:12.000000;
#SELECTABLE:YES;
#BPMS:0.000000=140.000000
;
#STOPS:
;
#BGCHANGES:;
#KEYSOUNDS:;
#ATTACKS:;

//---------------dance-single - ----------------
#NOTES:
     dance-single:
     :
     Easy:
     2:
     0.168063,0.248155,0.064336,0.082718,0.000000,128.000000,121.000000,7.000000,9.000000,0.000000,0.000000,0.168063,0.248155,0.064336,0.082718,0.000000,128.000000,121.000000,7.000000,9.000000,0.000000,0.000000:
0000
0000
0000
0000
,
0000
0000
0000
0000
,
0000
0000
0000
0000
,
0000
0000
0000
0000
,
1001
0000
0010
0000
,
0100
0000
0001
0000
,
1001
0000
0100
0000
,
0001
0000
0001
0000
,
0110
0000
0010
0000
,
0100
0000
1000
0000
,
2002
0000
0000
3003
,
0001
0000
0100
0000
,
0010
0000
0010
0000
,
0010
0000
0000
0000
,
1000
0000
1000
0000
,
0001
0000
0000
0001
,
0010
0000
0010
0000
,
0010
0000
0000
0100
,
1000
0000
1000
0000
,
1000
0000
0000
0010
,
1000
0000
0001
0000
,
0010
0000
0100
0100
,
1000
0000
1000
0000
,
0010
0000
0010
0100
,
0001
0000
0001
0000
,
1000
0000
1000
0000
,
0010
0000
0010
0000
,
0100
0000
0100
0100
,
0002
0000
0000
0003
,
2000
0000
0000
3000
,
0200
0000
0000
0300
,
0110
0010
0010
0010
,
0001
0000
1000
0000
,
0001
0000
0000
0000
,
0010
0000
0100
0000
,
0010
0000
0001
0000
,
1000
0000
0010
0000
,
0100
0000
0000
0001
,
1000
0000
0100
0000
,
0010
0000
0010
0010
,
0001
0000
1000
0000
,
0001
0000
1000
1000
,
0010
0000
0100
0000
,
0010
0000
1000
1000
,
0002
0000
0000
0003
,
0020
0000
0000
0030
,
0200
0000
0000
0300
,
1000
1000
0001
0001
,
1001
0000
0010
0010
,
0100
0000
0001
0000
,
1001
0000
0010
0010
,
0100
0000
1000
0000
,
0100
0010
0100
0000
,
0010
0001
0010
0000
,
0001
1000
0001
0000
,
0100
0000
0100
0000
,
0010
1000
0010
0000
,
0100
0001
0100
0000
,
0010
0000
0010
0000
,
1000
1000
2000
0000
,
3000
0000
0000
0000
;

//---------------dance-single - ----------------
#NOTES:
     dance-single:
     :
     Medium:
     6:
     0.408340,0.413592,0.147055,0.064336,0.055146,311.000000,295.000000,16.000000,7.000000,0.000000,0.000000,0.408340,0.413592,0.147055,0.064336,0.055146,311.000000,295.000000,16.000000,7.000000,0.000000,0.000000:
0000
0000
0000
0000
,
0000
0000
0000
0000
,
0000
0000
0000
0000
,
0000
0000
0000
0000
,
1000
0000
0001
0000
0100
0010
0100
0000
,
0001
0010
0110
0000
,
1000
0000
0010
0000
1000
0001
1000
0000
,
1020
0000
0130
0001
0010
0000
0100
0000
,
1000
0000
0001
0000
0100
0010
0100
0000
,
0001
1000
1100
0010
,
0001
0000
0010
0000
0100
0000
1000
0001
,
0200
0000
0310
1000
0001
1000
0001
0000
,
0010
0000
0100
1000
0001
0000
1001
0000
,
0010
0000
1000
0001
1000
0001
1000
0000
,
0100
0000
0010
0001
0010
0000
0011
0000
,
0010
0000
0100
1000
0001
1000
0001
0000
,
0110
0000
0010
1000
0001
0000
1001
0000
,
0001
0010
0000
0100
1000
0000
1001
0000
,
0010
0000
1000
0001
0100
0000
0010
1000
,
0100
0000
0010
0001
1000
0001
1000
0000
,
0010
0000
0100
0001
1000
0000
0100
0010
,
0001
0000
0010
0000
0001
1000
0001
0000
,
0100
0000
0010
1000
0001
0000
0010
0001
,
0100
0000
0010
1000
0100
0000
0010
0000
,
0001
0000
0100
0010
0100
0000
0010
1000
,
0010
0000
1000
0000
0001
0100
0000
0001
,
1000
0000
0100
0010
0001
0000
0001
0010
,
0100
0000
1000
0000
0001
0100
0010
1000
,
0001
0000
0000
1000
0000
0000
0001
0000
0000
1000
0000
0000
0001
0000
0000
0000
,
0100
0000
0000
0010
0000
0000
0100
0000
0000
0010
0000
0000
0100
0000
0000
0000
,
0010
0000
0000
1000
0000
0000
0010
0000
0000
1000
0000
0000
0010
0000
0000
0000
,
1001
0000
0100
0000
1010
0000
0100
0010
,
1000
0000
0010
0100
0001
0000
1001
0000
,
0010
0001
0000
1000
0001
0000
0101
0000
,
0010
1000
0010
0000
1000
0000
0001
0000
,
0010
0000
0100
0000
1000
0000
0001
1000
,
0010
0000
0100
0001
1000
0000
0100
0000
,
0010
0000
0001
0000
1000
0010
1000
0001
,
0100
0000
0010
0000
1000
0000
0001
0010
,
0100
0000
1000
0000
0001
1000
0010
0000
,
0100
0001
0100
0000
0010
1000
0010
0000
,
1000
0000
0100
0000
0010
0001
0010
0100
,
1000
0000
0001
0100
0001
0000
1000
0001
,
0010
0000
0100
0000
1000
0001
1000
0100
,
1000
0000
0000
0010
0000
0000
1000
0000
0000
0010
0000
0000
1000
0000
0000
0000
,
0001
0000
0000
0100
0000
0000
0001
0000
0000
0100
0000
0000
0001
0000
0000
0000
,
0010
0000
0000
0001
0000
0000
0010
0000
0000
0001
0000
0000
0010
0000
0000
0000
,
1001
0000
1000
0000
1010
0000
0100
0001
,
0010
0000
0100
1000
0100
0000
0010
0000
,
0001
1000
0000
1000
0010
0000
0100
0001
,
1000
0000
0100
0010
0100
0000
1000
0000
,
0002
0000
0103
0010
1000
0001
1000
0001
,
0010
0000
0100
1000
0001
0000
0100
0001
,
1000
0000
0100
1000
0010
0100
0001
0000
,
0010
0000
0100
1000
0010
0000
1001
0000
,
0010
0000
1010
0000
0001
0100
0010
0000
,
2000
3100
0020
0031
,
1000
0010
0000
0100
0002
0000
1003
0000
,
0010
1000
0010
1000
0001
0000
0010
0000
,
0100
1000
0002
0000
,
0003
0000
0000
0000
;

//---------------dance-single - ----------------
#NOTES:
     dance-single:
     :
     Hard:
     9:
     0.665685,0.634174,0.275728,0.257346,0.749060,507.000000,477.000000,30.000000,28.000000,0.000000,0.000000,0.665685,0.634174,0.275728,0.257346,0.749060,507.000000,477.000000,30.000000,28.000000,0.000000,0.000000:
0000
0000
0000
0000
,
0000
0000
0000
0000
,
0000
0000
0000
0000
,
0000
0000
0000
0000
,
0010
0000
0000
0010
0000
0000
1000
0000
0001
0000
0010
0001
0010
0000
0100
0000
,
1000
0000
0000
1000
0000
0000
0010
0000
0200
0000
0000
0000
0301
0000
0000
0000
,
1000
0000
0000
1000
0000
0000
0001
0000
0010
0000
0100
1000
0100
0000
0010
0000
,
0002
0000
0000
0000
1003
0010
1000
0010
0100
0000
0001
0010
0100
0000
1000
0000
,
0001
0000
0000
0001
0000
0000
0100
0000
0010
0000
1000
0001
1000
0000
0100
0000
,
0010
0000
0000
0010
0000
0000
0001
0000
1000
0010
1000
0000
0001
0100
0000
0000
,
0010
0000
0010
0000
1000
0000
0001
0010
,
0200
0000
0000
0000
1300
0001
1000
0001
0200
0000
0310
0000
0002
0000
0013
0000
,
1000
0000
0000
0010
1000
0000
1000
0000
0001
0010
0000
0010
0100
0000
1000
0001
,
1000
0200
0310
0002
,
0013
0000
0001
1000
0000
0001
1000
0000
0010
0000
0100
0001
0000
0100
0001
0000
,
2000
0000
3000
0000
0200
0000
0310
0000
0002
0000
0000
0000
1003
0001
1000
0001
,
0010
0000
0000
0010
0100
0000
1000
0000
0001
0100
0000
0100
0001
0000
1000
0001
,
1000
0000
0100
1000
0000
0000
0001
0000
0100
0010
0000
0010
1000
0000
0001
0000
,
0010
0100
0010
0100
1000
0000
0001
0000
0200
0000
0000
0310
0000
0000
1000
0000
,
0020
0000
0030
0000
0200
0000
0301
0000
2000
0000
0000
0000
3100
0010
0001
1000
,
0010
0100
0000
0100
0001
0000
1000
0000
0100
0010
0000
0010
0001
0000
0010
0000
,
0100
1000
0000
1000
0001
0000
0100
0000
0020
0000
0000
0000
1030
0000
0010
0100
,
0001
0000
0000
0010
0000
0100
1000
0000
0100
0000
0000
0100
0000
0000
0010
0000
,
0002
0000
0000
1003
0000
0000
0100
0000
1000
0010
1000
0010
0000
0100
0001
0000
,
1000
0100
0000
0100
1000
0000
0001
0000
0100
0010
0000
0010
1000
0000
0001
0000
,
0010
0100
0000
0100
1000
0000
0001
0000
0100
0000
0010
0000
1000
0001
1000
0000
,
0001
0010
0000
0010
0100
0000
1000
0000
0001
0100
0000
0100
0010
0000
1000
0000
,
0100
0010
0000
0010
0001
0000
1000
0000
0010
0000
0100
0001
1000
0000
0100
0000
,
0011
0000
0000
1100
0000
0000
0011
0000
0000
1100
0000
0000
0011
0000
0000
1000
,
0010
0000
0000
0110
0000
0000
0011
0000
0000
0110
0000
0000
1010
0000
0000
0001
,
0010
0000
0000
1100
0000
0000
0101
0000
0000
1100
0000
0000
0011
0000
0000
0001
,
0100
0000
0000
0010
0000
0000
1001
0000
0000
0000
1000
0000
0101
0000
0000
0001
,
1000
0000
0100
0010
0001
0000
0001
0000
1000
0010
0000
1000
0010
0000
0100
0000
,
0001
0000
0001
0000
1000
0000
0001
0000
0001
0100
0000
0010
1000
0000
0010
0000
,
1000
0001
0100
0001
1000
0000
0100
0000
0010
0000
0000
0010
0000
0000
0001
0000
,
0020
0000
0000
0130
0000
0000
1000
0000
0020
0000
0130
0001
0000
1000
0001
0000
,
0010
0100
0000
0100
1000
0000
0010
0000
1000
0001
0000
0001
0100
0000
0010
0000
,
0001
0010
0000
0010
1000
0000
0001
0100
0001
0000
0100
0000
0010
1000
0001
0000
,
0010
0000
0000
0100
1000
0000
0010
0000
0100
0000
0001
1000
0000
0001
0100
0000
,
0010
0000
0000
1000
0000
0000
0001
0000
0010
0000
0100
1000
0000
0100
1000
0000
,
0010
0100
0000
0100
0001
0000
1000
0000
0100
0010
0000
0010
0001
0000
1000
0000
,
0010
1000
0000
1000
0001
0000
0010
0100
0010
0000
0001
1000
0000
0001
1000
0000
,
0010
0100
0000
0100
0001
0000
1000
0000
0200
0000
0000
0000
0310
0000
0001
0000
,
2000
0000
0000
0000
3010
0100
0010
0000
1000
0000
0001
0010
0000
0010
1000
0000
,
1010
0000
0000
0110
0000
0000
0011
0000
0000
0110
0000
0000
1010
0000
0000
0010
,
0001
0000
0000
0101
0000
0000
0110
0000
0000
1100
0000
0000
0110
0000
0000
0010
,
1000
0000
0000
1100
0000
0000
0110
0000
0000
0011
0000
0000
1001
0000
0000
0010
,
0100
0000
0000
0101
0000
0000
0010
0000
1000
0000
0100
0010
0001
0000
1000
0000
,
1010
0000
0100
0000
0001
0000
0001
1000
0010
0000
0100
0001
0000
0000
0100
0010
,
1000
0000
1000
0000
0100
0000
0010
0001
1000
0000
0010
1000
0000
0010
1000
0000
,
0001
0010
0001
1000
0001
0000
0100
0000
0020
0000
0000
1030
0000
0000
0010
0000
,
0200
0000
0301
0000
0010
0100
1000
0000
0010
0000
0100
0001
1000
0010
0100
0000
,
0001
0010
0000
0010
0100
0000
1000
0000
0001
0100
0000
0100
0010
0000
1000
0000
,
0001
1000
0000
1000
0100
0000
0010
0001
1000
0000
1000
0010
0000
0100
0001
0000
,
1000
0000
0010
0100
0000
0010
0100
0000
0001
0000
1000
0100
0000
0100
0010
0000
,
0001
0000
0000
0100
0000
0000
0010
0000
1000
0001
0100
0010
0000
0010
1000
0000
,
0002
0000
0000
0000
0013
0001
1000
0000
0200
0000
0310
0000
0001
1000
0100
0000
,
1000
0010
1000
0000
0001
0100
0000
0000
0020
0000
0000
0000
1030
0000
0001
0000
,
0100
0001
1000
0001
0010
0100
0010
0000
0002
0000
0000
0103
0000
0000
0010
0000
,
2000
0000
3010
0001
0200
0000
0000
0000
,
0300
0000
0000
0000
;

//---------------dance-double - ----------------
#NOTES:
     dance-double:
     :
     Easy:
     3:
     0.162811,0.275728,0.073527,0.082718,0.000000,124.000000,116.000000,8.000000,9.000000,0.000000,0.000000,0.162811,0.275728,0.073527,0.082718,0.000000,124.000000,116.000000,8.000000,9.000000,0.000000,0.000000:
00000000
00000000
00000000
00000000
,
00000000
00000000
00000000
00000000
,
00000000
00000000
00000000
00000000
,
00000000
00000000
00000000
00000000
,
00001001
00000000
00001000
00000000
,
00001000
00000000
00000000
00000000
,
00011000
00000000
00001000
00000000
,
00001000
00000000
00000000
00000000
,
10010000
00000000
00100000
00000000
,
00100000
00000000
10000000
00000000
,
20020000
00000000
00000000
30030000
,
10000000
00000000
01000000
00000000
,
10000000
00000000
10000000
00000000
,
01000000
00000000
00000000
00000000
,
00100000
00000000
00100000
00000000
,
00001000
00000000
00000000
00010000
,
00001000
00000000
00001000
00000000
,
00010000
00000000
00000000
00000010
,
00001000
00000000
00001000
00000000
,
00000001
00000000
00000000
00000010
,
00000100
00000000
00010000
00000000
,
00000100
00000000
00010000
00001000
,
00010000
00000000
00001000
00000000
,
00010000
00000000
00001000
01000000
,
00001000
00000000
00100000
00000000
,
01000000
00000000
10000000
00000000
,
00100000
00000000
01000000
00000000
,
00010000
00000000
00000000
00000000
,
00200000
00000000
00000000
00300000
,
00002000
00000000
00000000
00003000
,
00020000
00000000
00000000
00030000
,
00011000
00010000
00001000
00010000
,
00001000
00000000
00010000
00000000
,
00000010
00000000
00000000
00000000
,
00000100
00000000
00000001
00000000
,
00000010
00000000
00000010
00000000
,
00000100
00000000
00010000
00000000
,
00001000
00000000
00000000
00100000
,
00010000
00000000
01000000
00000000
,
00100000
00000000
10000000
10000000
,
00010000
00000000
01000000
00000000
,
00001000
00000000
00010000
00000000
,
00001000
00000000
00010000
00000000
,
00000100
00000000
00000010
00000001
,
00002000
00000000
00000000
00003000
,
00000200
00000000
00000000
00000300
,
00020000
00000000
00000000
00030000
,
00011000
00001000
00100000
00010000
,
10010000
00000000
01000000
01000000
,
00100000
00000000
10000000
00000000
,
10010000
00000000
00010000
00001000
,
00010000
00000000
00001000
00000000
,
00010000
00000100
00010000
00000000
,
00000100
00000010
00000100
00000000
,
00000001
00001000
00000001
00000000
,
00000100
00000000
00001000
00000000
,
00010000
00001000
00010000
00000000
,
00001000
01000000
00001000
00000000
,
01000000
00000000
00100000
00000000
,
10000000
10000000
00020000
00000000
,
00030000
00000000
00000000
00000000
;

//---------------dance-double - ----------------
#NOTES:
     dance-double:
     :
     Medium:
     6:
     0.408340,0.413592,0.147055,0.064336,0.055146,311.000000,295.000000,16.000000,7.000000,0.000000,0.000000,0.408340,0.413592,0.147055,0.064336,0.055146,311.000000,295.000000,16.000000,7.000000,0.000000,0.000000:
00000000
00000000
00000000
00000000
,
00000000
00000000
00000000
00000000
,
00000000
00000000
00000000
00000000
,
00000000
00000000
00000000
00000000
,
10000000
00000000
01000000
00000000
00100000
00010000
00100000
00000000
,
00001000
00010000
00011000
00000000
,
00001000
00000000
00010000
00000000
00000010
00001000
00000010
00000000
,
00000102
00000000
00001003
00000100
00010000
00000000
00001000
00000000
,
00100000
00000000
01000000
00000000
10000000
00010000
10000000
00000000
,
00100000
01000000
01010000
00010000
,
00100000
00000000
00001000
00000000
00010000
00000000
00001000
00010000
,
00002000
00000000
00013000
00000100
00001000
00000100
00001000
00000000
,
00000001
00000000
00000010
00000001
00001000
00000000
00001001
00000000
,
00000010
00000000
00010000
00001000
00010000
00001000
00010000
00000000
,
00100000
00000000
10000000
00100000
10000000
00000000
10010000
00000000
,
01000000
00000000
00100000
00001000
00010000
00001000
00010000
00000000
,
00011000
00000000
00000100
00001000
00000100
00000000
00001100
00000000
,
00001000
00000001
00000000
00000100
00000010
00000000
00001010
00000000
,
00001000
00000000
00000100
00010000
00001000
00000000
00100000
00010000
,
00100000
00000000
01000000
10000000
00010000
10000000
00010000
00000000
,
00100000
00000000
01000000
00010000
00001000
00000000
00010000
00001000
,
00010000
00000000
00000010
00000000
00000100
00000001
00001000
00000000
,
00000100
00000000
00010000
00001000
00010000
00000000
00001000
00100000
,
00010000
00000000
01000000
00010000
10000000
00000000
01000000
00000000
,
00010000
00000000
00001000
00010000
00001000
00000000
00010000
00000010
,
00010000
00000000
00000100
00000000
00000010
00000001
00000000
00001000
,
00000100
00000000
00010000
00001000
00010000
00000000
00001000
01000000
,
00010000
00000000
00100000
00000000
00010000
10000000
01000000
10000000
,
01000000
00000000
00000000
00100000
00000000
00000000
01000000
00000000
00000000
00100000
00000000
00000000
01000000
00000000
00000000
00000000
,
00100000
00000000
00000000
00001000
00000000
00000000
00100000
00000000
00000000
00001000
00000000
00000000
00100000
00000000
00000000
00000000
,
00001000
00000000
00000000
00010000
00000000
00000000
00001000
00000000
00000000
00010000
00000000
00000000
00001000
00000000
00000000
00000000
,
00011000
00000000
00010000
00000000
00010100
00000000
00000100
00000010
,
00000001
00000000
00000010
00000100
00001000
00000000
00001001
00000000
,
00000010
00010000
00000000
00001000
00010000
00000000
00011000
00000000
,
00100000
00010000
10000000
00000000
00100000
00000000
10000000
00000000
,
01000000
00000000
00100000
00000000
00010000
00000000
00100000
00001000
,
00010000
00000000
00001000
00010000
00000010
00000000
00001000
00000000
,
00000001
00000000
00000100
00000000
00001000
00000100
00000010
00000100
,
00000010
00000000
00010000
00000000
00001000
00000000
00100000
01000000
,
10000000
00000000
01000000
00000000
00010000
00001000
00010000
00000000
,
00000010
00001000
00000010
00000000
00000100
00000001
00000100
00000000
,
00000010
00000000
00010000
00000000
00001000
00010000
00001000
00100000
,
00001000
00000000
00100000
00010000
00100000
00000000
01000000
10000000
,
01000000
00000000
00010000
00000000
01000000
00100000
00010000
00100000
,
00001000
00000000
00000000
00010000
00000000
00000000
00001000
00000000
00000000
00010000
00000000
00000000
00001000
00000000
00000000
00000000
,
00010000
00000000
00000000
00000010
00000000
00000000
00010000
00000000
00000000
00000010
00000000
00000000
00010000
00000000
00000000
00000000
,
00000010
00000000
00000000
00000100
00000000
00000000
00000010
00000000
00000000
00000100
00000000
00000000
00000010
00000000
00000000
00000000
,
00000110
00000000
00000001
00000000
00000101
00000000
00000010
00001000
,
00000100
00000000
00010000
00001000
00010000
00000000
01000000
00000000
,
10000000
00100000
00000000
01000000
00001000
00000000
00010000
00001000
,
00010000
00000000
00000100
00001000
00000010
00000000
00000100
00000000
,
00000002
00000000
00001003
00000010
00001000
00000001
00001000
00000100
,
00000010
00000000
00001000
00010000
00001000
00000000
00100000
00010000
,
10000000
00000000
00100000
01000000
00010000
01000000
00100000
00000000
,
00010000
00000000
00001000
00010000
00000100
00000000
00001001
00000000
,
00000001
00000000
00001010
00000000
00000001
00000100
00001000
00000000
,
00020000
00130000
20000000
30010000
,
00100000
01000000
00000000
00100000
00002000
00000000
00013000
00000000
,
00000100
00001000
00000100
00001000
00000010
00000000
00000100
00000000
,
00000001
00000100
00002000
00000000
,
00003000
00000000
00000000
00000000
;

//---------------dance-double - ----------------
#NOTES:
     dance-double:
     :
     Hard:
     9:
     0.659121,0.634174,0.266537,0.275728,0.735274,502.000000,473.000000,29.000000,30.000000,0.000000,0.000000,0.659121,0.634174,0.266537,0.275728,0.735274,502.000000,473.000000,29.000000,30.000000,0.000000,0.000000:
00000000
00000000
00000000
00000000
,
00000000
00000000
00000000
00000000
,
00000000
00000000
00000000
00000000
,
00000000
00000000
00000000
00000000
,
00000001
00000000
00000000
00000100
00000000
00000000
00001000
00000000
00000100
00000000
00000010
00001000
00000010
00000000
00010000
00000000
,
00001000
00000000
00000000
00100000
00000000
00000000
10000000
00000000
00200000
00000000
00000000
00000000
00310000
00000000
00000000
00000000
,
01000000
00000000
00000000
10000000
00000000
00000000
01000000
00000000
00001000
00000000
00010000
00001000
00010000
00000000
00000100
00000000
,
00000020
00000000
00000000
00000000
00000031
00001000
00000001
00001000
00000100
00000000
00000010
00001000
00010000
00000000
00001000
00000000
,
00100000
00000000
00000000
10000000
00000000
00000000
00100000
00000000
01000000
00000000
10000000
01000000
00010000
00000000
00001000
00000000
,
00010000
00000000
00000000
00000100
00000000
00000000
00001000
00000000
00000010
00000100
00000001
00000000
00001000
00000100
00000000
00000000
,
00010000
00000000
00010000
00000000
00001000
00000000
00100000
00010000
,
02000000
00000000
00000000
00000000
03100000
10000000
00100000
10000000
00020000
00000000
00130000
00000000
00002000
00000000
00013000
00000000
,
00000010
00000000
00000000
00001000
00000100
00000000
00000001
00000000
00000100
00000010
00000000
00000010
00001000
00000000
00010000
00001000
,
00010000
00002000
01003000
00200000
,
10300000
00000000
00010000
01000000
00000000
00010000
01000000
00000000
00100000
00000000
10000000
01000000
00000000
10000000
01000000
00000000
,
00020000
00000000
00030000
00000000
00002000
00000000
00013000
00000000
00002000
00000000
00000000
00000000
00013000
00000010
00010000
00000010
,
00001000
00000000
00000000
00000001
00000010
00000000
00000100
00000000
00000001
00000100
00000000
00000100
00010000
00000000
00001000
00010000
,
00001000
00000000
00100000
00010000
00000000
00000000
01000000
00000000
00100000
10000000
00000000
10000000
00010000
00000000
10000000
00000000
,
00010000
00100000
00010000
00100000
00001000
00000000
00010000
00000000
00000020
00000000
00000000
00000130
00000000
00000000
00001000
00000000
,
00020000
00000000
00030000
00000000
00002000
00000000
00003100
00000000
00000002
00000000
00000000
00000000
00000013
00000100
00001000
00000100
,
00010000
00001000
00000000
00001000
01000000
00000000
00100000
00000000
00010000
00100000
00000000
00100000
10000000
00000000
00010000
00000000
,
01000000
00001000
00000000
00001000
00010000
00000000
00001000
00000000
00020000
00000000
00000000
00000000
00030100
00000000
00000010
00000001
,
00001000
00000000
00000000
00000100
00000000
00010000
00001000
00000000
01000000
00000000
00000000
00100000
00000000
00000000
10000000
00000000
,
00020000
00000000
00000000
01030000
00000000
00000000
10000000
00000000
01000000
00010000
01000000
00010000
00000000
00100000
00010000
00000000
,
01000000
00001000
00000000
00001000
00010000
00000000
00000100
00000000
00000010
00001000
00000000
00001000
00000010
00000000
00000100
00000000
,
00000001
00000100
00000000
00000100
00010000
00000000
00001000
00000000
00100000
00000000
01000000
00000000
10000000
00010000
10000000
00000000
,
00100000
01000000
00000000
01000000
00001000
00000000
00010000
00000000
00001000
00010000
00000000
00010000
00000010
00000000
00001000
00000000
,
00000001
00000100
00000000
00000100
00001000
00000000
00010000
00000000
00100000
00000000
10000000
00010000
00100000
00000000
01000000
00000000
,
11000000
00000000
00000000
00110000
00000000
00000000
11000000
00000000
00000000
00110000
00000000
00000000
11000000
00000000
00000000
00100000
,
00001000
00000000
00000000
00101000
00000000
00000000
00011000
00000000
00000000
01001000
00000000
00000000
00011000
00000000
00000000
00000010
,
00001000
00000000
00000000
00001001
00000000
00000000
00001100
00000000
00000000
00000110
00000000
00000000
00000011
00000000
00000000
00000100
,
00010000
00000000
00000000
00001000
00000000
00000000
01001000
00000000
00000000
00000000
00100000
00000000
10010000
00000000
00000000
10000000
,
00010000
00000000
00100000
01000000
10000000
00000000
10000000
00000000
00100000
01000000
00000000
00001000
00010000
00000000
00001000
00000000
,
00000100
00000000
00000100
00000000
00000010
00000000
00001000
00000000
00000001
00000010
00000000
00000001
00001000
00000000
00000010
00000000
,
00001000
00000001
00001000
00000100
00000010
00000000
00001000
00000000
00020000
00000000
00000000
01030000
00000000
00000000
10000000
00000000
,
00200000
00000000
00000000
01300000
00000000
00000000
00010000
00000000
02000000
00000000
00001000
03010000
00000000
00001000
00010000
00000000
,
00000100
00000010
00000000
00000010
00000001
00000000
00001000
00000000
00000100
00010000
00000000
00010000
00001000
00000000
01000000
00000000
,
00100000
00010000
00000000
00010000
00100000
00000000
10000000
00100000
10000000
00000000
00100000
00000000
01000000
00010000
01000000
00000000
,
00001000
00000000
00000000
00010000
00000100
00000000
00000010
00000000
00001000
00000000
00010000
00001000
00000000
00010000
00000010
00000000
,
00000100
00000000
00000000
00000001
00000000
00000000
00000010
00000000
00000100
00000000
00010000
00001000
00000000
00100000
00010000
00000000
,
10000000
01000000
00000000
01000000
00010000
00000000
00001000
00000000
00000010
00000100
00000000
00000100
00001000
00000000
00000001
00000000
,
00000100
00001000
00000000
00001000
00010000
00000000
00100000
10000000
00100000
00000000
10000000
00010000
00000000
10000000
00010000
00000000
,
00100000
01000000
00000000
01000000
10000000
00000000
01000000
00000000
00020000
00000000
00000000
00000000
00031000
00000000
00010000
00000000
,
00000020
00000000
00000000
00000000
00001030
00000001
00001000
00000000
00000010
00000000
00000100
00001000
00000000
00001000
00010000
00000000
,
00011000
00000000
00000000
00101000
00000000
00000000
00110000
00000000
00000000
00101000
00000000
00000000
00011000
00000000
00000000
00001000
,
01000000
00000000
00000000
01010000
00000000
00000000
01100000
00000000
00000000
11000000
00000000
00000000
01100000
00000000
00000000
01000000
,
00001000
00000000
00000000
00011000
00000000
00000000
00010100
00000000
00000000
00001100
00000000
00000000
00000110
00000000
00000000
00000001
,
00001000
00000000
00000000
00000010
00000000
00000000
00000100
00000000
00000001
00000000
00001000
00000100
00010000
00000000
00001000
00000000
,
00011000
00000000
00010000
00000000
01000000
00000000
01000000
00100000
00010000
00000000
00100000
01000000
00000000
00000000
10000000
00010000
,
01000000
00000000
01000000
00000000
00001000
00000000
00010000
00001000
00010000
00000000
00000100
00001000
00000000
00000100
00001000
00000000
,
00000010
00000100
00000001
00000100
00000010
00000000
00001000
00000000
00000200
00000000
00000000
00010300
00000000
00000000
00001000
00000000
,
00200000
00000000
00310000
00000000
10000000
01000000
00010000
00000000
01000000
00000000
00100000
00010000
10000000
01000000
00100000
00000000
,
00001000
00010000
00000000
00010000
00001000
00000000
00010000
00000000
00000100
00000001
00000000
00000001
00000100
00000000
00001000
00000000
,
00000010
00010000
00000000
00010000
00001000
00000000
00100000
00010000
10000000
00000000
10000000
00100000
00000000
01000000
00001000
00000000
,
00010000
00000000
00001000
00010000
00000000
00000100
00001000
00000000
00000100
00000000
00000001
00000100
00000000
00000100
00000010
00000000
,
00001000
00000000
00000000
00010000
00000000
00000000
01000000
00000000
10000000
01000000
00100000
00010000
00000000
00100000
00001000
00000000
,
00020000
00000000
00000000
00000000
00031000
00010000
00000010
00000000
00002000
00000000
00003100
00000000
00000001
00000100
00001000
00000000
,
00000100
00010000
00001000
00000000
00100000
00010000
00000000
00000000
02000000
00000000
00000000
00000000
03100000
00000000
10000000
00000000
,
00020000
00000000
00000000
00000000
00130000
00000000
01000000
00000000
00020000
00000000
00000000
00031000
00000000
00000000
00010000
00000000
,
00000200
00000000
00001300
00000001
00000200
00000000
00000000
00000000
,
00000300
00000000
00000000
00000000
;

//---------------dance-single - ----------------
#NOTES:
     dance-single:
     :
     Beginner:
     1:
     0.085344,0.109832,0.000000,0.018382,0.000000,65.000000,65.000000,0.000000,2.000000,0.000000,0.000000,0.085344,0.109832,0.000000,0.018382,0.000000,65.000000,65.000000,0.000000,2.000000,0.000000,0.000000:
0000
0000
0000
0000
,
0000
0000
0000
0000
,
0000
0000
0000
0000
,
0000
0000
0000
0000
,
1000
0000
0000
0000
,
1000
0000
0000
0000
,
0001
0000
0000
0000
,
0001
0000
0000
0000
,
0010
0000
0000
0000
,
0010
0000
0000
0000
,
0200
0000
0000
0300
,
0100
0000
0100
0000
,
1000
0000
0000
0000
,
0001
0000
0000
0000
,
1000
0000
0000
0000
,
0001
0000
0000
0000
,
0010
0000
0000
0000
,
0100
0000
0000
0000
,
0010
0000
0000
0000
,
0100
0000
0000
0000
,
1000
0000
1000
0000
,
1000
0000
0000
0000
,
0001
0000
0001
0000
,
0001
0000
0000
0000
,
0100
0000
0100
0000
,
0100
0000
0000
0000
,
0010
0000
0010
0000
,
0010
0000
0000
0000
,
1000
0000
0000
0000
,
1000
0000
0000
0000
,
0001
0000
0000
0000
,
0001
0000
0001
0000
,
0001
0000
0000
0000
,
0010
0000
0000
0000
,
0100
0000
0000
0000
,
1000
0000
0000
0000
,
0001
0000
0000
0000
,
0100
0000
0000
0000
,
0010
0000
0000
0000
,
1000
0000
0000
0000
,
0001
0000
0001
0000
,
1000
0000
0000
0000
,
0100
0000
0100
0000
,
0010
0000
0000
0000
,
0001
0000
0000
0000
,
0001
0000
0000
0000
,
1000
0000
0000
0000
,
1000
0000
1000
0000
,
1000
0000
0000
0000
,
0010
0000
0000
0000
,
0100
0000
0000
0000
,
0001
0000
0000
0000
,
0010
0000
0000
0000
,
0100
0000
0000
0000
,
1000
0000
0000
0000
,
0001
0000
0000
0000
,
0100
0000
0000
0000
,
0010
0000
0000
0000
,
1000
0000
0000
0000
,
0002
0000
0000
0003
;

//---------------dance-double - ----------------
#NOTES:
     dance-double:
     :
     Beginner:
     1:
     0.085344,0.109832,0.000000,0.018382,0.000000,65.000000,65.000000,0.000000,2.000000,0.000000,0.000000,0.085344,0.109832,0.000000,0.018382,0.000000,65.000000,65.000000,0.000000,2.000000,0.000000,0.000000:
00000000
00000000
00000000
00000000
,
00000000
00000000
00000000
00000000
,
00000000
00000000
00000000
00000000
,
00000000
00000000
00000000
00000000
,
10000000
00000000
00000000
00000000
,
10000000
00000000
00000000
00000000
,
01000000
00000000
00000000
00000000
,
01000000
00000000
00000000
00000000
,
00100000
00000000
00000000
00000000
,
00100000
00000000
00000000
00000000
,
00002000
00000000
00000000
00003000
,
00001000
00000000
00010000
00000000
,
00001000
00000000
00000000
00000000
,
00010000
00000000
00000000
00000000
,
00001000
00000000
00000000
00000000
,
00010000
00000000
00000000
00000000
,
00000010
00000000
00000000
00000000
,
00000100
00000000
00000000
00000000
,
00000010
00000000
00000000
00000000
,
00000100
00000000
00000000
00000000
,
00000001
00000000
00001000
00000000
,
00000001
00000000
00000000
00000000
,
00000010
00000000
00000100
00000000
,
00010000
00000000
00000000
00000000
,
00001000
00000000
00100000
00000000
,
00010000
00000000
00000000
00000000
,
01000000
00000000
00100000
00000000
,
10000000
00000000
00000000
00000000
,
00010000
00000000
00000000
00000000
,
00010000
00000000
00000000
00000000
,
00010000
00000000
00000000
00000000
,
00010000
00000000
00010000
00000000
,
00100000
00000000
00000000
00000000
,
00001000
00000000
00000000
00000000
,
00010000
00000000
00000000
00000000
,
00000100
00000000
00000000
00000000
,
00000010
00000000
00000000
00000000
,
00000001
00000000
00000000
00000000
,
00001000
00000000
00000000
00000000
,
00000100
00000000
00000000
00000000
,
00010000
00000000
00001000
00000000
,
00010000
00000000
00000000
00000000
,
00001000
00000000
00010000
00000000
,
00001000
00000000
00000000
00000000
,
01000000
00000000
00000000
00000000
,
01000000
00000000
00000000
00000000
,
01000000
00000000
00000000
00000000
,
01000000
00000000
01000000
00000000
,
00100000
00000000
00000000
00000000
,
10000000
00000000
00000000
00000000
,
00100000
00000000
00000000
00000000
,
10000000
00000000
00000000
00000000
,
00010000
00000000
00000000
00000000
,
00100000
00000000
00000000
00000000
,
00010000
00000000
00000000
00000000
,
00100000
00000000
00000000
00000000
,
00001000
00000000
00000000
00000000
,
00010000
00000000
00000000
00000000
,
00000100
00000000
00000000
00000000
,
00000020
00000000
00000000
00000030
;

//---------------dance-single - ----------------
#NOTES:
     dance-single:
     :
     Challenge:
     13:
     1.108163,1.099981,0.597410,0.615792,2.049576,844.000000,779.000000,65.000000,67.000000,250.000000,0.000000,1.108163,1.099981,0.597410,0.615792,2.049576,844.000000,779.000000,65.000000,67.000000,250.000000,0.000000:
// measure 0
1000
0001
1000
0001
2000
0000
0000
0000
3010
0100
0010
0100
0020
0000
0000
0000
,  // measure 1
0130
0001
0100
0001
0200
0000
0000
0000
0301
0010
0001
0010
0002
0000
0000
0000
,  // measure 2
1003
0100
0010
0100
200M
0000
00M0
0000
3001
0100
0010
1000
0020
0000
0000
0000
,  // measure 3
M130
0000
0000
0000
0000
0000
0000
0000
0000
0000
0000
0000
0001
0000
0000
0000
M000
0000
0000
0000
0000
0000
0000
0000
M010
0000
0000
0000
0000
0000
0000
0000
0000
0000
0000
0000
0100
0000
0000
0000
0000
0000
0000
0000
0000
0000
0000
0000
M010
0000
0000
0000
0000
0000
0100
0000
0000
0000
0000
0000
0010
0000
0000
0000
0000
0000
0100
0000
0000
0000
0000
0000
0010
0000
0000
0000
0000
0000
0000
0000
0000
0000
0000
0000
0000
0000
0000
0000
0000
0000
0000
0000
0000
0000
0000
0000
0001
0000
0000
0000
0000
0000
1000
0000
0000
0000
0000
0000
0001
0000
0000
0000
0000
0000
1000
0000
0000
0000
0000
0000
0001
0000
0000
0000
0000
0000
0000
0000
0000
0000
0000
0000
0M00
0000
0000
0000
0000
0000
0000
0000
0000
0000
0000
0000
1000
0000
0000
0000
0000
0000
0010
0000
0000
0000
0000
0000
1000
0000
0000
0000
0000
0000
0010
0000
0000
0000
0000
0000
1M00
0000
0000
0000
0000
0000
0000
0000
0000
0000
0000
0000
0000
0000
0000
0000
0000
0000
0000
0000
0000
0000
0000
0000
,  // measure 4
1001
0000
0000
0000
0001
0000
0101
0000
0000
0000
0000
0000
0001
0000
1000
0000
0010
0000
0000
0000
0100
0001
0100
M000
0001
0000
0000
0000
0010
0000
0100
0000
,  // measure 5
2000
000M
0000
0000
3010
0000
0200
0000
M000
0000
0301
0000
0010
0000
0001
0000
1000
0010
1000
0010
1M00
0000
0001
1000
0001
0000
0020
0000
0000
0000
0030
0000
,  // measure 6
0110
0000
M000
0000
0100
0000
0001
0000
0000
0000
00M0
0000
0100
0000
100M
0000
0100
0000
0000
0000
001M
0100
0010
M100
0010
0000
0000
0000
0001
0000
0000
0000
,  // measure 7
2MM2
0000
0000
0000
0000
0000
3003
0000
1000
0000
0100
0000
0001
0000
0100
0000
M010
0100
0010
0100
0010
0000
0001
0000
1000
0000
0010
0000
0100
0000
0001
0000
,  // measure 8
0101
0000
0000
0000
00M1
00M0
1000
0000
0000
0000
0M00
0000
1000
0000
0001
0000
0010
0000
0000
0000
0100
1000
0100
0000
0010
0000
0000
0000
0001
0000
0000
0000
,  // measure 9
0101
0000
0000
0000
0010
0000
1000
0000
0M00
000M
0000
0000
0010
0000
0000
M000
0100
0001
0100
0000
0010
0000
0000
0000
1000
0001
1000
0000
0000
0000
0000
0000
,  // measure 10
0MM2
0000
0000
M000
0000
0000
0000
0000
0000
0000
0000
0000
M200
0000
00M0
0000
00M0
0000
00M3
0000
00M0
0000
0000
0000
2000
0000
0000
0000
0000
0000
0300
0000
000M
0000
000M
0000
0020
0000
0000
0030
0000
0000
0000
0000
0000
00M0
3000
0000
,  // measure 11
0001
0000
0000
0000
0000
0000
0000
0000
0100
0000
0000
0000
0000
0000
0000
0000
0001
0000
0000
0000
0000
0000
0000
0000
0100
0000
0000
0000
0000
0000
0000
0000
0000
0000
0000
0000
0001
0000
0000
0000
0000
0000
0000
0000
0000
0000
0000
0000
1000
0000
0000
0000
0000
0000
0000
0000
0000
0000
0000
0000
0010
0000
0000
0000
0000
0000
0000
0000
0000
0000
0000
0000
0100
0000
0000
0000
0000
0000
0000
0000
0000
0000
0000
0000
0001
0000
0000
0000
0000
0000
0000
0000
0000
0000
0000
0000
0010
0000
0000
0000
0000
0000
0100
0000
0000
0000
0000
0000
M010
0000
0000
0000
0000
0000
0100
0000
0000
0000
0000
0000
M010
0000
0000
0000
0000
0000
0000
0000
0000
0000
0000
0000
0000
0000
0000
0000
0000
0000
0000
0000
0000
0000
0000
0000
010M
0000
0000
0000
0000
0000
0010
0000
0000
0000
0000
0000
0100
0000
0000
0000
0000
0000
0010
0000
0000
0000
0000
0000
0100
0000
0000
0000
0000
0000
0000
0000
0000
0000
0000
0000
1000
0000
0000
0000
0000
0000
0000
0000
0000
0000
0000
0000
,  // measure 12
001M
0000
1000
0000
0100
0000
0000
0000
11MM
0000
0000
0000
0100
0000
1000
0000
0010
1000
0010
0000
1000
0000
0000
0000
1M01
0000
0000
0000
1010
0000
0M10
0000
,  // measure 13
1000
0000
0000
0000
0000
0000
0000
0000
0000
0000
0000
0000
0001
0000
0000
0000
0000
0000
0000
0000
0000
0000
0000
0000
0010
0000
0000
0000
0000
0000
0000
0000
0000
0000
0000
0000
0100
0000
0000
0000
0000
0000
0000
0000
0000
0000
0000
0000
0010
0000
0000
0000
0000
0000
0001
0000
0000
0000
0000
0000
0010
0000
0000
0000
0000
0000
0001
0000
0000
0000
0000
0000
M010
0000
0000
0000
0000
0000
0000
0000
0000
0000
0000
0000
0001
0000
0000
0000
0000
0000
0000
0000
0000
0000
0000
0000
0010
0000
0000
0000
0000
0000
0100
0000
0000
0000
0000
0000
0010
0000
0000
0000
0000
0000
0000
0000
0000
0000
0000
0000
0100
0000
0000
0000
0000
0000
0000
0000
0000
0000
0000
0000
1000
0000
0000
0000
0000
0000
0000
0000
0000
0000
0000
0000
0001
0000
0000
0000
0000
0000
0000
0000
0000
0000
0000
0000
1000
0000
0000
0000
0000
0000
0000
0000
0000
0000
0000
0000
0MM1
0000
0000
0000
0000
0000
0000
0000
1000
0000
0000
0000
0000
0000
0000
0000
0001
0000
0000
0000
0000
0000
0000
0000
,  // measure 14
2000
0000
3100
0020
0000
0031
M200
0000
0301
0000
10M0
0100
0000
0100
1000
000M
,  // measure 15
202M
0000
0000
0000
0000
0000
0000
0000
0000
0000
0000
0000
0000
0000
0000
0000
0000
0000
0000
0000
0000
0000
0000
0000
0000
0000
0000
0000
0000
0000
0000
0000
0030
0000
0000
0000
0000
0000
0000
0000
0000
0000
0000
0000
0000
0000
0000
0000
3010
0000
0000
0000
0000
0000
0000
0000
1000
0000
0000
0000
0000
0000
0000
0000
0010
0000
0000
0000
0000
0000
0000
0000
1M00
0000
0000
0000
0000
0000
0000
0000
0000
0000
0000
0000
0001
0000
0000
0000
0000
0000
0000
0000
0000
0000
0000
0000
2000
0000
0000
0000
0000
0000
0000
0000
0000
0000
0000
0000
0M00
0000
0000
0000
0000
0000
00M0
0000
0000
0000
0000
0000
0000
0000
0000
0000
0000
0000
0000
0000
0000
0000
0000
0000
0000
0000
0000
0000
0000
0000
0000
0000
0000
0000
0000
0000
3001
0000
0000
0000
0000
0000
0000
0000
0000
0000
0000
0000
0100
0000
0000
0000
0000
0000
0000
0000
0000
0000
0000
0000
10M0
0000
0000
0000
0000
0000
0000
0000
0000
0000
0000
0000
0100
0000
0000
0000
0000
0000
0000
0000
0000
0000
0000
0000
,  // measure 16
0002
0000
0000
0000
0000
0000
0003
0000
1100
0000
0000
0000
1010
0000
0000
0000
1000
0001
1000
0000
0100
0000
0010
0000
0002
0000
0000
0000
0103
0000
0010
0000
,  // measure 17
1000
0000
0000
0000
0000
0000
0000
0000
0000
0000
0000
0000
0200
0000
0000
0000
0000
0000
0000
0000
0000
0000
0000
0000
10M0
0000
0000
0000
0000
0000
0000
0000
0000
0000
0000
0000
0000
0000
0000
0000
0000
0000
0000
0000
0000
0000
0000
0000
0000
0000
0000
0000
0000
0000
0000
0000
0000
0000
0000
0000
0000
0000
0000
0000
0000
0000
0000
0000
0000
0000
0000
0000
0010
0000
0000
0000
0000
0000
0300
0000
0000
0000
0000
0000
0001
0000
0000
0000
0000
0000
0000
0000
0000
0000
0000
0000
M020
0000
0000
0000
0000
0000
0000
0000
0000
0000
0000
0000
0M00
0000
0000
0000
0000
0000
0000
0000
0000
0000
0000
0000
0000
0000
0000
0000
0000
0000
0000
0000
0000
0000
0000
0000
0001
0000
0000
0000
0030
0000
0000
0000
0000
0000
0000
0000
0M02
0000
0000
0000
0000
0000
0000
0000
0000
0000
0000
0000
0000
0000
0000
0000
0000
0000
0000
0000
0000
0000
0000
0000
1000
0000
0000
0000
0000
0000
0000
0000
0000
0000
0000
0000
0003
0000
0000
0000
0000
0000
0000
0000
0000
0000
0000
0000
,  // measure 18
1000
0100
0010
0100
M001
0100
0010
0001
4000
0000
0000
0010
3000
0010
1000
0000
,  // measure 19
2MM2
0000
0000
0000
0000
0000
0000
0000
0000
3003
0000
0000
1000
0000
0010
0000
0100
0000
0001
0000
0000
0000
0000
0000
M202
0000
0000
00M0
0000
0000
0300
0000
0000
0000
0000
0000
1003
0000
0000
0010
0000
0000
0100
0000
0000
0002
0000
0000
,  // measure 20
M010
0010
0000
0013
0100
1000
0020
0000
1000
100M
000M
1030
0100
1000
0010
0200
,  // measure 21
0001
0000
0001
0000
00M0
0000
0301
0000
1000
0000
0100
0000
0010
0000
0001
0000
1000
0001
1000
0001
1000
0001
4M00
0000
00M4
0000
0000
0000
0000
0000
3000
0000
,  // measure 22
1003
0000
0000
0100
0000
0000
0000
0000
0000
1000
0000
0000
0010
0000
0000
0100
0000
0000
0101
0000
0000
M000
0000
0000
0110
0000
0000
0000
0000
0000
001M
0000
0000
1000
0000
0000
0100
0000
0000
1000
0000
0000
0001
0000
0100
0000
0010
0000
,  // measure 23
2000
0000
000M
3010
1000
0200
0001
0000
M301
0100
0010
0001
1000
0001
1M01
0000
,  // measure 24
0001
0000
0010
0000
0001
0000
0010
0000
0001
0000
0000
0000
1000
0000
0100
0000
1000
0000
0000
0000
0001
0000
0000
0000
0200
0000
0000
0000
0000
0000
0000
0000
0010
0000
0000
0000
M010
0000
0000
0000
000M
000M
000M
0000
0310
0000
0000
0000
0100
0000
0000
0000
0010
0000
0000
0000
2000
0000
0000
0000
0000
0000
0000
0000
,  // measure 25
0001
0000
0000
0000
0000
0000
0000
0000
3000
0000
0000
0000
0100
0000
0000
0000
0000
0000
0000
0000
0000
0000
0000
0000
0100
0000
0000
0000
0000
0000
0000
0000
0000
0000
0000
0000
1000
0000
0000
0000
0000
0000
0000
0000
0000
0000
0000
0000
001M
0000
0000
0000
0000
0000
0000
0000
0000
0000
0000
0000
0100
0000
0000
0000
0000
0000
0000
0000
0000
0000
0000
0000
0010
0000
0000
0000
0000
0000
0000
0000
0000
0000
0000
0000
1000
0000
0000
0000
0000
0000
0000
0000
0000
0000
0000
0000
0001
0000
0000
0000
0000
0000
0010
0000
0000
0000
0000
0000
0M01
0000
0000
0000
0000
0000
0010
0000
0000
0000
0000
0000
0M01
0000
0000
0000
0000
0000
0000
0000
0000
0000
0000
0000
1000
0000
0000
0000
0000
0000
0010
0000
0000
0000
0000
0000
1000
0000
0000
0000
0000
0000
0000
0000
0000
0000
0000
0000
0001
0000
0000
0000
0000
0000
0000
0000
0000
0000
0000
0000
0100
0000
0000
0000
0000
0000
0000
0000
0000
0000
0000
0000
0010
0000
0000
0000
0000
0000
0000
0000
0000
0000
0000
0000
,  // measure 26
1000
0010
0M10
0001
1000
0010
0100
001M
0100
1000
0100
0001
0010
1000
0010
0200
,  // measure 27
100M
100M
0000
13M0
0100
0100
0001
1000
0010
0100
0001
M010
0100
0010
0100
1000
,  // measure 28
11MM
0000
0000
1M1M
0000
0000
11MM
0000
0000
M1M1
0000
0000
MM11
0000
0000
100M
,  // measure 29
11MM
0000
0000
0000
0000
0000
0000
0000
0000
1M1M
0000
0000
0000
0000
0000
0000
0000
0000
M11M
0000
0000
0000
0000
0000
0000
0000
0000
M1M1
0000
0000
0000
0000
0000
0000
0000
0000
MM11
0000
0000
0000
0000
0000
0000
0000
0000
0010
M000
0000
,  // measure 30
M11M
0000
0000
11MM
0000
0000
M11M
0000
0000
M1M1
0000
0000
M11M
0000
0000
0M01
,  // measure 31
1MM1
0000
0000
1000
0001
0020
1000
0000
2030
0000
3010
0001
0100
0010
2000
0100
,  // measure 32
010M
0000
0000
00M0
3000
0000
000M
0000
1100
0000
0000
0000
1010
0000
0000
0000
1M00
0001
1000
0000
0001
0000
0010
0000
0200
0000
0000
0000
100M
0000
2300
0000
,  // measure 33
0100
0000
00M0
0000
0002
0000
0000
0000
3000
0000
0000
0000
0103
0000
0010
0000
1000
0010
1000
0000
0001
0000
1000
0000
0100
0000
0000
0000
11M0
0000
0000
0000
,  // measure 34
010M
100M
001M
1000
0100
0020
0100
0000
M001
0001
0000
0031
1000
0001
0200
0000
,  // measure 35
0340
0000
100M
000M
010M
0000
1030
0000
0401
0000
0010
M000
M001
0000
0301
0000
,  // measure 36
0001
1000
0001
1000
0001
0000
1000
0100
1000
0000
0100
0000
0010
0000
0001
0000
M100
0000
0001
0000
0000
0000
0100
0000
0010
0000
1000
0000
0100
0000
0020
0000
,  // measure 37
0001
0001
M000
0031
0010
0100
1000
0010
0001
0010
1000
0010
0100
0010
100M
0020
,  // measure 38
0100
0100
0000
0130
M002
0010
M010
0000
0010
0003
0010
0001
1000
0100
0010
0000
,  // measure 39
0011
M000
0000
0010
0001
0100
0101
0000
1100
00M0
0000
0100
1100
1000
0001
0000
,  // measure 40
0012
0000
0000
0M10
0000
0000
0000
0000
0000
0000
0000
0000
0013
0000
0001
0000
0010
0000
0100
0000
1000
0000
0100
0000
2000
0000
0000
0100
000M
0000
0000
0000
0000
0000
0000
0000
3100
0000
1000
0000
0100
0000
0010
0000
0001
0000
0010
0000
,  // measure 41
0002
0010
0000
0013
0100
1000
0010
0100
0010
0001
0010
0100
0001
1000
0001
10M0
,  // measure 42
0100
0000
1000
0000
0100
0000
1000
0000
0010
0000
1000
0000
0001
0000
1000
0000
0M10
1000
0010
0000
1000
0000
0001
0000
0010
0000
0100
0000
0010
0000
M001
0000
,  // measure 43
0100
0010
0100
0010
0100
0000
0010
0000
1000
0000
0100
0000
1000
0000
0010
0000
0100
0001
0100
0001
0100
0000
0001
0000
1000
0000
0010
1000
0010
0000
0000
0000
,  // measure 44
1M1M
0000
0000
M11M
0000
0000
M1M1
0000
0000
11MM
0000
0000
MM11
0000
0000
001M
,  // measure 45
M11M
0000
0000
11MM
0000
0000
MM11
0000
0000
1M1M
0000
0000
MM11
0000
0000
100M
,  // measure 46
1M1M
0000
0000
11MM
0000
0000
M1M1
0000
0000
MM11
0000
0000
M11M
0000
0000
01M0
,  // measure 47
20M1
0000
3000
0001
0010
0100
0010
1000
002M
0100
0000
0130
2000
0001
3001
0000
,  // measure 48
2MM1
0000
0000
0000
00M0
0000
3000
0000
1100
0000
0000
0000
0011
0000
0000
0000
0001
0010
0M01
0000
1000
0000
0M00
0000
0010
0000
0M00
0000
100M
0000
0010
0000
,  // measure 49
1010
0000
0000
0000
0101
0000
0000
0000
0001
0000
0000
0000
1M01
0000
0000
0000
1000
0010
1000
0000
0000
0000
001M
0000
0100
0000
0000
0000
M010
0000
0100
0000
,  // measure 50
0001
0000
0010
0000
0010
0000
100M
0M00
0010
0000
0010
0000
0001
0000
1000
0000
0100
0010
0100
0010
0100
0000
100M
0000
0000
0000
1000
000M
0010
0000
0000
0000
,  // measure 51
012M
0000
0000
M000
0000
0000
0M00
0000
0030
0000
0000
0000
M1M0
0000
0001
M000
0100
0000
0001
0000
0000
0100
0000
0000
0020
0000
0000
000M
0000
0000
1030
0000
0000
0100
0000
0000
0100
0000
0000
M001
0000
0000
0010
0000
0000
0010
0000
0000
,  // measure 52
1000
0010
1M00
0010
1000
0000
0001
0010
0001
0000
0010
0000
0200
0000
M000
0000
001M
0000
001M
0000
030M
0000
010M
0000
1000
0000
0010
0000
0100
0000
0001
0000
,  // measure 53
1000
0000
0000
0000
0010
0000
0000
0000
0000
0000
0000
0000
0010
0000
0000
0000
0100
0000
0000
0000
0001
0000
M000
M000
M010
M000
M000
0000
0100
0000
0000
0000
0010
0000
0001
0000
0010
0000
0001
0000
0010
0000
0000
0000
0100
0000
0000
0000
1000
0000
0100
0000
1000
0000
0000
0000
0100
0000
0010
0000
0100
0000
0000
0000
,  // measure 54
0010
0000
0001
0000
0100
0000
0010
0000
0100
0000
0010
0000
0001
0000
0010
0000
1000
0M10
1000
0000
0001
0000
1000
0000
0010
0000
0100
0000
0001
0000
1000
0000
,  // measure 55
02M0
0001
0300
0100
0010
0001
2000
0000
3020
0230
M302
0023
0000
0130
1000
0001
,  // measure 56
1MM0
0001
1000
0001
1000
0000
0010
0100
0010
0000
1000
0000
0020
0000
000M
0000
0430
0000
M000
0000
0000
0000
0301
0000
0010
0000
1000
0000
0010
0000
010M
0000
,  // measure 57
1000
0000
0010
0000
0100
0000
0001
0000
2000
00M0
0M01
0000
3001
0000
1000
0000
0010
0100
0010
0100
0010
0000
1000
0010
1000
0000
0001
0000
0100
0000
0001
0000
,  // measure 58
1000
0000
0100
0000
0001
0000
0100
0000
0010
0000
0100
0000
1000
0000
0001
0000
1000
0100
1000
0000
0001
0000
0100
0000
0010
0000
0001
0000
0010
0000
0100
0000
,  // measure 59
0010
0100
0010
0100
0010
0000
1000
0000
0100
0000
0010
0000
0100
0000
0010
0000
0001
0100
0001
0000
0100
0000
0010
0000
1000
0000
0100
0000
0001
0000
0400
0000
,  // measure 60
0040
0000
M000
000M
M000
000M
M000
000M
M000
000M
M000
000M
M000
000M
M000
000M
,  // measure 61
M000
000M
M000
000M
0330
0000
0MM0
0000
0000
0000
0000
0000
0000
0000
0000
0000
;
