#TITLE:Colorful Course;
#SUBTITLE:;
#ARTIST:Yuuyu;
#TITLETRANSLIT:;
#SUBTITLETRANSLIT:;
#ARTISTTRANSLIT:;
#GENRE:;
#CREDIT:;
#BANNER:;
#BACKGROUND:;
#LYRICSPATH:;
#CDTITLE:;
#MUSIC:colorful.mp3;
#OFFSET:0.347714;
#SAMPLESTART:75.099991;
#SAMPLELENGTH:12.340000;
#SELECTABLE:YES;
#BPMS:0.000000=160.000000
,34.500000=320.000000
,36.000000=160.000000
,63.500000=320.000000
,66.000000=160.000000
,194.000000=320.000000
,197.000000=160.000000
,342.000000=640.000000
,342.500000=160.000000
,389.000000=320.000000
,390.000000=160.000000
,420.000000=640.000000
,425.000000=160.000000
;
#STOPS:34.500000=0.094000,
35.000000=0.094000,
35.500000=0.094000,
63.500000=0.188000,
64.500000=0.094000,
65.000000=0.047000,
65.250000=0.094000,
65.750000=0.047000,
196.000000=0.188000,
342.000000=0.516000,
389.000000=0.938000,
424.000000=0.281255
;
#BGCHANGES:;
#KEYSOUNDS:;
#ATTACKS:;

//---------------dance-single - ----------------
#NOTES:
     dance-single:
     :
     Challenge:
     13:
     1.188046,1.226723,0.551884,0.528096,1.574773,1748.000000,1632.000000,116.000000,111.000000,3.000000,5.000000,1.188046,1.226723,0.551884,0.528096,1.574773,1748.000000,1632.000000,116.000000,111.000000,3.000000,5.000000:
// measure 0
0000
0000
0000
0000
0000
0000
0000
0000
0000
0000
0000
0000
0000
0000
0000
0000
0000
0000
0000
0000
0000
1000
0100
1000
,  // measure 1
0001
0000
0000
0000
1001
0000
0000
0000
1001
0000
0000
0101
0000
0000
1010
0000
,  // measure 2
0000
0000
0110
0000
0110
0000
1001
0000
1100
0000
0000
0110
0000
0000
0011
0000
,  // measure 3
0000
0000
0101
0000
0101
0000
1010
0000
1010
0000
0000
1100
0000
0000
1020
0000
,  // measure 4
0000
0130
0101
0001
1001
0000
1100
0000
,  // measure 5
0110
0000
0000
0000
0011
0000
0000
0000
0110
0000
0000
1100
0000
0000
1001
0000
,  // measure 6
0000
0000
0101
0000
1001
0000
1100
0000
0110
0000
0000
0011
0000
0000
0110
0000
,  // measure 7
0000
0000
1001
0000
1001
0000
0110
0000
1010
0000
0000
0110
0000
0000
2002
0000
,  // measure 8
0000
3003
0202
0000
0000
0303
2020
0000
0000
3030
0110
0000
0110
0000
0001
0000
,  // measure 9
1001
0000
1000
0000
0010
0000
0100
0000
0001
0010
0100
0010
0001
0000
0100
0010
,  // measure 10
1000
0000
0001
0010
0100
0000
0010
0001
1000
0010
1000
0001
0100
0010
1000
0001
,  // measure 11
0010
0000
0100
0000
1100
0000
1000
0000
0001
0100
0001
0010
0100
0000
1000
0100
,  // measure 12
1000
0010
0100
0001
0010
0100
1000
0100
1000
0001
0000
1000
0001
0100
0010
0000
,  // measure 13
1000
0000
0010
0000
0110
0000
0100
0000
0001
0010
0100
0010
0001
0000
0100
0001
,  // measure 14
0010
0000
0100
1000
0010
0000
0100
0010
0100
0001
0100
0010
0100
0001
1000
0100
,  // measure 15
0010
0000
0100
0000
1100
0000
1000
0000
0001
0010
0001
1000
0002
0000
0200
0000
,  // measure 16
0000
0000
0000
0000
0000
0000
0010
0000
0000
0000
0000
0000
0010
0000
0000
1000
0000
0000
0000
0000
0000
0010
0000
0000
1303
0000
0000
0000
0000
0000
0001
0000
0100
0000
0001
0000
0100
0000
0000
0000
0000
0000
0001
0000
0000
0000
0000
0000
,  // measure 17
0101
0000
0100
0000
0010
0000
1000
0100
0000
0010
0001
0000
0100
0000
0010
1000
,  // measure 18
0010
0000
0100
0000
0001
0000
0010
0001
0000
1000
0010
0000
1000
0001
0000
0100
,  // measure 19
0001
0000
0010
0000
0100
0000
0010
0001
0000
0001
0100
0000
0010
0000
0100
0000
,  // measure 20
0000
0001
0000
0001
0100
0000
0100
0001
0000
1000
0100
0000
0010
0000
0010
0001
,  // measure 21
0100
0000
0010
0000
1000
0000
0100
0010
0000
0100
1000
0000
0010
0000
0100
0001
,  // measure 22
0100
0000
0010
0000
1000
0000
0001
0010
0000
0010
0100
0000
0100
1000
0000
1000
,  // measure 23
0001
0000
0100
0000
0010
0000
1000
0010
0000
0100
0001
0000
0010
0000
0100
0000
,  // measure 24
1000
0001
0010
0100
0010
0000
0100
1000
0010
0100
0001
0000
0101
0000
0100
0000
,  // measure 25
1001
0000
0001
0000
0100
0000
0010
1000
0000
0010
0100
0000
0010
0000
1000
0100
,  // measure 26
0010
0000
0001
0000
1000
0000
0001
1000
0000
1000
0010
0000
0100
0001
0000
0001
,  // measure 27
0010
0000
0100
0000
1000
0000
0001
0100
0000
0010
0100
0000
0010
0000
0100
0000
,  // measure 28
0000
0010
0000
0100
0001
0000
0010
0001
0000
0010
0001
0100
0010
1000
0001
1000
,  // measure 29
1001
0000
0001
0000
0100
0000
0010
1000
0000
0001
0010
0000
0100
0000
0100
0010
,  // measure 30
0100
0000
1000
0000
0010
0000
0100
0001
0000
0001
0010
0000
0010
0100
0000
0100
,  // measure 31
1000
0000
0001
0000
0100
0000
0010
0000
1000
0001
0100
0001
0010
0000
0100
0000
,  // measure 32
1000
0001
0010
0100
0010
0000
0001
0000
0100
0001
0010
0100
1000
0000
1001
0000
,  // measure 33
0101
0100
0020
0000
1030
0100
0002
0000
,  // measure 34
0103
0000
1000
0000
0020
0000
0100
0000
0100
0000
0130
0001
0010
0000
0100
0000
,  // measure 35
1000
0000
0010
0000
0100
0000
0001
0020
0000
0000
0001
0000
0001
0000
0031
0000
,  // measure 36
1000
0100
0010
0001
1000
0100
0010
0001
1000
0010
0100
0001
1000
0010
0100
0001
,  // measure 37
1000
0100
0002
0000
0103
0010
2000
0000
,  // measure 38
3020
0000
0000
0000
0000
0000
0031
0010
0200
0000
0000
2300
0000
0000
3020
0000
,  // measure 39
0130
0001
1000
0010
0200
0000
0000
0000
0310
0100
0000
0010
0100
0000
0101
0000
,  // measure 40
1000
0000
0000
0100
0000
0000
0010
0000
0000
0100
0000
0000
0010
0000
0000
0001
0000
0000
1000
0000
0000
0010
0000
0000
1000
0000
0010
0000
1000
0000
0010
0000
1000
0000
0010
0000
0100
0000
0001
0000
0100
0000
0001
0000
0100
0000
0001
0000
,  // measure 41
2000
3100
1000
0100
0010
0001
0020
0032
0203
0310
1000
0020
0130
0001
0020
0130
,  // measure 42
2000
0000
0000
3100
0000
0000
0010
0000
0000
0002
0000
0000
1003
0000
0000
0001
0000
0000
2000
0000
0000
3010
0000
0000
0200
0000
0000
0310
0000
0000
0100
0000
0010
0000
0100
0000
0010
0000
0000
0100
0000
0000
0001
0000
0000
0010
0000
0000
,  // measure 43
0200
2300
3200
1300
0001
0100
0020
0130
0020
1030
0100
2000
3001
0010
0200
1300
,  // measure 44
0002
1003
0100
0020
0031
0100
0020
0130
0001
2000
3100
1000
0002
0013
0002
1003
,  // measure 45
0002
0000
0000
0103
0000
0000
0001
0000
0000
1000
0000
0000
0100
0000
0000
1000
0000
0000
0002
0000
0010
0003
0001
0000
0020
0000
0030
0001
0000
0000
0010
0000
0000
0200
0000
0000
1300
0000
0000
0100
0000
0000
2000
0000
0000
3001
0000
0000
,  // measure 46
0200
0000
0000
0310
0000
0000
1000
0000
0000
0002
0000
0000
0013
0000
0000
0001
0000
0000
0200
0000
0000
0310
0000
0000
2000
0000
0000
3010
0000
0000
0100
0000
0010
0000
0100
0000
0010
0000
0000
2000
0000
0000
3002
0000
0000
2003
0000
0000
,  // measure 47
3100
0010
0001
0100
0001
1000
0100
1000
0001
0010
0002
1003
0020
1030
0002
0103
,  // measure 48
0002
0013
0100
2000
3100
0010
0002
1003
0002
0000
0000
0000
0000
0000
0003
0000
,  // measure 49
M00M
0000
0000
0000
0001
0000
0100
0000
0010
0000
1000
0100
0010
0001
0010
0100
,  // measure 50
1000
0000
0001
0000
0100
0001
0100
0001
0010
0100
0010
0100
1000
0010
0100
0001
,  // measure 51
1000
0010
0100
0001
1000
0000
0100
0000
1000
0100
1000
0010
1000
0001
0010
0001
,  // measure 52
0100
0001
1000
0010
0100
0000
0010
0100
0010
0100
0001
0010
0100
0000
1000
0100
,  // measure 53
0010
0100
1000
0010
0100
0000
0001
0100
0010
0100
0010
1000
0100
0000
1000
0100
,  // measure 54
0010
0100
0001
0100
0010
0100
1000
0100
0010
0001
1000
0010
0100
0000
0010
1000
,  // measure 55
0001
1000
0001
1000
1001
0000
0001
0000
1100
0000
0100
0000
0011
0000
0001
0000
,  // measure 56
0001
0010
0100
1000
0001
1000
0001
1000
0001
1000
0001
1000
0001
1000
0001
1000
,  // measure 57
2002
0000
0000
3003
1001
0000
0100
0000
0010
0000
1000
0100
0010
0001
0010
0100
,  // measure 58
1000
0000
0001
0000
0100
0001
0100
0001
0010
0100
0010
0100
1000
0010
0100
0001
,  // measure 59
1000
0010
0100
0001
1000
0000
0001
0100
0010
0100
0010
0001
0010
0100
0001
0010
,  // measure 60
0001
1000
0010
0100
0001
0000
0010
0100
0010
0100
1000
0010
0100
1000
0100
0010
,  // measure 61
0100
0010
1000
0010
0100
0000
0001
0100
0010
0100
0010
1000
0100
0000
1000
0100
,  // measure 62
0010
0100
0001
0100
0010
0100
1000
0100
0010
0001
1000
0010
0100
0001
1000
0001
,  // measure 63
1000
0010
1000
0010
1010
0000
0010
0000
0100
0000
0001
0000
1001
0000
1000
0000
,  // measure 64
0100
0010
0100
1000
0001
1000
0001
1000
0001
1000
0001
1000
0001
1000
0001
1000
,  // measure 65
0001
0000
1000
0000
0001
0000
1000
0000
0001
0000
1000
0000
0001
0000
0000
0000
0000
0000
0100
0000
0000
0000
0000
0000
0010
0000
0000
0000
0000
0000
0100
0000
0000
0001
0000
0000
0000
0000
0000
1000
0000
0000
0001
0000
0000
0000
0000
0000
,  // measure 66
1000
0000
0100
0010
0100
0000
0010
0000
0001
0000
1000
0100
0000
0100
1000
0000
,  // measure 67
1000
0010
0000
0100
0001
0000
0100
0000
0010
0000
1000
0100
0000
1000
0001
0000
,  // measure 68
0100
0000
0010
0000
0000
1000
0000
0100
0010
0000
0001
0100
0000
0010
1000
0000
,  // measure 69
0010
0000
0100
0001
0100
0000
0001
0000
0100
0000
0001
1000
0000
0100
1000
0000
,  // measure 70
0010
0000
1000
0001
1000
0000
0010
0000
0100
0000
0001
0100
0000
0100
0001
0000
,  // measure 71
1000
0100
0000
0010
0001
0000
0100
0000
0010
0000
1000
0100
0000
0010
0100
0000
,  // measure 72
0010
0000
0001
0000
0100
0010
1000
0100
0010
0000
0100
0010
0001
0010
0011
0000
,  // measure 73
1100
0000
1000
0000
0101
0000
0100
0000
0010
0000
1000
0001
0000
0010
0001
0000
,  // measure 74
0100
0000
0010
1000
0100
0000
0010
0000
0100
0000
1000
0100
0000
1000
0100
0000
,  // measure 75
0010
0001
0000
0010
0001
0000
0100
0000
0010
0000
1000
0010
0000
0100
0010
0000
,  // measure 76
0100
0000
0001
0000
0000
0001
0000
0001
0100
0000
0010
0100
0000
0010
1000
0000
,  // measure 77
0100
0000
0010
0000
0011
0000
0001
0000
1000
0000
0010
0100
0000
0010
0100
0000
,  // measure 78
0010
0000
1000
0100
0010
0000
0001
0000
0100
0000
0001
1000
0000
1000
0001
0000
,  // measure 79
0100
0020
0000
0130
0000
0000
0001
0000
0100
0000
0110
0000
1010
0000
1000
0100
,  // measure 80
0010
0000
0001
0000
1000
0010
0100
0001
0100
0000
1010
0000
0100
0001
1000
0010
,  // measure 81
1000
0000
1001
0000
0101
0000
0100
0000
1010
0000
0000
0000
0010
1000
0100
0010
,  // measure 82
0001
0000
0100
0010
0100
0000
0001
0000
0001
0000
0000
1000
0100
0000
1000
0010
,  // measure 83
0100
0000
0010
0100
0001
0000
0010
0001
0100
0000
0010
1000
0100
1000
0100
1000
,  // measure 84
0000
0000
0010
0000
0100
0001
0010
0100
1000
0100
0010
0001
0100
0010
1000
0100
,  // measure 85
0010
0001
1000
0010
1000
0000
0001
1000
1001
0000
1000
0100
1000
0000
0010
0000
,  // measure 86
0100
0001
0100
0001
1000
0000
0100
0010
0100
0000
1000
0010
1000
0001
0100
0000
,  // measure 87
0010
0000
0000
0000
0000
0000
0010
0000
0000
0000
0000
0000
0000
0000
0000
1000
0000
0000
0000
0000
0000
1000
0000
0000
0100
0000
0000
1000
0000
0000
0001
0000
0000
1000
0000
0000
0001
0000
0100
0000
0001
0000
0100
0000
0001
0000
0100
0000
,  // measure 88
0001
0100
0010
1000
0001
0100
0010
1000
0100
0010
0001
1000
0100
0010
0001
0000
,  // measure 89
1001
0000
1000
0100
1100
0000
0010
0001
0011
0000
1000
0010
1010
0000
0100
0001
,  // measure 90
0101
0000
1000
0100
0110
0000
0010
0001
0011
0000
0001
0100
0001
0100
0010
1000
,  // measure 91
1010
0000
0100
0010
0110
0000
0010
0100
0101
0000
0001
1000
1001
0000
1000
0100
,  // measure 92
0010
0100
0010
0001
1000
0010
1000
0010
0100
0001
0010
0001
1000
0100
0010
0001
,  // measure 93
1001
0000
1000
0010
1010
0000
0001
0100
0101
0000
1000
0100
1100
0000
0010
0001
,  // measure 94
0011
0000
0001
0100
0101
0000
0100
0010
0110
0000
0100
0001
0100
0010
1000
0100
,  // measure 95
1100
0000
0010
0001
1001
0000
0001
1000
1010
0000
0010
0100
0110
0000
0010
1000
,  // measure 96
0100
1000
0100
0010
0001
1000
0010
1000
0010
0100
0001
1000
0100
0010
0100
1000
,  // measure 97
0001
0100
0001
0100
0404
0000
0303
0000
0002
0103
0001
0100
0001
0100
0002
2003
,  // measure 98
3002
0103
0010
0200
0301
0010
0200
1300
0020
0130
0001
0200
0310
1000
0200
1300
,  // measure 99
0020
0000
0000
0130
0000
0000
0010
0000
0100
0000
0010
0000
0100
0000
0000
0010
0000
0000
0100
0000
0000
0001
0000
0000
2000
0000
0000
3200
0000
0000
2300
0000
0000
3100
0000
0000
0010
0000
0000
0001
0000
0000
0020
0000
0000
0031
0000
0000
,  // measure 100
0200
0310
1000
0200
0310
0001
0020
0130
2000
3010
0100
0002
0013
0001
0200
0310
,  // measure 101
1000
0020
1030
0001
2000
3100
0020
0031
0200
0310
0100
0001
0010
0100
0020
0230
,  // measure 102
0320
0031
0100
0020
0130
0001
2000
3100
0020
0130
1000
0200
0310
0001
2000
3010
,  // measure 103
0200
0000
0000
0301
0000
0000
1000
0000
0100
0000
1000
0000
0100
0000
0000
2000
0000
0000
3200
0000
0000
0320
0000
0000
0230
0000
0000
1300
0000
0000
0010
0000
0000
0100
0000
0000
0010
0000
0000
1000
0000
0000
0100
0000
0000
0010
0000
0000
,  // measure 104
0001
0010
0200
0310
0002
0103
0020
1030
0200
0310
0001
0200
0310
1000
0002
0013
,  // measure 105
0002
0000
0000
0003
,  // measure 106
000M
0000
0000
0000
0001
1000
0010
0100
0001
1000
0100
0010
0001
0010
0100
1000
,  // measure 107
0010
0100
0010
0100
1000
0100
1000
0100
0010
0100
0010
1000
0001
0100
0010
1000
,  // measure 108
0010
0100
0001
1000
0001
0000
1000
0010
1000
0010
0100
0010
0001
0010
0100
0001
,  // measure 109
0100
0001
1000
0010
0100
0000
0010
0100
0010
0100
0001
0010
0100
1000
0100
0010
,  // measure 110
0100
1000
0001
0100
1000
0000
0100
0001
1000
0100
0010
0001
1000
0010
0100
0010
,  // measure 111
0001
0010
0100
0010
1000
0000
1000
0100
0010
0001
1000
0010
0100
0001
0010
0001
,  // measure 112
1000
0001
1000
0001
1001
0000
0010
0000
1100
0000
0010
0000
0101
0000
0010
0000
,  // measure 113
1000
0010
0100
0001
0010
0100
0010
0100
0010
0100
0010
0100
0010
0100
0010
0100
,  // measure 114
0010
0100
0010
0100
0110
0000
0010
0001
0010
0001
1000
0100
0010
1000
0010
0100
,  // measure 115
1000
0100
0010
0001
1000
0000
0001
0100
0010
0100
0010
1000
0001
0010
0100
0010
,  // measure 116
1000
0010
0100
1000
0001
0000
0100
0001
0100
0010
1000
0010
1000
0100
0010
0100
,  // measure 117
0001
0100
0010
0001
1000
0000
0001
0100
0100
1000
0010
0100
0010
1000
0100
0100
,  // measure 118
0001
0100
0010
0100
0110
0000
0001
0010
0010
1000
0001
0010
0100
1000
0010
0010
,  // measure 119
0001
1000
0001
1000
1001
0000
0001
0100
0100
1000
0010
0010
0001
0010
0010
1000
,  // measure 120
0010
1000
0001
1000
1001
0000
0010
0000
0101
0000
1000
0000
0110
0000
0001
0000
,  // measure 121
1000
0100
0010
0001
0100
0010
0100
0010
0100
0010
0100
0010
1000
0100
0010
0001
,  // measure 122
1000
0001
1000
0001
1001
0000
1000
0000
1010
0000
0100
0010
0000
0100
0001
0000
,  // measure 123
1001
0000
1000
0100
0010
0000
0100
0000
1000
0000
0001
0100
0000
0100
1000
0000
,  // measure 124
1000
0010
0000
0010
0001
0000
0100
0000
0010
0000
1000
0010
0000
1000
0100
0000
,  // measure 125
0010
0000
0001
0000
0010
0000
0001
0000
0000
0000
0000
0000
0000
0000
0000
1000
0000
0000
0000
0000
0000
1000
0000
0000
0010
0000
0000
0000
0000
0000
0000
0000
0000
1000
0000
0000
0000
0000
0000
0001
0000
0000
0010
0000
0001
0000
0010
0000
,  // measure 126
0001
0010
0100
0000
1000
0000
0010
0000
0100
0000
0100
0001
0000
1000
0010
0000
,  // measure 127
1000
0000
1000
0100
0010
0000
0001
0000
0100
0000
0010
0100
0000
0001
1000
0000
,  // measure 128
0010
1000
0000
1000
0001
0000
0100
0000
0010
0000
0100
0001
0000
0100
0010
0000
,  // measure 129
0010
0000
0100
0000
0010
0000
0100
0000
0000
0000
0000
0000
0000
0000
0000
0001
0000
0000
0000
0000
0000
0001
0000
0000
1000
0000
0000
0000
0000
0000
0000
0000
0000
0100
0000
0000
0000
0000
0000
0100
0000
0000
1000
0000
0000
0100
0000
0000
,  // measure 130
1000
0000
0100
0000
1000
0000
0100
0000
0000
0000
0000
0000
1100
0000
0000
0000
0000
0000
1000
0000
0000
0000
0000
0000
0010
0000
0000
0000
0000
0000
0010
0000
0000
0100
0000
0000
0000
0000
0000
0010
0000
0000
1000
0000
0000
0000
0000
0000
,  // measure 131
0001
0000
1000
0000
0001
0000
1000
0000
0000
0010
0000
0000
1000
0000
0010
0000
1000
0000
0010
0000
0000
1000
0000
0000
0001
0000
0000
0000
0000
0000
1000
0000
0000
0100
0000
0000
0000
0000
0000
1000
0000
0000
0100
0000
0000
0000
0000
0000
,  // measure 132
0010
0001
0000
0010
0001
0000
0001
0000
1000
0000
0001
0100
0000
0001
0010
0000
,  // measure 133
0100
0000
1000
0000
0100
0000
1000
0000
0000
0000
0000
0000
0000
0000
0000
0010
0000
0000
0000
0000
0000
0010
0000
0000
0100
0000
0000
0000
0000
0000
0000
0000
0000
0001
0000
0000
0000
0000
0000
0001
0000
0000
0100
0000
0000
0001
0000
0000
,  // measure 134
0100
0000
0001
0000
0100
0000
0001
0000
0000
0000
0000
0000
0101
0000
0000
0000
0000
0000
1000
0000
0000
0000
0000
0000
0100
0000
0000
0000
0000
0000
0100
0000
0000
0010
0000
0000
0000
0000
0000
0001
0000
0000
1000
0000
0000
0000
0000
0000
,  // measure 135
0001
0000
1000
0000
0001
0000
1000
0000
0000
0001
0000
0000
0010
0000
0000
0000
0000
0000
0100
0000
0000
0000
0000
0000
1000
0000
0000
0000
0000
0000
1000
0000
0000
0010
0000
0000
0000
0000
0000
1000
0000
0000
0001
0000
0000
0010
0000
0000
,  // measure 136
0001
0000
0010
0000
0001
0000
0010
0000
0000
0001
0000
0000
0010
0000
0000
0000
0000
0000
1100
0000
0000
0000
0000
0000
1000
0000
0000
0000
0000
0000
1100
0000
0000
0000
0000
0000
1100
0000
0000
0000
0000
0000
0000
0000
0000
0110
0000
0000
,  // measure 137
0000
0000
0011
0000
0001
0000
0011
0000
0001
0000
0011
0000
0001
0010
0100
1000
,  // measure 138
1100
0110
2002
0000
0000
0000
0000
0000
,  // measure 139
0000
0000
0000
3003
1000
0100
0001
0000
0000
0000
0000
0000
0000
0000
0000
0000
;
