#TITLE:Cherry Blossom Whirlwind;
#SUBTITLE:;
#ARTIST:Beatdrop;
#TITLETRANSLIT:;
#SUBTITLETRANSLIT:;
#ARTISTTRANSLIT:;
#GENRE:;
#CREDIT:;
#BANNER:;
#BACKGROUND:;
#LYRICSPATH:;
#CDTITLE:;
#MUSIC:Cherry Blossom Whirlwind.mp3;
#OFFSET:-0.046000;
#SAMPLESTART:61.014004;
#SAMPLELENGTH:12.000000;
#SELECTABLE:YES;
#BPMS:0.000000=176.000000
,416.500000=171.000000
,417.000000=167.000000
,417.500000=160.000000
,418.000000=155.000000
,418.500000=153.000000
,419.000000=148.000000
,419.500000=143.000000
,420.000000=139.000000
,420.500000=134.000000
,421.000000=129.000000
,421.500000=124.999992
,422.000000=115.000000
,423.000000=110.000000
,423.500000=106.000000
,424.500000=101.000000
,426.500000=95.000000
,427.000000=101.000000
,430.500000=120.000000
,430.750000=124.999992
,431.000000=140.000000
,431.500000=176.000000
;
#STOPS:
;
#BGCHANGES:;
#KEYSOUNDS:;
#ATTACKS:;

//---------------dance-single - ----------------
#NOTES:
     dance-single:
     :
     Challenge:
     13:
     1.108112,1.173027,0.982616,0.384896,0.753943,1713.000000,1496.000000,217.000000,85.000000,0.000000,0.000000,1.108112,1.173027,0.982616,0.384896,0.753943,1713.000000,1496.000000,217.000000,85.000000,0.000000,0.000000:
// measure 0
0000
0000
0000
0000
,  // measure 1
0000
0000
0000
0000
,  // measure 2
0000
0000
0000
0000
,  // measure 3
0000
0000
0000
0000
,  // measure 4
1000
1000
1000
0010
1000
1000
0010
1000
,  // measure 5
1000
1000
1000
0010
1000
1000
0010
1000
,  // measure 6
0001
0001
0001
0010
0001
0001
0010
0001
,  // measure 7
1001
0000
1001
0000
1001
0000
1100
0000
0100
1000
0000
0100
1000
0010
0000
0100
,  // measure 8
0010
0000
0000
0010
0100
0000
0010
0000
1010
0000
0000
0000
1000
0001
1000
0000
,  // measure 9
1100
0000
0000
0100
0010
0000
0001
0000
0101
0000
0000
0000
0100
0010
1000
0000
,  // measure 10
1100
0000
0000
0100
0010
0000
0001
0000
0101
0000
0001
0000
0100
0001
0010
0000
,  // measure 11
0110
0000
0100
0010
0001
0000
0100
0000
0110
0000
0010
0000
1000
0001
0010
0000
,  // measure 12
0110
0000
0100
1000
0001
0000
0010
0000
1100
0000
1000
0000
0010
1000
0100
0000
,  // measure 13
1100
0000
1000
0100
1000
0000
0001
0000
0101
0000
0100
0000
0001
0100
1000
0000
,  // measure 14
1100
0000
0100
1000
0100
0000
0010
0000
1010
0000
1000
0000
0001
0010
1000
0000
,  // measure 15
1010
0000
0010
0100
1000
0000
0001
0000
0011
0000
0010
0000
0100
1000
0001
0000
,  // measure 16
1001
0000
0000
1000
0001
0000
0100
0000
0010
0000
1000
0010
0100
0000
0001
0000
,  // measure 17
0101
0000
0000
0100
0001
0000
1000
0000
0100
0000
1000
0010
1000
0000
0001
0000
,  // measure 18
0011
0000
0000
0010
0001
0000
0100
0000
0010
0000
1000
0010
0100
0000
0001
0000
,  // measure 19
0011
0000
0000
0010
0100
0000
0010
0000
1000
0000
0010
0100
1000
0000
0001
0000
,  // measure 20
0101
0000
0000
0100
0010
0000
1000
0000
0100
0000
0001
0100
1000
0000
0010
0000
,  // measure 21
0110
0000
0000
0100
1000
0000
0100
0000
0010
0000
0001
0010
1000
0000
0100
0000
,  // measure 22
1100
0000
0000
0100
0010
0000
0001
0000
0100
0000
1000
0100
1000
0000
0100
0000
,  // measure 23
0101
0000
0000
0001
0010
0000
0100
0000
1000
0000
0100
1000
0010
0000
0100
0000
,  // measure 24
0101
0000
0000
0001
1000
0000
0100
0000
0010
0000
0010
0001
0100
0000
0010
0000
,  // measure 25
0110
0000
0000
0100
0010
0000
1000
0000
0100
0000
0100
1000
0010
0000
0100
0000
,  // measure 26
0101
0000
0000
0100
0001
0000
0010
0000
0100
0000
0010
0001
0100
0000
0010
0000
,  // measure 27
0110
0000
0000
0010
0001
0000
0010
0000
0100
0000
1000
0100
0001
0000
0010
0000
,  // measure 28
0110
0000
0000
0100
1000
0000
0001
0000
0100
0000
0010
0001
0010
0000
0100
0000
,  // measure 29
0101
0000
0000
0100
0010
0000
0100
0000
1000
0000
0100
0010
0100
0000
0001
0000
,  // measure 30
1000
0010
0100
0010
1000
0001
0010
0100
0010
0001
1000
0010
1000
0001
0100
0010
,  // measure 31
1000
0100
0010
0100
1000
0010
0100
0010
0100
0001
0010
0100
1000
0000
0000
0000
,  // measure 32
1000
1010
1001
0001
0100
0110
1001
0110
,  // measure 33
0010
0000
1100
0000
0011
0000
0001
0000
1000
0100
0010
0000
0100
1000
0010
0100
,  // measure 34
0001
0011
1010
1000
0001
1100
0101
1100
,  // measure 35
1000
0000
0101
0000
1010
0000
0010
0000
1000
0001
0010
0000
0100
1000
0010
1000
,  // measure 36
0001
0101
0011
0010
0100
1100
0011
1100
,  // measure 37
1000
0000
1010
0000
1001
0000
0001
0000
0100
0010
1000
0000
0001
0010
1000
0010
,  // measure 38
0001
0011
0101
0100
0010
1010
1100
0011
,  // measure 39
1000
0000
1001
0000
0110
0000
0001
0000
1000
0100
0010
0000
0100
0001
0100
1000
,  // measure 40
0010
1010
1001
0100
0001
0011
0110
0011
,  // measure 41
1000
0000
1010
0000
0011
0000
1000
0000
0001
0100
0010
0000
0100
0010
0001
0010
,  // measure 42
1000
1010
1001
0001
0010
0110
1100
1010
,  // measure 43
0100
0000
0101
0000
0011
0000
0010
0000
0010
0001
0100
0000
0100
1000
0100
0001
,  // measure 44
0010
0011
0011
0100
1000
1010
0011
1100
,  // measure 45
1000
0000
0110
0000
1001
0000
0001
0000
0100
0001
1000
0000
0100
0001
0100
0010
,  // measure 46
0100
1100
1001
0001
0100
0101
1010
0110
,  // measure 47
1001
0000
0000
1000
0010
0000
0010
0000
0100
0000
0001
0010
0000
0000
0000
0000
,  // measure 48
0001
0100
0010
0100
1000
0100
0010
1000
,  // measure 49
0001
0000
0010
0000
0100
0000
0001
0000
0100
1000
0100
0010
0001
0100
0010
1000
,  // measure 50
0010
0100
0001
0010
1000
0010
0001
0100
,  // measure 51
0010
0000
0100
0000
1000
0000
0100
0000
0001
0100
0010
0000
0100
0001
0010
0100
,  // measure 52
1000
0010
0100
0010
1000
0001
0010
0100
,  // measure 53
0001
0000
0100
0000
1000
0000
0010
0000
0100
0010
0100
0001
0100
0010
1000
0001
,  // measure 54
0010
0100
1000
0100
0001
0100
1000
0010
,  // measure 55
0001
0000
0010
0000
1000
0000
0001
0000
1000
0010
0001
0000
0001
0010
1000
0010
,  // measure 56
1000
0000
0010
1000
0001
0000
0010
0000
1000
0000
0010
0000
1000
0000
0001
0000
,  // measure 57
0100
0000
1000
0100
1000
0000
0010
0000
1000
0010
0100
0001
0010
0001
0100
0010
,  // measure 58
1000
0000
0100
1000
0010
0000
0001
0000
0010
0000
0100
0000
0010
0000
1000
0000
,  // measure 59
0100
0000
0001
0100
1000
0000
0010
0000
0100
0010
0001
0010
0100
0001
0100
0001
,  // measure 60
0010
0000
0100
0010
0100
0000
0001
0000
0100
0000
0010
0000
0100
0000
1000
0010
,  // measure 61
0100
0000
0100
0001
0010
0000
0100
0000
1000
0100
1000
0010
0100
0001
0010
0001
,  // measure 62
0100
0000
0010
0100
0001
0000
0010
0000
0100
0000
1000
0000
0010
0000
0100
0000
,  // measure 63
0001
0000
1000
0001
1001
0000
0001
0000
0010
0100
0010
0001
0100
0010
1000
0001
,  // measure 64
2000
3020
0032
0023
2030
3002
0023
2030
,  // measure 65
3020
0230
2300
3200
0320
2030
3002
2003
,  // measure 66
3020
0032
0203
0320
0032
0023
0230
0302
,  // measure 67
0023
0230
0302
2003
3020
0032
2003
3020
,  // measure 68
0032
2003
3200
0302
2003
3200
0302
0203
,  // measure 69
0320
0032
0203
0320
2030
3020
0230
0302
,  // measure 70
2003
3020
0032
0023
2030
3200
0302
0203
,  // measure 71
2300
3020
0230
0320
0032
0023
0230
0310
,  // measure 72
1010
0000
0011
0000
1010
0000
1000
0000
0001
0000
1100
0000
0100
0000
1000
0100
,  // measure 73
0001
0110
1001
1000
0010
0110
0011
1010
,  // measure 74
1000
0000
0011
0000
1100
0000
1000
0000
0010
0000
0101
0000
0001
0000
0100
0001
,  // measure 75
0010
0110
1100
1000
0010
0110
0011
1001
,  // measure 76
1000
0000
0101
0000
1010
0000
0010
0000
0100
0000
1001
0000
0010
0000
1000
0100
,  // measure 77
0001
0101
0110
0100
1000
0011
0011
0011
,  // measure 78
1000
0000
0110
0000
1010
0000
0010
0000
0100
0000
0101
0000
0001
0000
0010
0001
,  // measure 79
0100
0101
0101
0110
0110
1001
0011
1100
,  // measure 80
1010
0000
1000
0000
0010
1000
0100
0000
1100
0000
1000
0000
0001
1000
0010
0100
,  // measure 81
0010
0000
0100
0000
0001
0010
0001
0000
1001
0000
1000
0000
0010
0100
0010
0000
,  // measure 82
1010
0000
1000
0000
0100
0010
0001
0000
0101
0000
0001
0000
1000
0010
1000
0100
,  // measure 83
1000
0000
0100
0000
0010
0001
1000
0000
1010
0000
0010
0000
0100
0001
0010
0000
,  // measure 84
0011
0000
1000
0000
0001
1000
0010
0000
1010
0000
0100
0000
0001
0010
0001
0000
,  // measure 85
0011
0000
0100
0000
1000
0100
0010
0000
0110
0000
0100
0000
1000
0010
0100
0000
,  // measure 86
0101
0000
0001
0000
0010
0001
1000
0000
0011
0000
1000
0000
0100
1000
0010
0000
,  // measure 87
0100
0000
0010
0000
0100
0001
0100
0000
0010
0000
1000
0000
0100
0010
0001
0000
,  // measure 88
1000
0000
0001
0100
0001
0000
1000
0000
0100
0010
0001
0100
0010
0000
1000
0000
,  // measure 89
0010
0000
0100
0010
0100
0000
0001
0000
0010
0100
0010
0001
0010
0000
0100
0000
,  // measure 90
1000
0000
0010
1000
0010
0000
0100
0000
0001
0010
0001
0100
0001
0000
1000
0000
,  // measure 91
0010
0000
0100
0010
1000
0000
0100
0000
0010
0001
0100
0010
0100
0000
0001
0000
,  // measure 92
1000
0000
0100
1000
0100
1000
0100
0000
0010
0000
0001
0100
0001
0010
0001
0000
,  // measure 93
0100
0000
0010
1000
0010
0100
0001
0000
1000
0000
0001
0010
0001
0100
0001
0000
,  // measure 94
1000
0000
0010
0100
0010
0001
0010
0000
0100
0000
0001
0010
0100
0010
1000
0000
,  // measure 95
0010
0000
0100
1000
0001
0100
0010
0000
0100
0000
1000
0100
0010
0100
0001
0000
,  // measure 96
1000
0000
0100
1000
0010
0000
0100
0001
0010
0001
0100
0010
1000
0001
0010
0000
,  // measure 97
0100
0000
1000
0001
1000
0000
0010
0100
0010
1000
0001
0010
0001
1000
0100
0000
,  // measure 98
1000
0000
0010
1000
0100
0000
0010
0001
0100
0010
0100
0010
1000
0100
1000
0000
,  // measure 99
0010
0000
1000
0001
0010
0000
0100
0010
0100
1000
0100
0010
0100
1000
0001
0100
,  // measure 100
0001
0000
1000
0100
1000
0100
0010
0000
0100
0000
0010
0001
1000
0010
0100
0001
,  // measure 101
0100
0000
0001
0010
0100
1000
0010
0000
0100
0000
1000
0100
0001
1000
0100
0010
,  // measure 102
0001
0000
1000
0010
0100
0010
1000
0000
0010
0000
0001
0010
1000
0001
0010
0100
,  // measure 103
1000
0000
0001
0010
0100
0010
1000
0000
0010
0000
1000
0010
0100
0010
0001
0000
,  // measure 104
2001
0001
0000
0001
0000
0001
0000
0001
,  // measure 105
0000
0001
0000
0001
0000
0001
0001
3001
,  // measure 106
0200
0010
0000
1000
0000
0010
0000
0301
,  // measure 107
0100
0000
1000
0000
0100
0000
0001
0000
1000
0000
0001
0000
0100
0000
0001
1000
,  // measure 108
0001
0000
0010
0001
0100
0000
0010
0000
1000
0100
1000
0010
1000
0000
0001
0000
,  // measure 109
0100
0000
0010
0100
0010
0000
1000
0000
0100
1000
0010
0100
0001
0000
0010
0000
,  // measure 110
0001
0000
0100
0010
1000
0000
0100
0000
0010
0100
1000
0010
0100
0000
0001
0000
,  // measure 111
1000
0000
0010
0100
0010
0000
0100
0000
0001
0010
0001
0010
0100
1000
0100
1000
,  // measure 112
0010
0000
0100
0001
0100
0000
0010
0000
1000
0010
0100
0001
0010
0100
1000
0000
,  // measure 113
0010
0000
0100
0001
0100
0000
0010
0000
1000
0010
1000
0100
0010
0100
0010
0000
,  // measure 114
0001
0000
0100
0001
1000
0000
0100
0000
1000
0010
1000
0100
1000
0010
0100
0000
,  // measure 115
0001
0000
0010
0001
0100
0000
0010
0000
0100
0010
1000
0100
0010
0100
1000
0000
,  // measure 116
1001
0000
0001
0100
0010
0000
0100
0010
1000
0100
0010
0100
0001
0100
0010
0100
,  // measure 117
1000
0000
0001
0010
0100
0000
1000
0001
0010
0100
0010
1000
0010
0100
0010
0001
,  // measure 118
1000
0000
0001
0100
0001
0000
1000
0010
1000
0010
0100
0010
0001
0010
0100
0010
,  // measure 119
1000
0000
0001
1000
0001
0000
0010
0001
0100
0001
0100
0010
0100
1000
0100
0010
,  // measure 120
0100
0000
0001
1000
0010
0000
0100
0001
0010
0001
0100
0010
1000
0100
1000
0010
,  // measure 121
1000
0000
0100
1000
0010
0000
0010
0100
0010
0100
1000
0100
0010
0100
0010
1000
,  // measure 122
0001
1000
0001
1000
0001
0100
0001
0100
0001
1000
0100
0010
0100
1000
0010
0100
,  // measure 123
0010
0000
0000
1000
0000
0000
0100
0000
0000
0010
0000
0000
0001
0000
0000
0010
0000
0000
0100
0000
0000
0010
0000
0000
0001
0000
0000
0000
0000
0000
0100
0000
0010
0000
0100
0000
0010
0000
0000
0000
0000
0000
1000
0000
0000
0000
0000
0000
,  // measure 124
1010
0011
1010
1000
0001
0011
0110
1100
,  // measure 125
1000
0110
0011
0001
1000
1100
0101
1100
,  // measure 126
1000
0110
1001
1000
0001
1010
0101
0110
,  // measure 127
0100
1010
0110
0010
0100
0101
0011
0101
,  // measure 128
0100
1010
1001
0010
1000
1001
0110
0101
,  // measure 129
0001
1010
0110
0100
0001
1010
1100
0011
,  // measure 130
1000
1001
0011
0001
0100
0110
1010
1000
,  // measure 131
1001
0000
0000
1000
0001
0000
0101
0000
0110
0000
0000
0000
0100
0000
0001
1000
,  // measure 132
1001
0000
0001
0000
0001
0000
0010
0000
0010
0000
0001
0000
0000
0001
0010
0000
,  // measure 133
0000
0001
0001
0010
0000
0001
0001
0001
,  // measure 134
0100
0000
0001
0000
0001
0000
0100
0000
0100
0000
0001
0000
0000
0001
0100
0000
,  // measure 135
0000
0001
0001
0100
0000
0001
0001
1001
,  // measure 136
1000
0000
0001
0000
0001
0000
1000
0000
1000
0000
0001
0000
0000
0001
1000
0000
,  // measure 137
0000
0001
0001
1000
0000
0001
0001
0001
,  // measure 138
1000
0000
0001
0000
0001
0000
1000
0000
1000
0000
0001
0000
0000
0000
0001
1000
,  // measure 139
0001
0000
0000
0000
0000
0000
0001
0000
0000
0000
0000
0000
0001
0000
0000
0000
0000
0000
1000
0000
0000
0000
0000
0000
0010
0000
0000
0000
0000
0000
0010
0000
0000
0100
0000
0000
0001
0000
1000
0000
0001
0000
1000
0000
0001
0000
1000
0000
,  // measure 140
0001
0000
0100
0000
0010
0000
1000
0100
1000
0000
0100
0000
0010
0100
0010
0001
,  // measure 141
0010
0000
0001
0000
0100
0000
0010
1000
0010
0000
0100
0000
0010
1000
0100
0010
,  // measure 142
0001
0000
0100
0000
0010
0000
1000
0100
0001
0000
0100
0000
0010
0001
0010
0100
,  // measure 143
1000
0000
0010
0000
0100
0000
0001
0100
1000
0000
0100
0000
1000
0100
0010
0100
,  // measure 144
0001
0000
0100
0000
0010
0000
1000
0100
1000
0000
0010
0000
0100
0010
0100
0010
,  // measure 145
0001
0000
0010
0000
0100
0000
0001
0010
0001
0000
1000
0000
0100
0010
0100
0001
,  // measure 146
0100
0000
1000
0000
0010
0000
0100
0001
0100
0000
0001
0000
1000
0001
1000
0000
,  // measure 147
1100
0101
1100
0011
1010
0011
1100
0110
,  // measure 148
2001
3001
0210
0301
0012
0103
1001
0000
,  // measure 149
0210
0310
2100
3010
0012
0103
1010
1010
,  // measure 150
2010
3001
0012
0103
1002
0103
1001
0000
,  // measure 151
1000
0010
1000
0020
0200
0000
0330
0000
0102
0000
0000
0013
1000
0010
0001
0000
,  // measure 152
0012
0013
0012
0103
0012
1003
1001
0000
,  // measure 153
2100
0000
3010
0000
0012
0000
0103
0000
0120
0000
0031
0000
0001
0010
1000
0000
,  // measure 154
1010
1010
0011
0000
0101
0101
0110
0000
,  // measure 155
1001
0000
0110
0000
1001
0000
0000
0000
0001
0100
1000
0000
1000
0100
0001
0000
,  // measure 156
2002
0000
0000
0000
,  // measure 157
3003
0000
0000
0000
;
