#TITLE:Boulafacet;
#SUBTITLE:;
#ARTIST:Nightmare;
#TITLETRANSLIT:;
#SUBTITLETRANSLIT:;
#ARTISTTRANSLIT:;
#GENRE:Hardcore;
#CREDIT:;
#BANNER:;
#BACKGROUND:;
#LYRICSPATH:;
#CDTITLE:;
#MUSIC:Boulafacet.OGG;
#OFFSET:0.747; // offset by SM2ITG v2 (used to be 0.745694)
#SAMPLESTART:23.099997;
#SAMPLELENGTH:11.160000;
#SELECTABLE:YES;
#DISPLAYBPM:170.000000:0.000000;
#BPMS:0.000000=42.500000
,1.000000=170.000000
,7.000000=1360.000000
,19.000000=680.000000
,20.000000=170.000000
,27.000000=680.000000
,28.000000=170.000000
,31.000000=680.000000
,49.000000=170.000000
,72.000000=340.000000
,97.000000=680.000000
,113.000000=255.000000
,115.000000=170.000000
,118.000000=340.000000
,118.500000=170.000000
,121.500000=340.000000
,122.000000=255.000000
,123.000000=510.000000
,124.000000=170.000000
,138.000000=1360.000000
,144.000000=170.000000
,148.000000=340.000000
,151.000000=170.000000
,151.500000=255.000000
,152.250000=170.000000
,152.750000=340.000000
,153.250000=170.000000
,157.000000=340.000000
,161.000000=85.000000
,161.500000=340.000000
,163.000000=170.000000
,167.000000=340.000000
,172.000000=170.000000
,172.500000=255.000000
,174.000000=170.000000
,177.000000=255.000000
,178.500000=85.000000
,180.500000=42.500000
,181.500000=21.250000
,182.000000=85.000000
,214.000000=170.000000
,222.000000=85.000000
,222.250000=255.000000
,223.000000=85.000000
,223.250000=170.000000
,223.500000=85.000000
,223.750000=170.000000
,224.500000=255.000000
,225.250000=170.000000
,225.750000=85.000000
,226.250000=255.000000
,227.000000=170.000000
,227.250000=85.000000
,227.500000=170.000000
,227.750000=255.000000
,228.500000=170.000000
,238.000000=510.000000
,239.500000=340.000000
,241.000000=170.000000
,241.250000=255.000000
,241.500000=510.000000
,242.500000=170.000000
,243.000000=340.000000
,243.500000=170.000000
,244.500000=340.000000
,245.000000=510.000000
,246.500000=170.000000
,247.500000=340.000000
,251.500000=170.000000
,257.500000=340.000000
,258.500000=255.000000
,259.250000=170.000000
,259.750000=255.000000
,260.500000=340.000000
,264.500000=2720.000000
,265.500000=170.000000
,268.500000=255.000000
,269.250000=510.000000
,271.250000=340.000000
,272.250000=170.000000
,272.750000=340.000000
,274.250000=170.000000
,278.750000=255.000000
,279.000000=170.000000
,279.333344=402.963013
,279.750000=170.000000
,283.000000=255.000000
,283.500000=127.500000
,283.750000=255.000000
,284.250000=127.500000
,284.500000=255.000000
,285.500000=127.500000
,285.750000=255.000000
,286.750000=127.500000
,287.000000=255.000000
,288.000000=170.000000
,296.000000=340.000000
,304.000000=170.000000
,314.000000=340.000000
,315.000000=170.000000
,318.000000=127.500000
,320.000000=255.000000
,320.500000=340.000000
,324.000000=680.000000
,325.000000=170.000000
;
#STOPS:19.000000=0.088235,
27.000000=0.264706,
48.000000=0.176471,
72.000000=0.176000,
113.000000=0.235000,
113.500000=0.147000,
114.000000=0.059000,
114.500000=0.147000,
118.000000=0.029000,
118.166664=0.029000,
118.333336=0.029000,
121.500000=0.029000,
121.666664=0.029000,
121.833336=0.029000,
122.000000=0.118000,
123.000000=0.235000,
124.500000=0.176000,
125.500000=0.176000,
127.000000=0.088000,
127.500000=0.088000,
128.000000=0.088000,
128.500000=0.088000,
129.000000=0.088000,
129.500000=0.088000,
130.000000=0.088000,
130.500000=0.088000,
131.000000=0.088000,
131.500000=0.088000,
132.000000=0.088000,
132.500000=0.088000,
133.000000=0.088000,
134.250000=0.088000,
136.000000=0.088000,
136.750000=0.088000,
143.750000=0.089000,
148.000000=0.088000,
149.000000=0.088000,
150.000000=0.176000,
161.500000=0.029000,
162.000000=0.029000,
162.500000=0.029000,
265.000000=0.154000,
269.250000=0.059000,
269.500000=0.059000,
269.750000=0.059000,
270.000000=0.059000,
270.250000=0.059000,
270.500000=0.059000,
270.750000=0.059000,
271.000000=0.059000,
278.500000=0.210000,
278.583344=0.225000,
278.666656=0.230000,
308.000000=0.088000,
308.500000=0.088000,
309.000000=0.088000,
309.250000=0.088000,
309.750000=0.088000,
310.750000=0.088000
;
#KEYSOUNDS:;
#ATTACKS:;

//---------------dance-single - ----------------
#NOTES:
     dance-single:
     :
     Challenge:
     13:
     1.000000,1.000000,0.560121,0.183920,1.000000,840.000000,67.000000,22.000000,0.000000,2.000000,5.000000,1.000000,1.000000,0.560121,0.183920,1.000000,840.000000,67.000000,22.000000,0.000000,2.000000,5.000000:
// measure 0
0000
2002
0000
0000
,  // measure 1
0000
0000
0000
0000
,  // measure 2
0000
0000
0000
0000
,  // measure 3
0000
0000
0000
0000
,  // measure 4
0000
0000
0000
0000
0000
0000
0000
0000
0000
0000
0000
0000
0000
0000
0000
0000
0000
0000
0000
0000
0000
0000
0000
0000
0000
0000
0000
0000
0000
0000
0000
0000
0000
0000
0000
0000
0000
0000
0000
0000
0000
0000
0000
0000
0000
0000
0000
0000
0000
0000
0000
0000
0000
0000
0000
0000
0000
0000
0000
0000
0000
0000
0000
0000
0000
0000
0000
0000
0000
0000
0000
0000
0000
0000
0000
0000
0000
0000
0000
0000
0000
0000
0000
0000
0000
0000
0000
0000
0000
0000
0000
0000
0000
0000
0000
0000
0000
0000
0000
0000
0000
0000
0000
0000
0000
0000
0000
0000
0000
0000
0000
0000
0000
0000
0000
0000
0000
0000
0000
0000
0000
0000
0000
0000
0000
0000
0000
0000
0000
0000
0000
0000
0000
0000
0000
0000
0000
0000
0000
0000
0000
0000
0000
0000
0000
3003
0000
0000
0000
0000
0000
0000
0000
0000
0000
0000
0000
0000
0000
0000
0000
0000
0000
0000
0000
0000
0000
0000
0000
0000
0000
0000
0000
0000
0000
0000
0000
0000
0000
0000
0000
0000
0000
0000
0000
0000
0000
0000
0000
0000
0000
0000
,  // measure 5
2020
0000
0000
0000
,  // measure 6
0000
0000
0000
0000
0000
0000
0000
0000
0000
0000
0000
0000
0000
0000
0000
0000
0000
0000
0000
0000
0000
0000
0000
0000
0000
0000
0000
0000
0000
0000
0000
0000
0000
0000
0000
0000
0000
0000
0000
0000
0000
0000
0000
0000
0000
0000
0000
0000
0000
0000
0000
0000
0000
0000
0000
0000
0000
0000
0000
0000
0000
0000
0000
0000
0000
0000
0000
0000
0000
0000
0000
0000
0000
0000
0000
0000
0000
0000
0000
0000
0000
0000
0000
0000
0000
0000
0000
0000
0000
0000
0000
0000
0000
0000
0000
0000
0000
0000
0000
0000
0000
0000
0000
0000
0000
0000
0000
0000
0000
0000
0000
0000
0000
0000
0000
0000
0000
0000
0000
0000
0000
0000
0000
0000
0000
0000
0000
0000
0000
0000
0000
0000
0000
0000
0000
0000
0000
0000
0000
0000
0000
0000
0000
0000
0000
3030
0000
0000
0000
0000
0000
0000
0000
0000
0000
0000
0000
0000
0000
0000
0000
0000
0000
0000
0000
0000
0000
0000
0000
0000
0000
0000
0000
0000
0000
0000
0000
0000
0000
0000
0000
0000
0000
0000
0000
0000
0000
0000
0000
0000
0000
0000
,  // measure 7
0202
0000
0000
0000
,  // measure 8
0000
0000
0000
0000
,  // measure 9
0000
0000
0000
0000
,  // measure 10
0000
0000
0000
0000
,  // measure 11
0000
0000
0000
0303
,  // measure 12
0000
0000
0000
0000
0000
0000
0000
0000
0000
0000
0000
0000
1000
0000
0010
0000
1000
0000
0010
0000
0000
1000
0000
0000
0010
0000
0000
1000
0000
0000
0001
0000
0000
0010
0000
0000
0000
0000
0000
0100
0000
0010
0000
0100
0000
0000
0000
0000
,  // measure 13
1000
0000
0000
0001
0000
0000
0000
0000
0000
0100
0000
0000
0000
0000
0000
0010
0000
0000
1000
0000
0010
0000
1000
0000
0010
0000
0000
0000
0000
0000
0100
0000
0000
0000
0000
0000
0010
0000
0000
1000
0000
0000
0001
0000
0000
0010
0000
0000
,  // measure 14
0100
0010
0001
0100
0010
0000
1000
0010
1000
0010
0100
0000
0001
0010
0001
0010
,  // measure 15
0100
0000
0010
0001
1000
0010
0000
1000
0100
0000
1000
0100
0010
0100
1000
0000
,  // measure 16
0010
1000
0001
0010
0001
0000
0100
0010
0100
0001
1000
0000
0100
0010
0100
1000
,  // measure 17
0001
0000
0010
0001
1000
0010
1000
0001
0010
0100
1000
0010
0100
0001
0010
0001
,  // measure 18
0100
0000
0010
1000
0001
0000
0101
0000
,  // measure 19
0100
0010
1000
0001
0100
0000
0110
0000
,  // measure 20
0010
1000
0001
0010
0100
0000
1100
0000
,  // measure 21
1000
0100
0010
0001
0100
0000
0010
0000
,  // measure 22
0100
0000
0010
1000
0100
0000
1100
0000
,  // measure 23
1000
0000
0000
0010
0000
0000
0100
0000
0000
0001
0000
0000
0100
0000
0000
0000
0000
0000
0010
0000
0100
0000
0010
0000
,  // measure 24
0100
0010
2000
0000
0000
0000
0000
0000
,  // measure 25
0000
0010
0000
0010
,  // measure 26
0000
0010
0000
0010
,  // measure 27
0000
0010
0000
0010
,  // measure 28
3000
0000
0000
0000
1010
0000
0110
0000
0101
0000
1010
0000
1000
0000
0010
0100
,  // measure 29
0001
0000
0000
0000
0000
0000
0010
0000
0000
0001
0000
0000
0100
0000
0000
0010
0000
0000
0000
0000
0000
0100
0000
0000
0010
0000
1000
0000
0010
0000
1000
0000
0000
0000
0000
0000
0001
0000
0000
0000
0000
0000
0100
0000
0000
0010
0000
0000
,  // measure 30
1000
0000
0000
0000
0000
0000
0001
0000
0000
0010
0000
0000
0000
0000
0000
0100
0000
0000
0010
0000
0001
0000
0010
0000
0100
0000
0000
0000
0000
0000
0000
0000
0000
0000
0000
0000
1001
0000
0000
0000
0000
0000
0000
0000
0000
0000
0000
0000
,  // measure 31
1010
0000
0000
0000
0000
0000
0011
0000
0000
0000
0000
0000
0011
0000
0000
0000
0000
0000
1010
0000
0000
0000
0000
0000
1000
0000
0001
0000
1000
0000
0001
0000
1000
0000
0001
0000
1000
0000
0000
1000
0000
0000
0100
0000
0000
0100
0000
0000
,  // measure 32
0010
0010
0001
0001
0100
0100
0010
0010
0001
0001
0010
0010
1000
1000
0100
0100
,  // measure 33
0010
0010
1000
1000
0010
0010
0001
0100
0010
1000
1000
0010
0100
0001
1000
0100
,  // measure 34
0010
0010
0001
0100
0110
0000
1010
0000
2002
0000
0000
0000
0000
0000
0000
0000
,  // measure 35
0000
0000
0000
0000
0000
0000
0000
0000
0000
0000
0000
0000
0000
0000
0000
3003
,  // measure 36
0101
0000
0010
1000
0010
0000
1000
0100
0010
0000
0002
0000
0000
0103
0000
0010
,  // measure 37
1000
0000
0000
0000
0001
0000
0000
0000
1001
0000
0000
0000
0001
0100
0001
0100
,  // measure 38
0001
0100
0001
0100
0000
0000
0010
0000
1000
0000
0001
0100
0010
0000
0100
0000
,  // measure 39
0010
1000
0000
1000
0100
0000
0000
0000
0100
0000
0010
0000
0000
0000
0010
0000
,  // measure 40
0001
0000
0000
0000
1001
0000
1010
0000
0010
0000
0100
0000
0101
0000
0001
0100
,  // measure 41
0010
0000
1000
0001
0010
0100
0010
0001
0100
0010
1000
0010
1000
0000
0010
0000
,  // measure 42
0000
0100
0001
0000
0010
0001
0100
0000
,  // measure 43
0110
0000
0000
0000
0000
0000
0010
0000
0000
1000
0000
0000
0010
0000
0000
1000
0000
0000
0010
0000
0000
1000
0000
0000
0010
0000
0000
0000
0000
0000
0100
0000
0000
0000
0000
0000
0001
0000
0010
0000
0100
0000
1000
0000
0000
0001
0000
0000
,  // measure 44
1000
0000
0000
0000
0000
0000
0000
0000
0010
0000
0000
0000
0000
0000
0000
0000
0010
1000
0000
0000
0000
0000
0000
0000
0000
0000
0000
0000
1000
0001
0000
0000
0000
0000
0000
0000
0000
0000
0000
0000
0202
0000
0000
0000
0000
0000
0000
0000
0000
0000
0000
0000
0000
0000
0000
0000
0000
0000
0000
0000
0000
0000
0000
0000
,  // measure 45
0000
0000
0000
0000
0020
0000
0000
0000
0000
0000
0000
0000
2000
0000
0000
3333
0001
0000
0000
0000
0100
0000
0000
0000
1010
0000
0000
0000
0010
0000
0000
0000
,  // measure 46
1000
0000
1000
0000
1001
0000
0100
0000
0001
0000
0100
0000
1001
0000
0010
0100
,  // measure 47
0010
0000
0000
0000
0000
0000
0000
0000
0000
0000
0000
0000
1000
0000
0000
0000
0000
0000
0000
0000
0000
0000
0000
0000
0100
0000
0000
0000
0000
0000
0000
0000
0000
0000
0000
0000
0010
0000
0000
0000
0000
0000
0000
0000
0000
0000
0000
0000
0001
0000
0000
0000
0000
0000
0010
0000
0000
0000
0000
0000
0001
0000
0000
0000
0000
0000
0010
0000
0000
0000
0000
0000
0100
0000
0000
0000
0000
0000
1000
0000
0000
0000
0000
0000
0100
0000
0000
0000
0000
0000
1000
0000
0000
0000
0000
0000
0010
0000
0000
0000
0000
0000
0000
0000
0000
0000
0000
0000
0000
0000
0000
0000
0000
0000
0000
0000
0000
0000
0000
0000
0100
0000
0000
0000
0000
0000
0000
0000
0000
0000
0000
0000
0000
0000
0000
0000
0000
0000
0000
0000
0000
0000
0000
0000
0101
0000
0000
0000
0000
0000
0000
0000
0000
0000
0000
0000
0000
0000
0000
0000
0000
0000
0000
0000
0000
0000
0000
0000
0010
0000
0000
0000
0000
0000
0000
0000
0000
0000
0000
0000
1000
0000
0000
0000
0001
0000
0000
0000
1000
0000
0000
0000
,  // measure 48
0001
0000
0100
0000
0000
0000
0010
0000
1000
0100
1000
0100
0010
0001
0000
0000
0100
0000
0000
0000
0010
0000
0100
0000
1010
0000
0000
0000
0100
0000
0010
0000
,  // measure 49
0101
0000
1001
0000
1100
0000
0011
0000
2010
0001
0010
0100
0010
3001
0102
0010
,  // measure 50
1000
0000
0013
0000
1001
0000
1000
0100
0001
0000
0201
0000
0010
0000
1300
0000
1010
0000
0101
0000
1001
0000
0110
0000
0010
0000
1001
0000
0001
0000
1010
0000
,  // measure 51
1000
0100
1000
0010
1000
0000
0110
0000
0010
0000
1000
0000
0001
0000
0010
0000
0110
0000
1001
0000
0001
0000
0100
0001
0101
0000
1001
0000
1000
0100
1000
0100
,  // measure 52
0010
0000
0000
0000
0000
0000
0000
0000
0000
0000
0000
0000
0011
0000
0000
0000
0000
0000
0000
0000
0000
0000
0000
0000
1001
0000
0000
0000
0000
0000
0000
0000
0000
0000
0000
0000
0101
0000
0000
0000
0000
0000
0000
0000
0000
0000
0000
0000
0100
0000
0000
0000
0010
0000
0000
0000
0100
0000
0000
0000
0010
0000
0000
0000
0100
0000
0000
0000
0010
0000
0000
0000
0100
0000
0000
0000
0000
0000
0000
0000
0000
0000
0000
0000
0010
0000
0000
0000
0000
0000
0000
0000
0000
0000
0000
0000
1000
0000
0000
0000
0000
0000
0100
0000
0000
0000
0000
0000
0010
0000
0000
0000
0000
0000
0001
0000
0000
0000
0000
0000
0100
0000
0000
0000
0000
0000
0010
0000
0000
0000
0000
0000
1000
0000
0000
0000
0000
0000
0001
0000
0000
0000
0000
0000
0010
0000
0000
0000
0000
0000
0100
0000
0000
0000
0000
0000
0001
0000
0000
0000
0000
0000
0100
0000
0000
0000
0000
0000
0010
0000
0000
0000
0000
0000
0001
0000
0000
0000
0000
0000
1000
0000
0000
0000
0000
0000
0010
0000
0000
0000
0000
0000
,  // measure 53
1000
0100
0001
0100
1000
0010
1000
0001
0100
0010
0100
0010
1000
0001
1000
0001
2001
0000
0000
0000
0000
0000
0000
0000
0000
0000
0000
0000
0000
0000
0000
0000
,  // measure 54
0001
0000
0001
0000
,  // measure 55
0001
0000
0000
0000
3000
0000
0000
0000
1001
0001
0100
0001
0100
0010
1000
0001
,  // measure 56
0010
0100
1000
0010
1000
0001
0010
0100
0100
1000
0010
0100
0001
0100
0100
0010
,  // measure 57
1000
0001
0010
0000
0100
0000
0210
0000
0000
0000
0000
0000
0000
0000
0010
0000
,  // measure 58
0000
0000
0000
0010
0000
0000
0000
0010
,  // measure 59
0000
0300
0000
0110
0010
0001
0010
0100
,  // measure 60
1000
0100
1000
0001
0100
0001
1000
0001
,  // measure 61
1000
0010
0100
0001
0100
0001
1000
1000
,  // measure 62
0010
1000
0010
0100
0001
0100
0001
0101
,  // measure 63
0001
0000
1000
0000
0100
0010
0100
1000
0000
1000
0010
0000
1000
0001
0100
0000
,  // measure 64
0010
0000
1000
0000
0010
0000
1000
0000
0000
0000
0000
0000
1100
0000
0000
0000
0000
0000
0011
0000
0000
0000
0000
0000
0000
0000
0000
0000
0000
0000
1000
0000
0000
0010
0000
0000
1000
0000
0000
0010
0000
0000
1000
0000
0000
0010
0000
0000
,  // measure 65
1000
0000
0000
0010
0000
0000
1000
0000
0000
0000
0000
0000
0000
0000
0001
0000
0000
0000
0000
0000
0000
0000
0010
0000
0000
0000
0000
0000
0000
0000
1001
0000
0000
0000
0000
0000
0000
0000
0010
0000
0000
0000
0000
0000
0000
0000
0100
0000
,  // measure 66
0000
0000
0000
0000
0000
0000
0101
0000
0000
0000
0000
0000
0000
0000
0000
0000
0000
0000
1001
0000
0000
0000
0000
0000
0000
0000
1000
0000
0010
0000
1000
0000
0001
0000
0100
0000
0001
0000
0000
0000
0000
0000
1000
0000
0000
0010
0000
0000
,  // measure 67
0100
0000
0001
0010
0001
1000
0010
1000
0010
0100
0010
0100
0010
4000
0000
0000
,  // measure 68
0000
0000
0000
3004
0000
0000
0000
0000
0000
0000
0103
0000
0040
0000
0000
0000
,  // measure 69
1000
0000
0000
0000
0000
0000
0030
0000
0000
0000
0000
0000
1000
0000
0000
0000
0000
0000
0100
0000
0000
0000
0000
0000
0000
0000
0000
0000
0000
0000
0110
1001
0110
1000
0000
0000
0001
0000
1000
0000
0001
0000
0000
0000
0000
1000
0000
0000
,  // measure 70
0001
0010
0100
0010
0001
0100
0010
0100
0001
0010
0100
1000
0100
0000
1000
0010
,  // measure 71
0000
0100
0001
0000
0010
0000
1000
0010
0000
0001
0000
0100
1000
0000
0100
0000
,  // measure 72
0001
0000
0000
0000
0000
0000
1000
0000
0000
0000
0000
0000
0001
0000
0100
0000
0010
0000
1000
0000
0000
0001
0000
0000
1000
0000
0100
0000
1000
0000
0001
0000
0000
0100
0000
0000
0001
0000
1000
0000
0001
0000
1000
0000
0000
0001
0000
0000
,  // measure 73
0100
0000
0000
0010
0000
0000
0100
0000
0000
0010
0000
0000
1000
0000
0010
0000
1000
0000
0010
0000
0000
1000
0000
0000
0001
0000
0000
0010
0000
0000
0400
0000
4000
0000
0000
0000
0000
0000
0000
0000
0000
0000
0000
0000
3000
0000
0300
0000
,  // measure 74
0010
0001
0100
0001
1000
0001
0010
0001
,  // measure 75
1000
0001
0100
0001
0010
0100
1000
0001
,  // measure 76
1000
0000
0001
0100
0001
0000
1000
0100
1000
0010
0100
0001
0010
0001
0100
0010
,  // measure 77
1000
1000
0100
0100
0001
0101
0100
0010
0010
0001
0100
0010
0010
1000
0000
1000
,  // measure 78
0010
0000
0100
0000
0010
0000
0200
0000
0000
0000
0000
0000
0301
0000
0000
1000
0000
0000
0000
0000
0000
0001
0000
0000
1000
0000
0000
0000
0010
0000
0000
0000
1000
0000
0000
0000
0001
0000
0000
0000
0100
0000
0000
0000
0001
0000
0000
0000
,  // measure 79
1000
0000
0000
0000
0100
0000
0000
0000
0010
0000
0000
0000
0001
0000
0000
1000
0000
0000
0100
0000
0000
0010
0000
0000
0001
0000
0000
1000
0000
0000
0100
0000
0000
0010
0000
0000
0001
0000
0000
1000
0000
0000
0100
0000
0000
0010
0000
0000
,  // measure 80
0001
1000
0100
0010
0001
1000
0100
0010
,  // measure 81
0001
0000
0000
0000
1000
0100
1000
0100
1000
0100
1000
0100
0010
0001
0010
0001
,  // measure 82
0010
0001
0010
0001
1000
0100
1000
0100
1000
0001
1000
0001
0100
0001
0100
0001
,  // measure 83
0100
0010
0100
0010
1000
0100
1000
0100
1000
0001
1000
0001
0100
0001
0100
0001
,  // measure 84
0100
0010
0100
0010
1000
0100
0010
0001
0010
0100
1000
0010
0100
0001
0100
0010
,  // measure 85
1000
0100
0010
0001
0010
0001
1000
0010
1000
0001
0100
0010
1000
0001
0100
0010
,  // measure 86
1000
0010
0100
0001
1000
0001
0010
0001
0100
0001
0010
0100
1000
0100
0010
0100
,  // measure 87
1000
0010
1000
0010
0100
0001
1000
0100
0010
0100
1000
0001
0100
0010
1000
0100
,  // measure 88
1000
0001
1000
0010
1000
0001
0010
0100
1000
0100
1000
0001
0010
0100
1000
0001
,  // measure 89
1000
0001
1000
0001
0010
0100
1000
0010
0100
0001
0100
0020
2000
0000
0000
0000
,  // measure 90
0000
0000
0000
0000
0000
0000
0000
3030
;
