#VERSION:0.83;
#TITLE:Bloodrush;
#SUBTITLE:;
#ARTIST:Tekno Dred + Ad Man;
#TITLETRANSLIT:;
#SUBTITLETRANSLIT:;
#ARTISTTRANSLIT:;
#GENRE:;
#ORIGIN:;
#CREDIT:;
#BANNER:;
#BACKGROUND:;
#PREVIEWVID:;
#JACKET:;
#CDIMAGE:;
#DISCIMAGE:;
#LYRICSPATH:;
#CDTITLE:;
#MUSIC:Bloodrush.OGG;
#OFFSET:-0.514000;
#SAMPLESTART:29.414001;
#SAMPLELENGTH:12.000000;
#SELECTABLE:YES;
#BPMS:0.000=165.000,
89.000=82.500,
90.000=165.000,
220.000=82.500,
282.000=165.000;
#STOPS:28.000=1.080,
89.000=0.008,
282.000=0.720;
#DELAYS:;
#WARPS:;
#TIMESIGNATURES:0.000=4=4;
#TICKCOUNTS:0.000=4;
#COMBOS:0.000=1;
#SPEEDS:0.000=1.000=0.000=0;
#SCROLLS:0.000=1.000;
#FAKES:;
#LABELS:0.000=Song Start;
#BGCHANGES:;
#KEYSOUNDS:;
#ATTACKS:
;

//---------------dance-single - ----------------
#NOTEDATA:;
#CHARTNAME:;
#STEPSTYPE:dance-single;
#DESCRIPTION:;
#CHARTSTYLE:;
#DIFFICULTY:Challenge;
#METER:13;
#RADARVALUES:0.999489,1.914106,0.488784,0.818428,1.196383,1231.000000,1145.000000,86.000000,144.000000,97.000000,4.000000,0.000000,0.000000,0.000000,0.999489,1.914106,0.488784,0.818428,1.196383,1231.000000,1145.000000,86.000000,144.000000,97.000000,4.000000,0.000000,0.000000,0.000000;
#CREDIT:;
#NOTES:
// measure 0
0000
0000
0000
0000
,  // measure 1
0000
0000
0000
0000
,  // measure 2
0000
0000
0000
0000
,  // measure 3
0000
0000
0000
0000
,  // measure 4
1000
0100
1000
0100
0010
0100
1000
0100
0010
0001
0010
0001
1000
0001
0100
0010
,  // measure 5
1000
0001
0010
0100
1000
0001
0100
0010
1000
0001
1000
0001
1000
0010
0100
0010
,  // measure 6
0001
0010
0100
0010
0001
0010
0100
0001
0010
0100
0010
1000
0010
0100
1000
0000
,  // measure 7
1001
1000
1100
1000
1100
1000
1100
1000
,  // measure 8
0100
1100
0010
1001
0010
0100
1001
0010
,  // measure 9
1001
0001
0011
0001
0011
0001
0011
0001
,  // measure 10
0010
0011
0100
1001
0100
1001
0100
0010
,  // measure 11
1001
0010
1010
0010
1010
0010
1010
0010
,  // measure 12
1000
1010
0100
1010
0100
1010
0100
0010
,  // measure 13
0110
0100
0110
0100
0110
0100
0110
0100
,  // measure 14
0010
0110
0010
1010
1000
0100
1100
1010
,  // measure 15
0110
0000
0101
0000
0001
0000
1001
0000
1000
0000
1001
0000
0001
0010
0100
0000
,  // measure 16
1100
0000
1000
0000
1010
0000
0010
0000
1010
0000
1000
0000
1000
0010
0001
0000
,  // measure 17
0011
0000
0010
0000
0110
0000
0100
0000
0101
0000
0001
0000
0001
0010
1000
0000
,  // measure 18
1010
0000
0010
0000
0011
0000
0001
0000
0101
0000
0100
0000
0100
0010
0001
0000
,  // measure 19
0011
0000
0010
0000
1010
0000
1000
0000
1100
0000
0100
0000
0100
0010
1000
0000
,  // measure 20
1010
0000
0010
0000
0011
0000
0001
0000
1001
0000
1000
0000
1000
0010
0100
0000
,  // measure 21
0110
0000
0010
0000
0110
0000
0010
0000
1010
0000
1000
0000
1000
0100
0001
0000
,  // measure 22
0101
0110
2002
0000
0003
0000
3000
100M
,  // measure 23
0100
0000
1000
0010
0100
0010
1000
0001
0010
0100
0010
0000
0100
0010
0100
1000
,  // measure 24
0010
0000
1000
0010
0100
0010
1000
0001
0010
0100
0010
0000
0001
0100
0010
0100
,  // measure 25
1000
0000
0100
0010
1000
0100
0010
0001
0100
0010
1000
0000
0010
0001
0010
0100
,  // measure 26
0001
0000
0010
0001
0100
0010
1000
0100
0010
0001
1000
0000
0001
0010
0001
0100
,  // measure 27
0010
0000
0100
0010
0100
0001
0100
0010
1000
0001
0010
0000
0100
0001
0100
0010
,  // measure 28
0001
0000
0100
0010
0100
1000
0100
0010
0100
0001
1000
0000
0010
0100
0001
1000
,  // measure 29
0100
0000
0010
0100
1000
0010
0100
0001
1000
0010
0100
0000
0001
1000
0100
1000
,  // measure 30
0010
0000
0100
0001
1000
0100
0010
0100
1000
0010
0100
0000
0001
1000
0100
1000
,  // measure 31
0001
0000
1000
0010
0100
0001
0100
0010
1000
0001
0010
0000
0100
0010
1000
0010
,  // measure 32
0001
0000
1000
0010
1000
0100
1000
0001
0100
0010
0001
0000
0010
0100
0001
1000
,  // measure 33
0100
0000
0010
0100
0010
0001
1000
0010
1000
0001
0010
0000
0100
0010
0100
0001
,  // measure 34
0100
0000
0010
0100
1000
0001
1000
0010
0100
0001
0100
0000
0010
0001
0010
1000
,  // measure 35
0100
0000
0010
0001
0010
0100
1000
0100
0010
0001
1000
0000
0010
0100
0001
1000
,  // measure 36
0100
0000
0010
0100
0010
0001
0100
0010
0100
1000
0100
0000
0010
1000
0001
0010
,  // measure 37
0100
0000
0010
0100
1000
0001
1000
0010
0100
0010
0001
0000
0010
1000
0100
0010
,  // measure 38
0001
0000
0010
0100
0010
0001
1000
0001
0100
0010
0100
0000
1000
0100
0001
1000
,  // measure 39
0200
0000
0020
0300
0002
0030
2000
0003
0020
3000
0200
0030
0002
0300
2000
0003
,  // measure 40
0020
3000
0002
0030
0200
0003
2000
0300
0020
3000
0200
0030
0020
0300
0002
0030
,  // measure 41
2000
0003
0200
3000
2000
0300
0002
3000
0020
0003
0002
0030
0200
0003
0020
0300
,  // measure 42
2000
0030
0002
3000
0020
0003
0200
0030
0002
0300
0020
0003
0200
0030
2000
0300
,  // measure 43
0002
3000
0200
0003
2000
0300
0002
3000
0200
0003
0020
0300
0200
0030
2000
0300
,  // measure 44
0020
3000
0200
0030
0020
0300
2000
0030
0002
3000
0020
0003
2000
0030
0002
3000
,  // measure 45
0200
0003
0002
0300
0200
0003
2000
0300
0020
3000
2000
0030
0002
3000
0020
0003
,  // measure 46
0200
0030
2000
0300
0002
3000
0200
0003
0002
0300
2000
0003
0200
3000
0010
0300
,  // measure 47
0021
1000
0100
0001
,  // measure 48
1000
0000
0100
0000
1000
0000
0001
0001
,  // measure 49
0001
0000
0001
0000
1000
0000
0100
0100
,  // measure 50
0200
0000
0000
0000
0001
0000
0000
0330
,  // measure 51
1000
0010
1000
0010
0100
0010
0100
0010
0001
0010
0100
0001
1000
0001
0010
0100
,  // measure 52
1000
0001
0100
0010
0001
0010
0100
0010
0100
0001
1000
0100
0010
0100
0001
0100
,  // measure 53
0010
0001
1000
0010
1000
0010
0100
0010
0001
0010
1000
0100
0001
0100
0010
0000
,  // measure 54
0110
0100
1000
0001
0100
0010
1000
0001
,  // measure 55
0010
0000
0000
0000
M00M
0000
0000
0000
0100
0000
0000
0000
00M1
0000
0000
0000
M000
0000
0000
0000
00M0
0000
0000
0100
100M
0000
0000
0000
01M0
0000
0000
0000
,  // measure 56
0000
MM00
00M1
M100
000M
0M00
M010
010M
,  // measure 57
0000
0000
0000
M000
00M0
0000
000M
0000
0000
0000
0000
0000
1000
0000
0000
0M00
0000
0000
001M
0000
0000
M000
0000
0000
0000
0000
0000
00M0
0000
0000
0M00
0000
0000
0000
0000
0000
0001
0000
0000
00M0
0000
0000
2000
0000
0000
0000
0000
0000
,  // measure 58
0MMM
0000
0000
0000
0MMM
0000
0000
0000
0MMM
0000
0000
0010
0010
0001
3001
0010
,  // measure 59
0001
0100
MMMM
0100
0010
1000
MMMM
1000
0001
0010
MMMM
0010
0100
1000
MMMM
0001
,  // measure 60
0100
0010
MMMM
1000
0001
0010
MMMM
0100
0010
0001
MMMM
0100
0010
1000
MMMM
0001
,  // measure 61
1000
0010
MMMM
0100
0001
0010
MMMM
0100
0010
0100
MMMM
1000
0010
0100
MMMM
0010
,  // measure 62
1000
0001
MMMM
0010
0001
0100
MMMM
0010
1000
0100
MMMM
0010
0001
0100
0010
2000
,  // measure 63
0200
0000
0000
0000
0000
0000
0001
0000
0000
0000
0010
0000
0000
3300
0000
0000
,  // measure 64
2000
0000
0020
3000
0002
0030
0200
0003
2000
0300
0002
3000
0200
0003
0020
0300
0002
0030
2000
0003
0020
3000
2000
0030
0002
3000
2000
0003
0020
3000
0200
0030
,  // measure 65
0020
0300
0002
0030
2000
0003
0200
3000
0020
0300
0002
0030
0200
0003
2000
0300
0020
3000
0002
0030
2000
0003
0020
3000
0002
0030
2000
0003
0020
3000
0002
0030
,  // measure 66
0200
0003
0020
0300
2000
0030
0002
3000
0020
0003
2000
0030
0200
3000
2000
0300
0002
3000
0200
0003
2000
0300
0020
3000
0200
0030
0002
0300
0020
0003
0001
0030
,  // measure 67
1001
0000
1000
0100
1000
0100
0010
0100
0010
0100
0001
0100
0001
0100
0010
0100
0010
0100
0010
0001
1000
0010
1000
0010
0100
0010
0100
0010
0001
0010
0001
0010
,  // measure 68
0100
0010
1000
0001
0010
0100
1000
0100
0010
1000
0010
0100
1000
0001
0100
0001
0100
0010
0100
0010
0001
0010
0100
0010
0001
0010
0100
0001
1000
0100
0010
0100
,  // measure 69
0010
1000
0010
0100
0010
0001
0100
0010
0100
1000
0100
0010
1000
0001
0010
0100
0010
0100
0001
0100
0001
0100
0010
0001
0010
0001
1000
0010
0100
1000
0100
0010
,  // measure 70
1000
0100
0001
0100
0001
0100
0010
0001
0100
0001
0010
0100
0001
0100
1000
0000
2002
0000
0003
0000
3000
0000
0001
0000
0100
0000
0000
0000
0001
0000
0000
0000
,  // measure 71
2001
0010
0001
3100
0120
0100
0001
0130
,  // measure 72
1020
0100
0001
0130
2001
0010
0001
3100
,  // measure 73
0102
1000
0010
0103
0120
0001
0100
1030
,  // measure 74
2100
0010
0100
3001
0012
0100
0010
1003
,  // measure 75
0201
0001
0010
0301
0120
1000
0100
0031
,  // measure 76
0021
0100
1000
0130
0102
1000
0010
0103
,  // measure 77
2010
0001
0100
3010
0102
0100
0010
1003
,  // measure 78
1020
0100
0001
0130
0010
0100
0001
0010
,  // measure 79
0210
0000
0001
0000
0010
0000
1300
0000
1000
0100
0001
0000
0101
0000
1000
0000
,  // measure 80
2100
0000
0010
0000
0100
0000
3001
0000
0001
0010
1000
0000
1010
0000
0010
0000
,  // measure 81
2100
0000
0001
0000
0100
0000
3010
0000
0001
0010
0100
0000
0101
0000
0001
0000
,  // measure 82
0120
0000
0001
0000
0100
0000
0130
0000
1000
0010
0100
0000
0110
0000
1001
0000
,  // measure 83
0010
1000
0010
1000
0010
0100
0010
0100
0010
0001
0010
0001
0010
0100
0010
0100
,  // measure 84
0010
1000
0001
0010
0100
0010
0100
1000
0001
0100
0010
0001
0010
0100
0001
1000
,  // measure 85
0100
1000
0001
0100
0010
0100
1000
0100
0010
0100
0001
1000
0100
1000
0001
0000
,  // measure 86
2002
0000
0010
3003
,  // measure 87
1001
0000
1000
0001
0100
0001
0100
0010
0100
1000
0100
0000
0010
1000
0001
0010
,  // measure 88
0100
0000
0010
0100
0001
0100
0010
0100
1000
0001
0100
0000
0010
0001
0010
0100
,  // measure 89
0010
0000
1000
0001
0010
0100
0010
0001
1000
0010
0100
0000
1000
0100
0010
0100
,  // measure 90
0001
0000
1000
0010
1000
0001
0010
0100
0010
0100
0001
0000
0100
0010
0100
1000
,  // measure 91
0001
0000
0100
0010
0001
0010
0100
0010
1000
0001
0010
0000
1000
0010
0001
1000
,  // measure 92
0010
0000
0100
0010
1000
0010
0100
0001
1000
0100
0010
0000
1000
0010
0100
1000
,  // measure 93
0001
0000
0100
0010
0001
0010
0100
0010
0001
0010
1000
0000
0001
1000
0010
1000
,  // measure 94
0100
0000
0010
0100
1000
0100
0010
0100
1000
0100
0010
0000
0001
1000
0010
0100
,  // measure 95
1000
0000
0100
0010
0100
0001
1000
0001
0010
0100
1000
0000
0010
1000
0001
0010
,  // measure 96
1000
0000
0010
0100
0010
1000
0010
0100
0010
0001
0010
0000
0010
0100
1000
0001
,  // measure 97
0010
0000
0001
0100
0010
0100
1000
0100
0010
0100
0001
0000
1000
0001
0100
0010
,  // measure 98
0001
0000
0010
1000
0100
0010
0001
1000
0001
0100
0010
0000
1000
0001
0010
0100
,  // measure 99
0001
0000
0100
0010
0001
1000
0010
0100
0010
0001
0010
0000
1000
0001
0010
0100
,  // measure 100
0001
0000
0100
0010
0001
1000
0010
0100
0010
1000
0001
0000
0010
0100
0010
0100
,  // measure 101
1000
0000
0001
0100
0010
0001
0010
0100
0001
1000
0001
0000
0010
0001
0100
0010
,  // measure 102
1000
0000
0001
0100
0010
1000
0100
0010
0001
0100
0010
0000
0100
0001
1000
0001
,  // measure 103
2002
0003
300M
0202
0303
0M0M
0000
0000
;
