#TITLE:Baby Seal;
#SUBTITLE:;
#ARTIST:Kid Whatever;
#TITLETRANSLIT:;
#SUBTITLETRANSLIT:;
#ARTISTTRANSLIT:;
#GENRE:;
#CREDIT:;
#BANNER:;
#BACKGROUND:;
#LYRICSPATH:;
#CDTITLE:;
#MUSIC:Baby Seal.mp3;
#OFFSET:-0.003729;
#SAMPLESTART:60.604988;
#SAMPLELENGTH:12.000000;
#SELECTABLE:YES;
#DISPLAYBPM:164.000000;
#BPMS:0.000000=164.000000
,28.500000=656.000000
,32.000000=164.000000
,96.000000=656.000000
,97.000000=163.500000
,127.000000=654.000000
,128.000000=163.500000
,190.000000=654.000000
,192.000000=164.199997
,220.000000=656.799988
,224.000000=163.600006
,229.500000=327.200012
,230.000000=163.600006
,235.500000=654.400024
,235.750000=163.600006
,242.000000=81.800003
,243.000000=163.600006
,251.000000=121.875000
,255.750000=982.500000
,256.250000=491.250000
,261.000000=163.800003
,291.000000=640.000000
,293.000000=163.600006
,323.000000=642.000000
,324.000000=163.600006
,352.000000=654.799988
,356.000000=163.699997
,388.000000=163.600006
,416.000000=654.000000
,420.000000=163.500000
,444.000000=162.699997
,448.000000=650.799988
,464.000000=217.332993
,474.750000=216.399994
,485.416656=217.733307
,496.000000=219.333298
;
#STOPS:28.500000=0.137000,
29.000000=0.069000,
29.250000=0.137000,
29.750000=0.137000,
30.250000=0.137000,
30.750000=0.069000,
31.000000=0.137000,
31.500000=0.137000,
96.000000=2.840000,
127.000000=0.641000,
190.000000=0.275000,
191.000000=0.275000,
220.000000=0.275000,
221.000000=0.275000,
222.000000=0.275000,
223.000000=0.275000,
229.500000=0.824000,
235.500000=0.527000,
235.750000=0.275000,
291.000000=0.275000,
292.000000=0.275000,
323.000000=0.641000,
352.000000=0.275000,
353.000000=0.275000,
354.000000=0.275000,
355.000000=0.275000,
416.000000=0.275000,
417.000000=0.275000,
418.000000=0.275000,
419.000000=0.275000
;
#BGCHANGES:;
#KEYSOUNDS:;
#ATTACKS:;

//---------------dance-single - ----------------
#NOTES:
     dance-single:
     :
     Challenge:
     12:
     0.986979,1.147657,0.559732,0.894474,1.168853,1259.000000,1157.000000,102.000000,163.000000,0.000000,0.000000,0.986979,1.147657,0.559732,0.894474,1.168853,1259.000000,1157.000000,102.000000,163.000000,0.000000,0.000000:
// measure 0
0000
0000
0000
0000
,  // measure 1
0000
0000
0000
0000
,  // measure 2
0000
0000
0000
0000
,  // measure 3
0000
0000
0000
0000
,  // measure 4
1001
0000
0100
0000
0100
0000
0100
0000
0001
0000
0001
0000
0100
0000
0001
1000
,  // measure 5
0001
0000
0001
0000
0100
0000
0001
0000
0100
0000
0001
0000
0100
0000
0001
0010
,  // measure 6
0001
0000
0010
0000
0100
0000
0100
0000
0010
0000
0010
0000
0100
0000
0010
0100
,  // measure 7
0010
0000
0001
0000
0001
0010
0000
0001
0000
0001
0000
0001
0100
0000
0010
0000
,  // measure 8
1000
0000
0100
0000
1000
0000
0100
1000
0000
1000
0000
0010
1000
0000
0010
0000
,  // measure 9
0100
0001
0010
0000
0100
1000
0000
0001
0000
0010
0000
0010
0100
0000
1000
0000
,  // measure 10
0001
0000
0100
0000
0010
0000
1000
0010
0000
0010
0000
0100
0001
0000
0010
0000
,  // measure 11
0100
0010
0100
0010
0100
1000
0000
0001
0000
0010
0000
0100
0010
0000
0011
0000
,  // measure 12
1001
0000
0001
0000
1000
0000
0010
1000
0000
1000
0000
0001
0010
0000
0100
0000
,  // measure 13
0010
0001
0100
0000
0001
1000
0000
0010
0000
0100
0000
0010
1000
0000
0001
0000
,  // measure 14
0010
0000
0010
0000
0001
0000
0100
0010
0000
0010
0000
1000
0001
0000
0010
0000
,  // measure 15
0001
1000
0001
1000
0001
0010
0000
0100
0000
1000
0000
0000
1010
0000
1001
0000
,  // measure 16
0101
0000
1000
0000
0011
0000
0010
0100
0000
0100
0000
0100
1000
0000
0001
0000
,  // measure 17
0100
0010
0100
0000
0001
0010
0000
0100
0000
0010
0000
0001
0010
0000
0100
0000
,  // measure 18
1100
0000
1000
0000
1001
0000
0001
0010
0000
0100
0000
1000
0010
0000
0100
0000
,  // measure 19
0001
0010
0001
0010
0001
1000
0000
0010
0000
0100
0000
0001
0010
0000
0100
0000
,  // measure 20
1100
0000
0010
0000
1100
0000
0100
1000
0000
1000
0000
0001
0010
0000
0100
0000
,  // measure 21
0010
0001
0100
0000
0010
0100
0000
0010
0000
1000
0000
0100
0010
0000
0001
0000
,  // measure 22
0100
0010
0100
0000
0010
0000
1000
0100
0000
0010
0000
0010
0001
0000
0100
0000
,  // measure 23
0001
0010
0100
0010
0000
0100
0000
1000
0010
1000
0100
2000
0010
0000
3000
0000
,  // measure 24
2002
0000
3003
0000
0110
0000
0100
0000
1000
0000
0010
0100
0000
0010
0000
1000
,  // measure 25
0001
0000
0010
0000
0100
1000
0010
0000
0100
0001
0000
0010
0000
0010
0001
0100
,  // measure 26
0010
0000
1000
0000
1000
0000
0010
0000
0100
0000
0001
0010
0000
0100
0000
1000
,  // measure 27
0100
0000
0010
0000
0100
1000
0010
0100
0001
0010
0000
0100
0000
0010
0001
0010
,  // measure 28
0100
0000
1000
0000
1010
0000
0010
0000
0100
0000
0001
0010
0000
0100
0000
1000
,  // measure 29
0010
0000
0100
0000
0001
0100
0001
0000
0010
0100
0000
0010
0000
0001
1000
0100
,  // measure 30
0010
0000
0001
0000
0011
0000
1001
0000
1000
0000
0010
1000
0000
0001
0000
0001
,  // measure 31
0010
0000
0100
0000
0110
0000
0011
0000
0010
0001
1000
0002
2000
0000
3003
0000
,  // measure 32
1000
0001
0000
0100
0010
1000
0010
0000
2010
0000
0001
0000
0100
0000
3010
0000
,  // measure 33
0010
0100
0000
0001
0010
0001
1000
0000
1001
0000
0101
0000
0012
0000
1003
0000
,  // measure 34
0001
0010
0000
0010
0001
0010
0100
0000
1002
0000
1000
0000
0010
0000
0103
0000
,  // measure 35
0001
0100
0001
1000
0010
0000
0100
0010
2000
0000
0100
0000
3200
0000
0010
0000
,  // measure 36
0310
0001
1000
0001
1000
0001
0010
0100
0010
0001
1000
0001
0010
0100
1000
0100
,  // measure 37
1000
0010
0100
0010
0100
0010
1000
0001
0010
0100
1000
0100
0010
0001
1000
0100
,  // measure 38
0010
0001
1000
0010
0100
0010
1000
0001
0010
0100
0010
0001
0010
0001
0100
0001
,  // measure 39
1000
0010
1000
0010
1000
0001
1000
0010
1000
0100
0010
0001
1000
0010
0100
0001
,  // measure 40
2000
0000
0020
3000
0200
0030
0002
0300
0020
0003
0200
0030
0002
0300
0200
0003
,  // measure 41
0020
0300
0002
0030
0200
0003
2000
0300
0200
3000
0020
0300
2000
0030
0002
3000
,  // measure 42
0020
0003
0200
0030
2000
0300
0020
3000
0002
0030
2000
0003
0200
3000
0002
0300
,  // measure 43
0020
0003
2000
0030
0020
3000
0200
0030
2000
0300
0002
3000
2000
0003
0020
3000
,  // measure 44
0130
0010
0100
0010
0100
0001
0100
0001
1000
0001
1000
0001
1000
0100
0010
0001
,  // measure 45
0010
0100
1000
0001
0010
0100
1000
0100
0010
0001
1000
0010
0100
0001
0100
0010
,  // measure 46
1000
0001
0010
0001
0100
0001
0010
0001
1000
0010
1000
0100
0010
0001
1000
0001
,  // measure 47
0100
0010
0100
0010
0100
0001
0010
0100
0020
0000
0000
0000
0230
0000
0000
0000
,  // measure 48
1300
0000
0100
0000
1000
0000
0010
1000
0000
0010
0000
0100
0001
0000
0010
0000
,  // measure 49
0100
0010
0001
0000
0010
0001
0000
0010
0000
0100
0000
1000
0010
0000
0100
0000
,  // measure 50
0010
0000
1000
0000
0001
0000
0010
0100
0000
1000
0000
0010
0100
0000
0001
0000
,  // measure 51
1000
0010
1000
0010
1000
0010
0000
0100
0000
0001
0000
0010
0100
0000
0010
0000
,  // measure 52
0001
0000
0100
0000
0010
0000
1000
0010
0000
0010
0000
1000
0001
0000
0010
0001
,  // measure 53
0100
0010
1000
0000
0100
0010
0000
0100
0000
1000
0000
0001
0010
0000
0100
1000
,  // measure 54
0010
0000
0010
0000
0100
0000
0010
0100
0000
0100
0000
0001
0010
0000
0100
0000
,  // measure 55
2000
3200
0320
0032
,  // measure 56
1003
0010
1010
1001
0001
0101
1010
0110
,  // measure 57
1001
0000
1000
0000
1100
0000
0022
0033
1100
0000
1000
0000
1010
0000
1001
0000
,  // measure 58
0001
0000
0000
0000
0000
0000
0000
0000
0000
0000
0000
0000
0000
0000
0000
0000
0000
0000
0000
0000
0000
0000
0000
0000
0011
0000
0000
0000
0000
0000
0000
0000
0000
0000
0000
0000
0000
0000
0000
0000
0000
0000
0000
0000
0000
0000
0000
0000
0110
0000
0000
0000
0000
0000
0000
0000
0000
0000
0000
0000
0000
0000
0000
0000
0000
0000
0000
0000
0000
0000
0000
0000
1100
0000
0000
0000
0000
0000
0000
0000
0000
0000
0000
0000
0000
0000
0000
0000
0000
0000
0000
0000
0000
0000
0000
0000
0110
0000
0000
0000
0000
0000
0000
0000
0000
0000
0000
0000
0000
0000
0000
0000
0000
0000
0000
0000
0000
0000
0000
0000
0010
0000
0000
0000
0000
0000
0000
0000
0000
0000
0000
0000
0000
0000
0000
0000
0000
0000
0000
0000
0000
0000
0000
0000
1001
0000
0000
0000
0000
0000
0000
0000
0000
0000
0000
0000
0000
0000
0000
0000
0000
0000
0000
0000
0000
0000
0000
0000
0220
0030
0000
0000
0000
0000
0000
0000
0000
0000
0000
0000
2000
3300
0000
0000
0000
0000
0000
0000
0000
0000
0000
0000
,  // measure 59
1100
0010
0110
1001
0001
0101
1010
0101
,  // measure 60
1001
1000
0011
0110
4000
0000
3001
0100
,  // measure 61
0110
0000
0000
0000
0000
0000
0000
0000
1010
0000
0000
0000
0000
0000
0000
0000
1000
0000
0000
0000
0000
0000
0000
0000
1001
0000
0000
0000
0000
0000
0000
0000
0110
0000
0000
0000
0000
0000
0000
0000
1001
0000
0000
0000
0000
0000
0000
0000
0022
0000
0000
0000
0000
0000
0000
0000
0033
0000
0000
0000
0000
0000
0000
1000
,  // measure 62
0001
0000
0000
0000
1001
0000
0001
0000
0100
0010
1000
0100
0010
0001
0010
0200
,  // measure 63
0000
1300
0020
0000
0001
0000
0000
0000
0031
0010
0100
0001
0010
0100
2000
0002
,  // measure 64
0000
0000
0000
0000
,  // measure 65
3003
0000
0000
0000
1000
0001
0000
0100
0000
0001
1000
0000
0020
0000
0000
0000
,  // measure 66
0000
0000
0000
0000
0130
0010
0000
1000
0000
0010
0100
0000
0002
0000
0023
0000
,  // measure 67
0230
0000
0000
0000
1300
0010
0000
1000
0000
0001
0010
0000
0002
0000
0000
0000
,  // measure 68
0000
0000
0000
0000
0013
0001
0010
0001
0010
0000
0100
0000
2000
0000
0000
0000
,  // measure 69
0002
0000
3003
0000
1000
0001
0000
0100
0001
0100
0010
0000
2010
0000
0000
0000
,  // measure 70
0001
0000
0000
0000
3100
0010
0000
0001
0100
0010
1000
0000
1100
0000
0101
0000
,  // measure 71
2200
0000
0000
3300
0100
1000
0000
0010
0100
0001
1000
0000
1002
0000
0000
0000
,  // measure 72
0010
0000
0000
0000
0103
0010
0100
0010
1000
0000
0001
0000
2002
0000
3003
0000
,  // measure 73
0220
0000
0330
0000
0010
1000
0100
0010
0100
1000
0001
0100
0001
0010
0001
1000
,  // measure 74
0001
0100
0010
1000
0100
0010
0100
0010
0001
0100
0010
1000
0001
0010
0001
1000
,  // measure 75
0010
1000
0010
0100
0001
0100
0010
1000
0010
1000
0001
0010
0001
0010
0100
1000
,  // measure 76
0100
0010
0001
0010
0001
0100
0010
1000
0100
1000
0100
1000
0001
0100
0010
1000
,  // measure 77
0001
0010
0100
0010
0001
1000
0100
0010
0100
1000
0001
0100
0010
0100
0001
1000
,  // measure 78
0010
0100
0010
1000
0001
0010
0100
0010
0001
1000
0001
0010
0100
1000
0100
0010
,  // measure 79
0100
1000
0001
1000
0100
0010
0001
1000
0010
1000
0010
0100
0010
1000
0001
1000
,  // measure 80
0001
0100
0010
1000
0001
1000
0001
1000
0001
1000
0001
0010
0200
0000
0300
0000
,  // measure 81
1000
0100
0000
1000
0010
1000
0001
0000
1002
0000
0010
0000
0100
0000
0010
0000
,  // measure 82
0013
0001
0000
0100
0010
1000
0010
0000
0110
0000
1010
0000
0102
0000
0100
0003
,  // measure 83
0001
1000
0000
0100
1000
0010
0100
0000
0102
0000
0010
0000
1000
0000
0010
0000
,  // measure 84
0013
0001
0100
0010
1000
0000
0100
0000
2100
0000
3010
0000
0012
0000
0103
0000
,  // measure 85
0001
1000
0001
1000
0001
0100
0001
1000
0100
0010
0001
0010
0100
0010
0001
1000
,  // measure 86
0100
0010
0100
1000
0100
0010
0001
1000
0010
1000
0001
0010
0001
1000
0010
1000
,  // measure 87
0010
1000
0100
1000
0001
0010
0100
0010
0100
1000
0001
0100
0010
1000
0001
0010
,  // measure 88
0200
2300
3002
0043
,  // measure 89
0130
0000
1000
0000
1010
0000
0010
0100
0000
0100
0000
0001
1000
0000
0010
0000
,  // measure 90
0100
0001
0010
0000
0100
1000
0000
0001
0000
0100
0000
0010
1000
0000
0001
0000
,  // measure 91
0011
0000
1000
0000
0011
0000
0001
0100
0000
0010
0000
0010
1000
0000
0001
0000
,  // measure 92
0010
0100
0010
0001
0100
0010
0000
1000
0000
0010
0000
0010
0100
0000
0001
0000
,  // measure 93
1001
0000
0100
0000
0101
0000
0100
0010
0000
1000
0000
0001
0010
0000
0100
0000
,  // measure 94
0100
1000
0010
0000
0010
0100
0000
0001
0000
0100
0000
0001
0100
0000
0010
0000
,  // measure 95
1010
0000
1000
0000
0011
0000
0001
0100
0000
0100
0000
0001
0010
0000
0100
0000
,  // measure 96
0010
0001
0100
0001
0010
0001
0000
1000
0000
0001
0000
1000
0001
0000
0100
0000
,  // measure 97
0102
0023
2030
3020
0032
0203
2300
3200
,  // measure 98
0302
0023
0230
0320
0032
0203
0320
0032
,  // measure 99
0023
2030
3002
0023
2030
3020
0230
2300
,  // measure 100
3020
0032
0023
2030
3002
0023
2030
3010
,  // measure 101
0011
0020
0032
0203
0320
0032
0023
0230
,  // measure 102
0302
2003
3002
0203
0320
0230
2300
3200
,  // measure 103
0320
2030
3002
0023
0230
0320
0032
1003
,  // measure 104
2000
0000
3002
0000
0023
0000
0430
0300
,  // measure 105
2100
0000
0001
0000
0001
0000
0001
0000
0100
0000
0100
0000
3001
0000
0001
0200
,  // measure 106
0010
0000
0010
0000
0001
0000
0010
0000
0301
0000
0101
0000
2002
0000
0000
3003
,  // measure 107
0012
0000
1000
0000
1000
0000
1000
0000
0010
0000
0010
0000
1003
0000
1000
0040
,  // measure 108
0100
0000
0100
0000
1000
0000
0100
0000
1030
0000
1010
0000
1001
0000
0001
1000
,  // measure 109
0020
0000
0100
0000
0100
0000
0100
0000
1000
0000
1000
0000
0130
0000
0100
0002
,  // measure 110
0010
0000
0010
0000
1000
0000
0010
0000
1003
0000
1100
0000
0110
0000
0010
0001
,  // measure 111
0200
0010
0010
0010
0001
0001
0310
0100
,  // measure 112
0220
0000
0000
0000
,  // measure 113
0000
0000
0000
0000
,  // measure 114
0000
0000
0000
0000
,  // measure 115
0000
0000
0000
0330
,  // measure 116
0100
0010
0000
0010
1000
0000
0100
0000
0000
0010
0001
0000
,  // measure 117
0201
0000
0310
0000
0010
1000
0000
1000
0100
0000
0010
0001
,  // measure 118
1000
0001
0100
0000
0102
0000
1003
0000
2001
0000
3001
0000
,  // measure 119
0102
0000
1003
0000
0000
0010
1000
0000
2010
0000
3001
0000
,  // measure 120
1001
0000
0000
1000
0001
0000
0000
0001
0100
0001
0010
0000
,  // measure 121
0210
0000
1300
0010
1000
0100
0000
0200
0010
0000
1300
0000
,  // measure 122
0000
0001
1000
0000
2010
0000
3001
0000
1001
0000
0000
1000
,  // measure 123
0010
0000
1000
0010
1000
0100
0010
0000
0012
0000
1003
0000
,  // measure 124
2020
0000
0000
3030
0202
0000
0000
0303
0000
0100
0010
0000
,  // measure 125
0120
0000
1030
0000
1000
0100
0000
1000
0010
0000
1000
0100
,  // measure 126
0010
0001
1000
0000
1010
0000
0010
0000
1000
0001
0000
0000
;
