#TITLE:Zenith;
#SUBTITLE:;
#ARTIST:Sanxion7;
#TITLETRANSLIT:;
#SUBTITLETRANSLIT:;
#ARTISTTRANSLIT:;
#GENRE:;
#CREDIT:;
#BANNER:zenithbn.png;
#BACKGROUND:zenithbg.png;
#LYRICSPATH:;
#CDTITLE:;
#MUSIC:zenith.ogg;
#OFFSET:-1.142000;
#SAMPLESTART:79.528145;
#SAMPLELENGTH:12.000000;
#SELECTABLE:YES;
#BPMS:0.000000=75.000000
,32.000000=150.000000
,228.000000=75.000000
;
#STOPS:
;
#BGCHANGES:16.000=purplewave.mp4=1.000=1=0=1=SongBgWithMovieViz==CrossFade==,
32.000=flash=1.600=0=0=1=====,
32.250=greenspiral.mp4=1.000=0=0=0=StretchNoLoop====,
96.000=flash=1.600=0=0=1=====,
96.250=spirallava.mp4=1.000=0=0=0=StretchNoLoop====,
128.000=purplewave.mp4=1.000=0=0=0=StretchNoLoop==CrossFade_Fastest==,
164.000=flash=1.600=0=0=1=====,
164.250=greenspiral.mp4=1.000=0=0=0=StretchNoLoop====,
196.000=spirallava.mp4=1.000=0=0=0=StretchNoLoop==CrossFade_Fastest==,
228.000=flash=1.600=0=0=1=====,
228.250=purplewave.mp4=1.000=0=0=1=SongBgWithMovieViz====,
234.000=zenithbg.png=1.000=1=0=1===CrossFade==,
99999=-nosongbg-=1.000=0=0=0 // don't automatically add -songbackground-
;
#KEYSOUNDS:;
#ATTACKS:;

//---------------dance-single - C. Picardy----------------
#NOTES:
     dance-single:
     :
     Beginner:
     1:
     0.089513,0.153560,0.044126,0.000000,0.000000,71.000000,66.000000,5.000000,0.000000,0.000000,0.000000,0.089513,0.153560,0.044126,0.000000,0.000000,71.000000,66.000000,5.000000,0.000000,0.000000,0.000000:
0000
0000
0000
0000
,
0000
0000
0000
0000
,
0000
0000
0000
0000
,
0000
0000
0000
0000
,
0100
0000
0000
0000
,
0010
0000
0000
0000
,
1000
0000
0000
0000
,
0001
0000
0001
0000
,
0001
0000
0000
0000
,
1000
0000
0000
0000
,
0100
0000
0000
0000
,
0010
0000
0000
0000
,
0001
0000
0000
0000
,
1000
0000
0000
0000
,
0010
0000
0000
0000
,
0100
0000
0000
0000
,
1001
0000
0000
0000
,
0010
0000
0000
0000
,
0100
0000
0000
0000
,
0001
0000
0000
0000
,
1000
0000
0000
0000
,
0100
0000
0000
0000
,
0010
0000
0010
0000
,
0010
0000
0000
0000
,
0100
0000
0100
0000
,
0100
0000
0000
0000
,
0001
0000
0001
0000
,
0001
0000
0000
0000
,
1000
0000
1000
0000
,
1000
0000
0000
0000
,
0010
0000
0010
0000
,
0010
0000
0000
0000
,
0100
0000
0000
0000
,
1000
0000
0000
0000
,
0001
0000
0000
0000
,
0010
0000
0000
0000
,
0100
0000
0100
0000
,
0100
0000
0000
0000
,
0010
0000
0010
0000
,
0010
0000
0000
0000
,
0001
0000
0000
0000
,
1001
0000
0000
0000
,
1001
0000
0000
0000
,
0110
0000
0000
0000
,
0110
0000
0000
0000
,
0001
0000
0001
0000
,
0001
0000
0000
0000
,
1000
0000
1000
0000
,
1000
0000
0000
0000
,
0100
0000
0000
0000
,
0010
0000
0000
0000
,
0001
0000
0000
0000
,
1000
0000
0000
0000
,
0100
0000
0000
0000
,
0010
0000
0000
0000
,
0001
0000
0000
0000
,
1000
0000
1000
0000
,
1000
0000
0000
0000
,
0010
0000
0000
0000
;

//---------------dance-single - C. Picardy----------------
#NOTES:
     dance-single:
     :
     Easy:
     3:
     0.234500,0.309767,0.114728,0.132379,0.000000,186.000000,173.000000,13.000000,15.000000,0.000000,0.000000,0.234500,0.309767,0.114728,0.132379,0.000000,186.000000,173.000000,13.000000,15.000000,0.000000,0.000000:
// measure 0
0000
0000
0000
0000
,  // measure 1
0000
0000
0000
0000
,  // measure 2
1000
0000
0001
0000
,  // measure 3
0100
0000
0010
0000
,  // measure 4
1000
0010
1000
0010
,  // measure 5
0100
0001
0100
0001
,  // measure 6
1000
0100
0010
0001
,  // measure 7
0010
0100
1000
0001
,  // measure 8
1000
0000
0001
0000
,  // measure 9
0100
0000
0010
0010
,  // measure 10
1000
0000
0100
0000
,  // measure 11
0010
0000
0001
0000
,  // measure 12
1000
0100
0100
0000
,  // measure 13
0010
0000
0001
0001
,  // measure 14
1000
0000
0010
0000
,  // measure 15
0100
0000
0010
0000
,  // measure 16
0100
0000
1001
0000
,  // measure 17
0010
0000
1001
0000
,  // measure 18
0100
0000
0010
0000
,  // measure 19
1000
0000
0100
0010
,  // measure 20
0100
0000
1001
0000
,  // measure 21
1001
0000
0100
0100
,  // measure 22
0010
1000
0010
1000
,  // measure 23
0100
0010
0001
0010
,  // measure 24
0200
0000
0320
0000
,  // measure 25
0032
0000
1003
1000
,  // measure 26
0200
0000
2300
0000
,  // measure 27
3002
0000
0103
0100
,  // measure 28
0020
0000
2030
0000
,  // measure 29
3002
0000
0103
0100
,  // measure 30
0020
0000
0230
0000
,  // measure 31
0302
0000
0013
0010
,  // measure 32
0100
0000
0110
0000
,  // measure 33
0001
0000
1001
0000
,  // measure 34
0100
0010
0100
0010
,  // measure 35
1000
0001
1000
0001
,  // measure 36
0100
0100
0100
0100
,  // measure 37
0110
0000
0000
0000
,  // measure 38
0001
0001
0001
0001
,  // measure 39
1001
0000
0000
0000
,  // measure 40
1000
0100
0010
0001
,  // measure 41
1001
0100
0010
0100
,  // measure 42
0001
1000
0001
1000
,  // measure 43
0001
0010
0001
0010
,  // measure 44
0100
1000
0100
1000
,  // measure 45
0001
0100
1000
0010
,  // measure 46
0001
0100
1000
0010
,  // measure 47
1000
0100
0001
0010
,  // measure 48
1000
0100
0001
0010
,  // measure 49
0100
1000
0010
0001
,  // measure 50
0100
1000
0010
0001
,  // measure 51
1000
0100
0001
0100
,  // measure 52
1000
0010
0001
0010
,  // measure 53
1000
1000
0001
0001
,  // measure 54
0100
0100
0010
0010
,  // measure 55
0110
0100
1001
0010
,  // measure 56
2002
0000
0000
3003
,  // measure 57
1001
0100
0100
0000
,  // measure 58
0002
0000
1003
0000
;

//---------------dance-single - C. Picardy----------------
#NOTES:
     dance-single:
     :
     Medium:
     6:
     0.365618,0.364484,0.220632,0.132379,0.000000,290.000000,265.000000,25.000000,15.000000,0.000000,0.000000,0.365618,0.364484,0.220632,0.132379,0.000000,290.000000,265.000000,25.000000,15.000000,0.000000,0.000000:
0000
0000
0000
0000
,
0000
0000
0000
0000
,
1000
0000
0001
0000
0100
0000
0010
1000
,
0001
0000
0100
0000
0010
0000
1000
0001
,
0100
0010
1000
0100
,
0001
0000
1000
0000
0010
0000
0100
0100
,
0001
1000
0100
1000
,
0010
0000
0100
0000
1000
0000
0010
0100
,
0001
0000
1000
0100
0010
0000
0001
0000
,
1000
0010
0100
0001
,
1010
0100
0010
0001
,
1000
0010
0100
0010
,
1000
0100
0010
0001
1000
0000
0010
0000
,
0100
0011
1000
0110
,
0001
1000
0100
0010
,
0011
1000
0010
0100
,
1001
0100
1010
0100
,
0011
0100
1100
0001
,
1001
1000
0110
0001
,
0011
0000
1000
0000
1000
0100
1000
0100
,
1000
0000
0000
0001
0002
0000
0003
0100
,
0200
0000
0300
0000
0001
1000
0001
0000
,
2000
0000
0010
0000
0001
0001
0001
0000
,
0100
0000
0001
0000
0100
0100
3100
0000
,
0010
0000
0100
0001
0000
0100
0010
0000
,
0100
0001
0000
1000
0001
0000
1000
0000
,
0100
0000
0010
0100
0000
1000
0100
0000
,
0010
0100
0000
1000
0100
0000
0010
0000
,
0002
0000
0103
0200
0000
0310
0020
0000
,
1030
2000
0000
3001
0002
0000
0103
0000
,
0020
0000
1030
2000
0000
3010
0020
0000
,
1030
2000
0000
3100
0200
0000
0310
0000
,
0011
0000
0101
0000
0010
1000
0010
0000
,
1000
0001
1000
0000
0001
1000
0001
0000
,
1000
0100
0010
0001
,
1000
0100
1000
0000
0001
0100
0001
0000
,
0001
1000
0100
0010
0001
0000
0100
0000
,
1001
0100
0010
1000
,
0001
0100
0010
1000
0100
0000
0010
0000
,
0110
0001
1000
0100
,
1100
0000
0110
0000
1001
0000
0100
0010
,
1000
0000
0100
0000
0010
0001
0010
0000
,
0100
1000
0001
0100
,
0010
0000
1000
0000
0001
1000
0100
0000
,
0010
0000
0001
0000
1000
0000
0100
0010
,
0100
1000
0010
0100
,
0001
1000
0100
1000
,
0010
0100
0001
1000
,
0010
0100
0110
0101
,
1000
0001
0000
0001
1000
0000
0100
0000
,
0010
0000
0100
0000
1000
0100
0000
0010
,
0100
0000
0010
0001
0000
0100
0000
0010
,
0000
1000
0000
0001
0000
1000
0100
0010
,
0001
1000
1010
0101
,
0010
0001
1100
0011
,
1000
0100
0010
0000
0001
0010
0100
0000
,
1000
0000
0001
0000
0010
0100
0010
0000
,
1001
0000
0100
0010
0100
0000
0000
0000
,
0002
0000
2000
0000
,
3003
0000
0000
0000
;

//---------------dance-single - C. Picardy----------------
#NOTES:
     dance-single:
     :
     Hard:
     8:
     0.501780,0.624829,0.353011,0.123554,0.088253,398.000000,358.000000,40.000000,14.000000,0.000000,0.000000,0.501780,0.624829,0.353011,0.123554,0.088253,398.000000,358.000000,40.000000,14.000000,0.000000,0.000000:
0000
0000
0000
0000
,
0000
0000
0000
0000
,
0001
0000
1000
0000
0100
0000
1000
0000
0010
0000
0100
0000
0001
0000
0010
0100
,
1000
0001
0100
0001
0100
0010
1000
0100
,
1100
0000
0010
0000
0011
0000
0001
0000
0101
0000
0010
0000
1010
0000
0000
0001
,
1000
0000
0100
0000
0010
0001
0010
0100
1000
0000
0100
0000
0010
0000
0100
0000
,
1000
0000
0001
0000
0100
0001
0010
0100
1000
0000
0001
0000
0100
0000
0010
0000
,
1000
0100
1000
0000
0001
0100
0001
1000
0010
0000
1000
0000
0100
0010
0001
0100
,
0010
0000
0000
0000
1000
0000
0001
0100
0001
0000
0000
0000
1000
0000
0000
0000
,
0100
0011
0100
0010
,
1000
0100
0001
0000
0001
0100
1000
0000
,
0100
0010
0001
0000
0001
0010
0100
0000
,
1000
0100
0001
0100
1000
0000
0010
0100
,
0001
0000
0000
0000
0011
0000
0000
0000
0100
0000
0000
0000
0010
0000
0000
1000
,
0001
0000
0000
0000
1100
0000
0000
0000
0001
0000
0000
0000
0010
0000
0000
0001
,
0010
0000
0001
0100
1000
0100
0001
0000
,
0101
0000
0010
1000
0100
0000
0011
0000
,
1000
0000
0010
0100
0010
0000
1010
0000
,
0010
1000
0100
0000
0100
1000
0010
0000
,
0010
0100
1000
0000
1000
0100
0001
0100
,
0010
0000
0000
0000
1000
0000
0010
1000
0010
0000
0000
0000
0100
0000
0001
0100
,
0001
0000
1000
0000
0100
0010
0001
0000
,
1000
0100
1000
0100
0010
0001
0010
0001
,
1000
0100
0010
0001
0010
0100
1000
0001
,
0200
0000
0310
2000
0000
3001
0200
0000
,
0310
2000
0000
3100
0010
0000
0100
0000
,
2001
0000
3100
0020
0000
0031
0020
0000
,
0031
2000
0000
3010
0100
0000
0001
0000
,
1010
0000
0001
0101
0000
1000
1100
0000
,
0010
0110
0000
0001
0011
0000
1000
0000
,
0101
0000
0010
0110
0000
1000
1010
0000
,
0100
1100
0000
0001
1001
0000
0110
0000
,
1000
0001
1000
0001
0100
0010
0100
0010
,
1000
0100
1000
0100
0010
0001
0010
0001
,
0100
0000
0010
0000
1000
0010
0000
1000
,
0001
0000
1000
0000
0100
0010
0001
0010
,
0100
1100
0110
0011
,
2001
0010
0001
3010
,
0110
0101
1100
0110
,
1002
0010
0100
0013
,
1100
0000
0011
0000
0001
0010
0100
1000
,
0001
0100
0010
0100
0001
0100
0010
0100
,
0001
1000
0010
1000
0100
1000
0010
1000
,
0100
0010
0001
0010
0100
0010
0001
0010
,
0100
0000
0010
0000
0001
0000
0010
0000
0100
0000
1000
0000
0100
1000
0100
1000
,
0100
0010
0001
1000
0000
0010
1000
0001
,
0000
1000
0100
0001
0000
1000
0000
0010
,
0000
0001
0100
1000
0000
1000
0100
0001
,
0000
1000
0100
0010
0110
0000
1001
0000
,
0010
0100
0000
1000
0000
0001
0100
0010
,
0000
1000
0100
0010
0001
1000
0000
0010
,
0100
0001
0010
0100
0000
1000
0000
1100
,
0000
0110
0000
1001
0000
0001
0100
0010
,
1000
0100
0001
0100
1000
0100
0001
0100
,
1000
0010
0001
0010
1000
0010
0001
0010
,
1000
0100
0010
0001
0010
0100
1000
0100
,
0110
0002
1003
0010
,
1001
0000
0100
0100
0020
0000
0000
0000
,
0000
2000
0000
0000
0000
0000
0000
0000
0030
0000
0000
0000
0000
0000
0000
0000
0000
0000
0200
0000
0000
0000
0000
0000
0000
0000
0000
0000
0000
0000
0000
0000
,
3300
0000
0000
0000
;

//---------------dance-single - C. Picardy----------------
#NOTES:
     dance-single:
     :
     Challenge:
     12:
     0.927914,1.301727,0.079427,0.079427,1.306140,736.000000,727.000000,9.000000,9.000000,17.000000,0.000000,0.927914,1.301727,0.079427,0.079427,1.306140,736.000000,727.000000,9.000000,9.000000,17.000000,0.000000:
0000
0000
0000
0000
,
0000
0000
0000
0000
,
1000
0100
1000
0100
1000
0100
0000
0010
0001
1000
0001
1000
0001
1000
0000
0000
0001
0100
0001
0100
0001
0100
0000
0000
0010
1000
0010
1000
0010
1000
0000
0000
,
0001
1000
0000
1000
0100
0010
0001
0000
1000
0001
0000
0010
0001
1000
0100
0000
0010
0001
0000
0010
0001
0000
0100
0001
0000
0100
0001
0000
1000
0010
1000
0001
,
0100
0010
0100
0000
0001
0000
0000
0000
1000
0100
1000
0000
0010
0000
0000
0000
0100
0001
0100
0000
0001
0000
0000
0000
1000
0010
1000
0000
0001
0000
1000
0000
,
0100
0000
0010
0000
0001
0000
0000
0000
0010
0000
0100
0000
1000
0000
0000
0000
0001
0100
0001
0000
0010
0000
0000
0000
0100
1000
0000
0100
1000
0100
1000
0100
,
1000
0001
0000
0000
1000
0100
0000
0000
0010
0000
0001
0000
0100
0010
0000
0000
1000
0000
0001
0000
0100
0010
0000
0000
1000
0000
0100
0000
0001
0000
0100
0000
,
1000
0000
0010
0000
0100
0001
0010
0000
0100
0000
1000
0000
0001
0010
0100
1000
,
0001
0000
1000
0100
1000
0000
0001
0100
0010
0000
1000
0001
0100
0000
0010
0000
,
1000
0000
0100
1000
0100
0000
0010
0000
0001
0000
1000
0001
1000
0000
0100
0000
,
0010
0000
0001
0010
0100
0000
1000
0000
0010
0000
0100
0010
1000
0000
0001
0000
,
1000
0000
0010
1000
0001
0000
0010
0000
0100
0000
1000
0100
0010
0000
0100
0000
,
2000
0000
0002
3000
0200
0003
0020
0300
2000
0030
0001
3100
0010
0000
1000
0000
,
0001
0000
0010
0100
1000
0000
0001
0000
1000
0000
0010
0100
0001
0000
0000
1000
,
0100
0000
0010
0001
0010
0000
0100
0000
1000
0000
0001
0010
0001
0000
1000
0000
,
1000
0000
0010
0100
0010
0000
1000
0000
0001
0000
0010
0100
1000
0000
0001
0000
,
0100
0000
0010
1000
0001
0000
0010
0000
0100
0000
0010
0001
1000
0000
0010
0000
,
0100
0000
0001
0100
1000
0000
0100
0000
0010
0000
1000
0010
0001
0000
1000
0000
,
0100
0000
0010
1000
0100
0000
0001
0000
0100
0000
0010
0001
1000
0000
0010
0000
,
0100
0000
0001
1000
0100
0000
0010
0000
0001
0000
1000
0010
1000
0000
0001
0000
,
0100
0000
0010
0000
1000
0000
0001
1000
0100
0000
0010
0000
0001
0000
1000
0001
,
0100
0010
1000
0001
1000
0100
1100
0000
,
1000
0100
1000
0100
1000
0001
1000
0001
0010
0001
0010
0001
1000
0001
1000
0001
,
0100
0001
0100
0001
1000
0010
1000
0010
0100
0010
0100
0010
0100
0001
0100
0001
,
1000
0010
1000
0010
1000
0001
1000
0100
0010
0001
0010
0001
0010
0100
1000
0010
,
0100
0010
0100
0001
0100
0001
0100
0010
1000
0100
0010
0001
0010
0100
1000
0100
,
0010
0001
0010
0001
0010
0100
1000
0001
0010
0001
0010
0001
1000
0100
1000
0100
,
1000
0010
0100
0010
1000
0010
1000
0010
1000
0001
0100
0010
1000
0100
0010
0001
,
1000
0001
1000
0001
1000
0100
0010
0001
0010
0001
0010
0100
1000
0010
0100
0010
,
0100
0010
0100
0001
0100
0001
0100
0001
0010
0100
1000
0100
0010
0001
1000
0010
,
0100
0001
0100
0001
0100
0010
1000
0010
1000
0010
1000
0100
0010
0100
0010
0100
,
0010
0001
1000
0010
1000
0010
1000
0010
0100
0001
0010
0100
1000
0001
0100
0010
,
1000
0100
1000
0100
1000
0100
1000
0100
0001
0100
0001
0100
0001
0100
0001
0100
,
1000
0010
1000
0010
1000
0010
1000
0010
0001
0010
0001
0010
0001
0010
0001
0010
,
1000
0010
0100
0001
1000
0010
0100
0001
1000
0010
0100
0001
1000
0010
0100
0001
,
1000
0100
0010
0001
1000
0100
0010
0001
1000
0100
0010
0001
1000
0100
0010
0001
,
0100
0001
0100
0001
0100
1000
0100
1000
0100
0010
0100
0010
0100
0001
0100
0001
,
0010
M1MM
1MMM
MMM1
,
0010
1000
0010
1000
0010
0001
0010
0001
0100
1000
0100
1000
0100
0010
0100
0010
,
1000
MMM1
M1MM
1M1M
,
0001
0000
0000
0000
1000
0100
1000
0100
1000
0000
0000
0000
0001
0010
0001
0010
0001
0000
0000
0000
1000
0001
1000
0001
1000
0000
0000
0000
0001
0000
0000
0000
,
1001
0000
0010
0100
1000
0000
0100
0010
0001
0000
0100
0000
0101
0000
1000
0001
,
1000
0000
0100
0010
0001
0000
1000
0010
0100
0000
0001
1000
0100
0000
0010
0000
,
0011
0000
0100
1000
0100
0000
0010
0001
0010
0000
0100
1000
0001
0000
0100
0000
,
0110
0000
1000
0010
1000
0000
0001
0100
0001
0000
1000
0000
1000
0100
0010
0001
,
0010
0000
0100
1000
0001
0000
0100
0000
0010
0000
1000
0001
0100
0000
0010
0000
,
1000
0000
0001
0010
0100
0000
0010
0000
0001
0000
1000
0100
0010
0000
0100
0000
,
1000
0000
0001
0100
0010
0000
1000
0000
0001
0000
0010
0100
1000
0000
0001
0000
,
0100
0000
0010
1000
0001
0000
0100
0000
0110
0000
0000
0000
1001
0000
0000
0000
,
1000
0000
0001
0100
0001
0000
1000
0100
1000
0000
0010
0100
0010
0000
1000
0010
,
1000
0000
0001
0010
0001
0000
1000
0100
1000
0000
0010
1000
0010
0000
0100
0010
,
0100
0000
0100
0001
0100
0000
0100
0010
0100
0000
0100
1000
0100
0000
0100
0010
,
1000
0000
1000
0001
1000
0000
1000
0100
1000
0000
1000
0010
1000
0000
1000
0000
,
0001
0100
0001
0100
1000
0100
1000
0100
0010
0001
0010
0001
1000
0100
1000
0100
,
0010
0100
0010
0100
0001
0010
0001
0010
1000
0010
1000
0010
0100
0001
0100
0001
,
0100
1000
0001
0100
0010
1000
0100
0010
0001
0100
0010
1000
0001
0100
0010
1000
,
0100
0010
0001
0100
0010
1000
0001
0100
0010
1000
0100
0010
0100
1000
0001
1000
,
1001
0000
0100
0200
0020
0000
0000
0000
,
0000
0000
0000
0000
0300
0000
0200
0000
0000
0000
0000
0000
0000
0000
0000
0000
0000
0000
0000
0000
0000
0000
0000
0000
0000
0000
0000
0000
0000
0000
0000
0000
0000
0000
0000
0000
0000
0000
0000
0000
0000
0000
0000
0000
0000
0000
0000
0000
0000
0000
0000
0000
0000
0000
0000
0000
0000
0000
0000
0000
0000
0000
0000
0000
0000
0000
0000
0000
0000
0000
0000
0000
0000
0000
0000
0000
0000
0000
0000
0000
0000
0000
0000
0000
0000
0000
0000
0000
0000
0000
0000
0000
0000
0000
0000
0000
0000
0000
0000
0000
0000
0000
0000
0000
0000
0030
0000
0000
0020
0000
0000
0000
0000
0000
0000
0000
0000
0000
0000
0000
0000
0000
0000
0000
0000
0000
0000
0000
0000
0000
0000
0000
0000
0000
0000
0000
0000
0000
0000
0000
0000
0000
0000
0000
0000
0000
0000
0000
0000
0000
0000
0000
0000
0000
0000
0000
0000
0000
0000
0000
0000
0000
0000
0000
0000
0000
0000
0000
0000
0000
0000
0000
0000
0000
0000
0000
0000
0000
0000
0000
0000
0000
0000
0000
0000
0000
0000
0000
0000
0000
0000
0000
,
0330
0000
0000
0000
;
