#TITLE:Winter Night;
#SUBTITLE:;
#ARTIST:Lagoona;
#TITLETRANSLIT:;
#SUBTITLETRANSLIT:;
#ARTISTTRANSLIT:;
#GENRE:;
#CREDIT:;
#BANNER:winternightbn.png;
#BACKGROUND:winternightbg.png;
#LYRICSPATH:;
#CDTITLE:;
#MUSIC:winternight.ogg;
#OFFSET:0.037979;
#SAMPLESTART:70.359238;
#SAMPLELENGTH:13.240000;
#SELECTABLE:YES;
#DISPLAYBPM:150.000000;
#BPMS:0.000000=150.020004
,176.000000=150.009995
;
#STOPS:176.000000=0.020000
;
#BGCHANGES:8.000=fallingsnow.mp4=1.000=1=0=1=SongBgWithMovieViz==CrossFade==,
16.000=fallingsnow.mp4=1.000=1=0=1===CrossFade==,
48.000=darkbluesnow.mp4=1.000=1=1=1=StretchRewind==CrossFade==,
80.000=daylightsnowflakes.mp4=1.000=1=1=1=StretchRewind==CrossFade==,
112.000=flash=2.000=0=0=1====#0000FF=,
112.250=fallingsnow.mp4=1.000=0=1=1=StretchRewind====,
144.000=daylightsnowflakes.mp4=1.000=1=0=1===CrossFade==,
176.000=flash=2.000=0=0=1====#00FFFF=,
176.250=darkbluesnow.mp4=1.000=0=0=1=====,
208.000=daylightsnowflakes.mp4=1.000=1=0=1===CrossFade==,
240.000=flash=2.000=0=0=1====#00FFFF=,
240.250=fallingsnow.mp4=1.000=0=0=1=====,
272.000=daylightsnowflakes.mp4=1.000=1=0=1===CrossFade==,
288.000=darkbluesnow.mp4=1.000=1=0=1===CrossFade==,
303.000=winternightbg.png=1.000=0=0=1===CrossFade_Fastest==,
304.000=flash=2.000=0=0=1=====,
304.250=winternightbg.png=1.000=0=0=1=====,
99999=-nosongbg-=1.000=0=0=0 // don't automatically add -songbackground-
;
#KEYSOUNDS:;
#ATTACKS:;

//---------------dance-single - C. Picardy----------------
#NOTES:
     dance-single:
     :
     Beginner:
     1:
     0.113504,0.186755,0.098292,0.016382,0.000000,97.000000,85.000000,12.000000,2.000000,0.000000,0.000000,0.113504,0.186755,0.098292,0.016382,0.000000,97.000000,85.000000,12.000000,2.000000,0.000000,0.000000:
0000
0000
0000
0000
,
0000
0000
0000
0000
,
0000
0000
0000
0000
,
0000
0000
0000
0000
,
1000
0000
0000
0000
,
0001
0000
0000
0000
,
1000
0000
0000
0000
,
0001
0000
0000
0000
,
0100
0000
0000
0000
,
0010
0000
0000
0000
,
0100
0000
0000
0000
,
0010
0000
0000
0000
,
1001
0000
1000
0000
,
1000
0000
0000
0000
,
0001
0000
0001
0000
,
0001
0000
0000
0000
,
1000
0000
1000
0000
,
1000
0000
0000
0000
,
0001
0000
0001
0000
,
0001
0000
0000
0000
,
0100
0000
0100
0000
,
0100
0000
0000
0000
,
0010
0000
0010
0000
,
0010
0000
0000
0000
,
0100
0000
0000
0000
,
0010
0000
0000
0000
,
0100
0000
0000
0000
,
0010
0000
0000
0000
,
1001
0000
0001
0000
,
1000
0000
0000
0000
,
1000
0000
0001
0000
,
1000
0000
0000
0000
,
0010
0000
0100
0000
,
0010
0000
0000
0000
,
0100
0000
0010
0000
,
0100
0000
0000
0000
,
1001
0000
0000
0000
,
1001
0000
0000
0000
,
0110
0000
0000
0000
,
0110
0000
0000
0000
,
0020
0000
0000
0000
,
0000
0000
0000
0000
,
0000
0000
0000
0000
,
0030
0000
0000
0000
,
0001
0000
0001
0000
,
1000
0000
0000
0000
,
1000
0000
1000
0000
,
0001
0000
0000
0000
,
0100
0000
0100
0000
,
0010
0000
0000
0000
,
0010
0000
0010
0000
,
0100
0000
0000
0000
,
0001
0000
0000
0000
,
1000
0000
0000
0000
,
0010
0000
0000
0000
,
0100
0000
0000
0000
,
0001
0000
0000
0000
,
0001
0000
0000
0000
,
1000
0000
0000
0000
,
1000
0000
0000
0000
,
0110
0000
0100
0000
,
0100
0000
0000
0000
,
0010
0000
0010
0000
,
0010
0000
0000
0000
,
1000
0000
1000
0000
,
1000
0000
0000
0000
,
0001
0000
0001
0000
,
0001
0000
0000
0000
,
0110
0000
0000
0000
,
0110
0000
0000
0000
,
1001
0000
0000
0000
,
1001
0000
0000
0000
,
0200
0000
0000
0000
,
0000
0000
0000
0000
,
0000
0000
0000
0000
,
0300
0000
0000
0000
,
1001
0000
0000
0000
;

//---------------dance-single - C. Picardy----------------
#NOTES:
     dance-single:
     :
     Challenge:
     10:
     0.692726,0.684769,0.188393,0.221157,0.352214,592.000000,569.000000,23.000000,27.000000,50.000000,5.000000,0.692726,0.684769,0.188393,0.221157,0.352214,592.000000,569.000000,23.000000,27.000000,50.000000,5.000000:
0000
0000
0000
0000
,
0000
0000
0000
0000
,
0000
0000
0000
0000
,
0000
0000
0000
0000
0000
0000
0010
1000
,
0100
0010
M001
0000
M001
0100
M010
0000
,
M010
0100
M001
0000
M001
0010
M100
0000
,
100M
0100
001M
0000
001M
0100
100M
0000
,
100M
0010
010M
0000
010M
0010
100M
0000
,
0001
0100
0001
0100
1000
0100
1000
0100
,
0001
0010
0001
0010
0100
1000
0100
1000
,
0100
0000
0001
0000
0100
0000
0001
0000
M400
0040
0000
0000
000M
0000
0000
0000
,
M000
0000
0000
0000
000M
0000
0000
0000
M330
0000
0000
0001
1000
0000
0000
0010
,
0100
0000
0001
0000
1000
0000
0000
0100
0010
0000
0001
0000
1000
0000
0000
0001
,
0010
0000
0001
0000
1000
0000
0000
0100
0010
0000
0100
0000
1000
0000
0000
0001
,
0100
0000
0001
0000
0010
0000
0000
0100
1000
0000
0010
0000
0100
0000
0000
0010
,
1000
0000
0100
0000
0010
0000
0000
0001
0010
0000
0100
0000
1000
0000
0000
0001
,
1000
0000
0100
0000
0110
0000
0000
0001
1000
0000
0010
0000
0110
0000
0000
1000
,
0010
0000
1000
0000
1100
0000
0000
0001
0010
0000
0001
0000
0101
0000
0000
1000
,
0001
0000
0100
0000
0101
0000
0000
1000
0100
0000
1000
0000
1010
0000
0000
0100
,
0010
0000
0001
0000
0011
0000
0000
0001
0100
0000
0001
0000
1001
0000
0000
0000
,
1000
0000
0010
1000
0010
0000
1000
0000
0100
0000
0100
0000
0110
0000
0000
0000
,
0001
0000
0010
0001
0010
0000
0001
0000
0100
0000
0100
0000
0110
0000
0000
0000
,
0010
0000
1000
0010
1000
0000
0001
0000
0100
0000
0100
0000
1001
0000
0000
0000
,
1000
0000
0100
1000
0100
0000
1000
0000
0001
0000
0001
0000
0011
0000
0000
0000
,
1000
0000
1000
0100
0010
0000
0001
0000
0100
0000
0100
0000
0101
0000
0000
0000
,
0010
0000
0010
1000
0001
0000
0010
0000
0100
0000
0100
0000
1100
0000
0000
0000
,
0001
0000
0001
0010
0100
0000
1000
0000
00M4
0400
0000
0000
M000
0000
0000
0000
,
00M0
0000
0000
0000
M000
0000
0000
0000
03M3
0000
0000
0010
1000
0000
1001
0000
,
0100
0000
0010
1000
0010
0000
0100
0000
0001
0000
0001
0000
1000
0000
1000
0000
,
0100
0000
0010
0100
0010
0000
0001
0000
1000
0000
1000
0000
0100
0000
0100
0000
,
1000
0000
0001
0100
0001
0000
0010
0000
0001
0000
0001
0000
0100
0000
0100
0000
,
0010
0000
1000
0100
1000
0000
0001
0000
0100
0000
0100
0000
0010
0000
0010
0000
,
1000
0000
0001
0100
0010
0000
1000
0000
0001
0000
0001
0000
0101
0000
0100
0000
,
0010
0000
1000
0001
0010
0000
0100
0000
1000
0000
1000
0000
1010
0000
0010
0000
,
0100
0000
0001
1000
0100
0000
0010
0000
0001
0000
0001
0000
1001
0000
1000
0000
,
0010
0000
0100
0001
0010
0000
0100
0000
0010
0000
0010
0000
0011
0000
0001
0000
,
1000
0000
0001
0100
1000
0000
0100
0000
0001
0000
0010
0000
1000
0000
0010
0000
,
0001
0000
0010
0100
1000
0000
0100
0000
0001
0000
0100
0000
1000
0000
0010
0000
,
0001
0000
1000
0100
0010
0000
1000
0000
0100
0000
0010
0000
1000
0000
0010
0000
,
0001
0000
1000
0100
0001
0000
0100
0000
0010
0000
0001
0000
0100
0000
1000
0000
,
0200
0000
0002
0000
1000
0000
0010
0303
,
2000
0000
0200
0000
0001
0000
0010
3000
,
2000
0000
0000
0000
0001
0000
3300
0000
40M0
0004
0000
0000
0M00
0000
0000
0000
,
00M0
0000
0000
0000
0M00
0000
0000
0000
30M3
0000
0000
0010
0100
0000
0110
0000
,
1000
0000
0001
0100
0001
0000
2000
0000
0010
0000
0010
0000
0100
0000
3100
0000
,
0010
0000
0001
0010
0001
0000
2000
0000
0010
0000
0010
0000
0001
0000
3001
0000
,
0100
0000
0010
1000
0010
0000
0200
0000
0001
0000
0001
0000
0010
0000
0310
0000
,
1000
0000
0100
0010
0001
0000
0020
0000
0100
0000
0100
0000
0001
0000
0031
0000
,
1000
0000
0001
1000
0010
0000
0200
0000
1000
0000
1000
0000
0010
0000
0310
0000
,
1000
0000
0001
1000
0100
0000
0020
0000
0001
0000
0001
0000
1000
0000
1030
0000
,
0010
0000
0001
0100
0010
0000
0200
0000
1000
0000
1000
0000
0001
0000
0301
0000
,
1000
0000
0010
0100
0001
0000
0020
0000
1000
0000
1000
0000
0100
0000
0130
0000
,
1000
0000
0001
0100
0010
0000
2000
0000
0001
0000
0001
0000
0100
0000
3001
0000
,
0100
0000
0100
0010
1000
0000
0002
0000
1000
0000
1000
0000
0100
0000
1003
0000
,
0100
0000
0010
0100
1000
0000
0020
0000
1000
0000
1000
0000
0100
0000
1030
0000
,
0001
0000
0100
0010
1000
0000
0200
0000
0010
0000
0010
0000
1000
0000
0310
0000
,
0001
0000
1000
0100
0010
0000
0002
0000
1000
0000
0100
0000
1000
0000
1003
0000
,
0001
0000
0001
0100
0010
0000
2000
0000
0001
0000
0100
0000
0001
0000
3001
0000
,
0100
0000
0010
1000
0001
0000
0010
0000
040M
4000
0000
0000
00M0
0000
0000
0000
,
000M
0000
0000
0000
00M0
0000
0000
0000
330M
0000
0000
0001
MM10
0000
0011
0000
,
1000
0000
0001
0100
0001
0000
1000
0000
0100
0000
1000
0100
1000
0000
0001
0000
,
1000
0000
0001
0010
0001
0000
0100
0000
0010
0000
1000
0010
1000
0000
0001
0000
,
0100
0000
0010
1000
0010
0000
0100
0000
0001
0000
0010
0100
0010
0000
0100
0000
,
1000
0000
0010
0100
0010
0000
1000
0000
0001
0000
0100
0001
0100
0000
0010
0000
,
1000
0000
0100
0001
0100
0000
1000
0000
0010
0000
0001
0010
0001
0000
0010
0000
,
1000
0000
0001
0100
0001
0000
0100
0000
1000
0000
0100
0010
0100
0000
0001
0000
,
0010
0000
1000
0010
1000
0000
0001
0000
0100
0000
1000
0100
1000
0000
0010
0000
,
0001
0000
0010
1000
0010
0000
0100
0000
0001
0000
0100
1000
0100
0000
0001
0000
,
1000
0000
0001
0010
0100
0000
1000
0000
0010
0000
0100
0010
1000
0000
0100
0000
,
0010
0000
0001
0100
0010
0000
1000
0000
0100
0000
0010
0001
0100
0000
0010
0000
,
1000
0000
0001
0100
1000
0000
0100
0000
0010
0000
1000
0100
0001
0000
1000
0000
,
0010
0000
0001
0010
0100
0000
0001
0000
0100
0000
1000
0010
0100
0000
0001
0000
,
2000
0000
0000
0000
0200
0000
0000
3000
M002
0000
0000
0300
1M03
000M
0010
0000
,
0002
0000
0000
0000
0200
0000
0000
0003
200M
0000
0000
0300
3M01
M000
0010
0000
,
2000
0000
0000
0000
0200
0000
3000
0000
M340
0004
0M00
0000
M000
0000
0000
0000
,
0M00
0000
0000
0000
M000
0000
0000
0000
0033
0000
0000
1000
01MM
0000
1001
0000
,
0101
0000
0000
0000
;

//---------------dance-single - C. Picardy----------------
#NOTES:
     dance-single:
     :
     Hard:
     8:
     0.566350,0.560265,0.114674,0.098292,0.212966,484.000000,470.000000,14.000000,12.000000,10.000000,0.000000,0.566350,0.560265,0.114674,0.098292,0.212966,484.000000,470.000000,14.000000,12.000000,10.000000,0.000000:
0000
0000
0000
0000
,
0000
0000
0000
0000
,
0000
0000
0000
0000
,
0000
0000
0000
0000
0000
0000
1000
0010
,
0100
0100
0100
0100
,
0010
0010
0010
0010
,
1000
0001
1000
0001
,
0100
0010
0100
0010
,
1000
0100
0001
0000
0001
0100
1000
0000
,
1000
0010
0001
0000
0001
0010
1000
0000
,
0001
0010
0100
0000
0040
0000
0000
0000
,
0400
0000
0000
0000
0330
0MM0
0001
1000
,
1000
0100
0010
0100
1000
0010
0100
0000
,
0001
0100
0010
0100
0001
0010
0100
0000
,
0010
0100
1000
0100
0010
0001
0100
0000
,
0001
0100
0010
1000
0001
0010
0100
0000
,
1000
0100
0001
0100
1000
0010
0001
0000
,
0010
1000
0001
0100
1000
0100
0001
0000
,
1000
0010
0001
0010
1000
0100
0001
0000
,
0001
0100
0010
0100
1000
0010
0100
0000
,
0001
0000
0000
0001
0010
0000
0001
0000
0100
0000
0010
0000
1000
0000
0000
0000
,
1000
0000
0000
0100
1000
0000
0100
0000
0010
0000
0100
0000
1000
0000
0000
0000
,
0001
0000
0000
0100
0010
0000
0100
0000
0001
0000
0010
0000
0100
0000
0000
0000
,
1000
0000
0000
0100
0010
0000
0001
0000
1000
0000
0100
0000
0010
0000
0000
0000
,
0001
0000
0000
0001
0010
0000
0100
0000
0010
0000
0001
0000
1000
0000
0000
0000
,
0010
0000
0000
0010
1000
0000
0100
0000
0010
0000
0100
0000
1000
0000
0000
0000
,
0001
0100
0010
1000
0400
0000
0000
0000
,
4000
0000
0000
0000
0000
0000
0000
0000
3300
0000
MM00
0100
0010
0000
0100
0000
,
0010
0000
0001
0010
0001
0000
0010
0000
0100
0000
0000
0000
1001
0000
0000
0000
,
1000
0000
0100
1000
0100
0000
1000
0000
0010
0000
0000
0000
1001
0000
0000
0000
,
0100
0000
0001
0100
0001
0000
0100
0000
0010
0000
0000
0000
1010
0000
0000
0000
,
0001
0000
0010
0001
0010
0000
0100
0000
1000
0000
0000
0000
0011
0000
0000
0000
,
0100
0000
0010
1000
0010
0000
1000
0000
0100
0000
0000
0000
1010
0000
0000
0000
,
1000
0000
0001
0010
0001
0000
1000
0000
0010
0000
0000
0000
0101
0000
0000
0000
,
1000
0000
0010
0100
0010
0000
1000
0000
0001
0000
0000
0000
0110
0000
0000
0000
,
0001
0000
0010
0100
0010
0000
0001
0000
1000
0000
0000
0000
0110
0000
0000
0000
,
1000
0000
0001
0100
0010
0000
0100
0000
0001
0000
0000
0000
1100
0000
0000
0000
,
0100
0000
1000
0100
0010
0000
0100
0000
1000
0000
0000
0000
0101
0000
0000
0000
,
0010
0000
0001
0010
0100
0000
0010
0000
0001
0000
0000
0000
1010
0000
0000
0000
,
0100
0000
0001
0100
0010
0000
1000
0000
0100
0000
0000
0000
1001
0000
0000
0000
,
0002
0000
0200
0003
2000
0300
0002
3000
,
0020
0003
2000
0030
0200
3000
0002
0300
,
2000
0003
0020
3000
0034
0000
0000
0000
,
0400
0000
0000
0000
0000
0000
0000
0000
0303
0000
0M0M
0100
0010
0000
0100
0000
,
0001
0000
0000
0100
0010
0000
0100
0000
0001
0000
0000
1000
0100
0000
0000
0000
,
0010
0000
0000
0100
1000
0000
0100
0000
0010
0000
0000
0100
1000
0000
0000
0000
,
0001
0000
0000
0010
0100
0000
1000
0000
0001
0000
0000
0100
0010
0000
0000
0000
,
1000
0000
0000
0001
0100
0000
0010
0000
1000
0000
0000
0001
1000
0000
0000
0000
,
0001
0000
0000
0001
0100
0000
0000
0100
0010
0000
1000
0000
0100
0000
0000
0000
,
1000
0000
0000
1000
0001
0000
0000
0001
1000
0000
0100
0000
0010
0000
0000
0000
,
0001
0000
0000
0001
0010
0000
0000
0010
0001
0000
0100
0000
0010
0000
0000
0000
,
1000
0000
0000
1000
0010
0000
0000
0010
1000
0000
0100
0000
0010
0000
0000
0000
,
0001
0000
0000
0001
1000
0000
0000
1000
0100
0000
0010
0000
0100
0000
1000
0000
,
0010
0000
0000
0010
0100
0000
0000
0100
0010
0000
1000
0000
0100
0000
0010
0000
,
0001
0000
0000
0001
0100
0000
0000
0100
0001
0000
0010
0000
0100
0000
1000
0000
,
0010
0000
0000
0010
1000
0000
0000
1000
0010
0000
0100
0000
0001
0000
0100
0000
,
0010
0000
0000
1000
0001
0000
0000
1000
0100
0000
0010
0000
0100
0000
1000
0000
,
0010
0000
0000
0100
0001
0000
0000
0010
0100
0000
1000
0000
0100
0000
0010
0000
,
0001
0000
0000
0001
0100
0000
0000
0100
0040
0000
0000
0000
0000
0000
0000
0000
,
4000
0000
0000
0000
0000
0000
0000
0000
3030
0000
M0M0
0100
1000
0000
1100
0000
,
1000
0100
1000
0100
0010
0100
0010
0100
,
0010
0001
0010
0001
0100
0001
0100
0001
,
0100
1000
0100
1000
0100
0010
0100
0010
,
1000
0100
1000
0100
0001
0100
0001
0100
,
1000
0100
0001
0100
1000
0100
0001
0100
,
1000
0010
0001
0010
1000
0010
0001
0010
,
1000
0100
0010
0100
0001
0100
0010
0100
,
1000
0010
0100
0010
0001
0010
1000
0010
,
0100
0001
0010
0001
1000
0001
0100
0010
,
1000
0100
1000
0001
1000
0010
1000
0100
,
0010
0001
0010
0100
0010
0001
0010
0100
,
1000
0100
0010
0001
0010
0100
1000
0001
,
0200
0000
0010
0000
0001
0300
0010
0100
,
2000
0000
0010
0000
0001
3000
0100
0010
,
1000
0001
4000
0000
,
0004
0000
0000
0000
0000
0000
0000
0000
3003
0000
M00M
0010
1000
0000
0001
0000
,
1001
0000
0000
0000
;

//---------------dance-single - C. Picardy----------------
#NOTES:
     dance-single:
     :
     Medium:
     6:
     0.471568,0.498014,0.270303,0.065528,0.049146,403.000000,370.000000,33.000000,8.000000,0.000000,0.000000,0.471568,0.498014,0.270303,0.065528,0.049146,403.000000,370.000000,33.000000,8.000000,0.000000,0.000000:
0000
0000
0000
0000
,
0000
0000
0000
0000
,
0000
0000
0000
0000
,
0000
0000
0000
0000
,
1000
0100
0001
0010
,
1000
0100
0001
0010
,
0001
0100
1000
0010
,
0001
0100
1000
0010
,
1000
0100
1000
0000
0001
0100
0001
0000
,
1000
0010
1000
0000
0001
0010
0001
0000
,
0100
0010
0100
0000
4004
0000
0000
0000
,
0000
0000
3003
0110
,
1000
0100
0010
0000
0100
0000
0011
0000
,
0001
0100
0010
0000
0100
0000
1010
0000
,
0001
0010
0100
0000
1000
0000
0110
0000
,
1000
0010
0100
0000
0001
0000
0110
0000
,
1000
0100
0010
0100
1000
0000
0001
0000
,
0100
0001
0010
0001
0100
0000
0010
0000
,
0100
0010
1000
0010
0100
0000
0001
0000
,
0010
0100
1000
0100
0010
0000
0001
0000
,
0010
0100
0010
0100
1000
0000
0101
0000
,
0010
1000
0010
1000
0100
0000
0011
0000
,
1000
0010
1000
0010
0100
0000
1010
0000
,
0001
1000
0001
1000
0100
0000
0110
0000
,
0001
0100
0010
0000
0100
0000
0001
0000
,
0010
0100
1000
0000
0001
0000
1000
0000
,
0010
0100
0010
0000
4004
0000
0000
0000
,
0000
0000
3003
0110
,
0001
0000
0000
0001
0100
0000
0000
0000
0010
0000
0010
0000
1000
0000
0000
0000
,
0100
0000
0000
0100
1000
0000
0000
0000
0100
0000
0100
0000
1000
0000
0000
0000
,
0010
0000
0000
0010
0100
0000
0000
0000
0010
0000
0010
0000
0100
0000
0000
0000
,
0001
0000
0000
0001
1000
0000
0000
0000
0001
0000
0001
0000
1000
0000
0000
0000
,
1000
0000
0000
0100
1000
0000
0000
0000
0001
0000
0100
0000
0001
0000
0000
0000
,
0010
0000
0000
0001
0010
0000
0000
0000
0100
0000
1000
0000
0100
0000
0000
0000
,
0010
0000
0000
0100
0010
0000
0000
0000
0001
0000
1000
0000
0001
0000
0000
0000
,
1000
0000
0000
0010
1000
0000
0000
0000
0001
0000
0100
0000
0010
0000
0000
0000
,
1000
0000
0000
0100
1000
0000
0000
0000
0010
0000
0010
0000
0110
0000
0000
0000
,
1000
0000
0000
0010
1000
0000
0000
0000
0001
0000
0001
0000
0101
0000
0000
0000
,
0001
0000
0000
0010
0001
0000
0000
0000
1000
0000
1000
0000
1100
0000
0000
0000
,
0010
0000
0000
0100
0010
0000
0000
0000
1000
0000
1000
0000
1001
0000
0000
0000
,
0200
0010
1000
0301
,
0020
0100
0001
1030
,
0001
1000
4400
0000
,
0000
0000
3300
0011
,
1000
0100
1000
0000
0100
1000
0100
0000
,
0010
0100
0010
0000
0100
0010
0100
0000
,
0010
0001
0010
0000
0001
0010
0001
0000
,
0100
0001
0100
0000
0001
0100
0001
0000
,
1000
0010
1000
0000
0001
0010
0001
0000
,
1000
0100
1000
0000
0001
0100
0001
0000
,
1000
0100
0010
0000
0001
0100
0010
0000
,
1000
0001
0100
0000
0010
1000
0001
0000
,
1000
0100
0001
0000
0001
0100
1000
0000
,
1000
0010
0001
0000
0001
0010
1000
0000
,
0001
0100
1000
0000
1000
0100
0001
0000
,
0001
0010
1000
0000
1000
0010
0001
0000
,
0001
0100
1010
0001
,
1000
0100
0011
0100
,
1010
0001
0044
0000
,
0000
0000
0033
1100
,
0001
0010
0100
0010
0002
0000
0100
0000
,
1003
0100
0010
0100
2000
0000
0010
0000
,
3100
0010
0001
0010
0200
0000
0010
0000
,
1300
0001
0100
0001
0020
0000
0100
0000
,
0031
0010
0100
1000
0010
0000
1001
0000
,
1000
0100
0010
0001
0100
0000
0110
0000
,
0001
1000
0100
1000
0010
0000
1100
0000
,
0001
1000
0010
1000
0001
0000
0011
0000
,
1000
0100
0001
0100
1000
0000
1010
0000
,
0001
0100
1000
0100
0001
0000
0011
0000
,
1000
0010
0001
0010
1000
0000
0101
0000
,
0001
0010
1000
0010
0001
0000
1100
0000
,
0002
0010
0100
1003
,
0020
1000
0100
1030
,
0001
0100
4040
0000
,
0000
0000
0000
0000
3030
0000
1000
0001
,
1001
0000
0000
0000
;

//---------------dance-single - C. Picardy----------------
#NOTES:
     dance-single:
     :
     Easy:
     4:
     0.346363,0.435762,0.311259,0.212966,0.000000,296.000000,258.000000,38.000000,26.000000,0.000000,0.000000,0.346363,0.435762,0.311259,0.212966,0.000000,296.000000,258.000000,38.000000,26.000000,0.000000,0.000000:
// measure 0
0000
0000
0000
0000
,  // measure 1
0000
0000
0000
0000
,  // measure 2
0000
0000
0000
0000
,  // measure 3
0000
0000
0000
0000
,  // measure 4
1000
0100
1000
0100
,  // measure 5
0010
0100
0010
0100
,  // measure 6
0010
0001
0010
0001
,  // measure 7
0100
0001
0100
0001
,  // measure 8
1000
1100
0001
0101
,  // measure 9
1000
1010
0001
0011
,  // measure 10
0100
0110
2002
0000
,  // measure 11
0000
0000
3003
0110
,  // measure 12
1000
0001
0100
0010
,  // measure 13
1000
0001
0100
0010
,  // measure 14
1000
0100
0010
0001
,  // measure 15
1000
0100
0010
0001
,  // measure 16
1000
0010
0100
0010
,  // measure 17
1000
0100
0010
0100
,  // measure 18
0010
0001
0100
0001
,  // measure 19
0010
0001
0100
0010
,  // measure 20
2000
0010
0100
3010
,  // measure 21
0002
0010
0100
0013
,  // measure 22
2000
0010
0001
3100
,  // measure 23
0020
0001
0100
0031
,  // measure 24
1000
0101
0001
1100
,  // measure 25
1000
0011
0100
1010
,  // measure 26
0100
1001
0220
0000
,  // measure 27
0000
0000
0330
1001
,  // measure 28
1000
0100
0001
0100
,  // measure 29
1000
0100
0001
0100
,  // measure 30
1000
0010
0001
0010
,  // measure 31
1000
0010
0001
0010
,  // measure 32
1000
0001
0100
1000
,  // measure 33
0100
0001
0010
1000
,  // measure 34
0010
0001
0100
1000
,  // measure 35
0100
0001
0010
0100
,  // measure 36
0200
0010
1000
1300
,  // measure 37
0020
1000
0100
0130
,  // measure 38
0020
1000
0100
1030
,  // measure 39
0200
1000
0010
1300
,  // measure 40
0002
0000
0203
0000
,  // measure 41
0320
0000
0230
0000
,  // measure 42
0302
0000
2000
0000
,  // measure 43
0000
0000
3003
0110
,  // measure 44
1000
0100
0010
0110
,  // measure 45
0001
0100
0010
0110
,  // measure 46
1000
0001
0100
0101
,  // measure 47
0001
1000
0010
1010
,  // measure 48
0100
0010
0001
0011
,  // measure 49
0001
1000
0100
1100
,  // measure 50
0010
0001
0100
0101
,  // measure 51
1000
0001
0010
0011
,  // measure 52
1000
0100
0010
1001
,  // measure 53
0001
0100
0010
1001
,  // measure 54
0010
1000
0001
0110
,  // measure 55
1000
0001
0010
1001
,  // measure 56
1000
1000
0001
0001
,  // measure 57
0100
0100
0001
0001
,  // measure 58
1000
1000
0220
0000
,  // measure 59
0000
0000
0330
1001
,  // measure 60
1000
0100
0001
0010
,  // measure 61
1000
0100
0001
0010
,  // measure 62
0001
0100
1000
0010
,  // measure 63
0001
0100
1000
0010
,  // measure 64
0100
0001
0010
1000
,  // measure 65
0100
0001
0010
1000
,  // measure 66
0010
0001
0100
1000
,  // measure 67
0100
0001
0010
1000
,  // measure 68
0010
1010
0001
0011
,  // measure 69
1000
1100
0001
0101
,  // measure 70
0100
0110
0010
0110
,  // measure 71
1000
1001
0001
1001
,  // measure 72
2000
0000
3200
0000
,  // measure 73
0320
0000
0032
0000
,  // measure 74
0203
0000
0020
0000
,  // measure 75
0000
0000
0000
0330
,  // measure 76
1001
0000
0000
0000
;
