#TITLE:Willkommen in Meinem Garten;
#SUBTITLE:;
#ARTIST:Blümchen;
#TITLETRANSLIT:;
#SUBTITLETRANSLIT:;
#ARTISTTRANSLIT:;
#GENRE:;
#CREDIT:;
#BANNER:willkommeninmeinengartenbn.png;
#BACKGROUND:willkommeninmeinengartenbg.png;
#LYRICSPATH:;
#CDTITLE:;
#MUSIC:willkommeninmeinemgarten.ogg;
#OFFSET:0.001828;
#SAMPLESTART:67.629372;
#SAMPLELENGTH:11.380000;
#SELECTABLE:YES;
#BPMS:0.000000=168.009995
;
#STOPS:
;
#BGCHANGES:16.000=spiralblooming.mp4=1.000=1=0=1=SongBgWithMovieViz==CrossFade==,
32.000=spiralblooming.mp4=1.000=0=0=1===CrossFade_Fastest==,
64.000=flash=1.600=0=0=1=====,
64.250=rainbowbubble.mp4=1.000=0=0=0=StretchNoLoop====,
96.000=flash=1.600=0=0=1=====,
96.250=cometshootup.mp4=1.000=0=0=0=StretchNoLoop====,
128.000=flash=1.600=0=0=1=====,
128.250=cometshootup.mp4=1.000=0=0=1=====,
160.000=rainbowbubble.mp4=1.000=0=0=0=StretchNoLoop==CrossFade_Fastest==,
188.000=rainbowbubble.mp4=1.000=1=0=1=SongBgWithMovieViz==CrossFade==,
192.000=flash=1.600=0=0=1=====,
192.250=spiralblooming.mp4=1.000=0=0=0=StretchNoLoop====,
224.000=flash=1.600=0=0=1=====,
224.250=spiralblooming.mp4=1.000=0=0=1=====,
264.000=cometshootup.mp4=1.000=0=0=0=StretchNoLoop==CrossFade_Fastest==,
296.000=flash=1.600=0=0=1=====,
296.250=rainbowbubble.mp4=1.000=0=0=0=StretchNoLoop====,
328.000=willkommeninmeinengartenbg.png=1.000=0=0=1===CrossFade_Fastest==,
99999=-nosongbg-=1.000=0=0=0 // don't automatically add -songbackground-
;
#KEYSOUNDS:;
#ATTACKS:;

//---------------dance-single - C. Picardy----------------
#NOTES:
     dance-single:
     :
     Beginner:
     1:
     0.107082,0.170737,0.049972,0.008329,0.000000,90.000000,84.000000,6.000000,1.000000,0.000000,0.000000,0.107082,0.170737,0.049972,0.008329,0.000000,90.000000,84.000000,6.000000,1.000000,0.000000,0.000000:
0000
0000
0000
0000
,
0000
0000
0000
0000
,
0000
0000
0000
0000
,
0000
0000
0000
0000
,
1000
0000
0000
0000
,
0001
0000
0000
0000
,
1000
0000
0000
0000
,
0001
0000
0000
0000
,
0100
0000
0000
0000
,
0010
0000
0000
0000
,
0100
0000
0000
0000
,
0010
0000
0000
0000
,
1000
0000
0000
0000
,
1000
0000
0000
0000
,
0001
0000
0000
0000
,
0001
0000
0000
0000
,
0100
0000
0100
0000
,
0100
0000
0000
0000
,
0010
0000
0010
0000
,
0010
0000
0000
0000
,
1000
0000
0000
0000
,
1000
0000
0000
0000
,
0001
0000
0001
0000
,
0001
0000
0000
0000
,
1001
0000
0000
0000
,
0100
0000
0000
0000
,
0010
0000
0000
0000
,
1000
0000
0000
0000
,
0001
0000
0000
0000
,
0100
0000
0000
0000
,
0010
0000
0000
0000
,
1000
0000
1000
0000
,
1001
0000
0000
0000
,
0010
0000
0000
0000
,
0100
0000
0000
0000
,
0001
0000
0000
0000
,
1000
0000
0000
0000
,
0100
0000
0000
0000
,
0001
0000
0000
0000
,
0010
0000
0000
0000
,
1001
0000
0000
0000
,
0100
0000
0000
0000
,
0010
0000
0000
0000
,
1000
0000
0000
0000
,
0100
0000
0100
0000
,
0100
0000
0000
0000
,
0010
0000
0000
0000
,
0000
0000
0000
0000
,
1001
0000
0000
0000
,
0100
0000
0000
0000
,
0010
0000
0000
0000
,
1000
0000
0000
0000
,
0001
0000
0000
0000
,
0100
0000
0000
0000
,
0010
0000
0000
0000
,
1000
0000
0000
0000
,
1001
0000
0000
0000
,
0010
0000
0000
0000
,
0100
0000
0000
0000
,
0001
0000
0000
0000
,
1000
0000
0000
0000
,
0010
0000
0000
0000
,
0100
0000
0000
0000
,
0001
0000
0000
0000
,
0100
0000
0100
0000
,
0200
0000
0300
0000
,
0010
0000
0000
0000
,
1000
0000
0000
0000
,
0001
0000
0000
0000
,
0100
0000
0000
0000
,
0010
0000
0000
0000
,
0001
0000
0000
0000
,
1000
0000
0000
0000
,
0100
0000
0000
0000
,
1001
0000
0000
0000
,
0001
0000
0000
0000
,
0100
0000
0000
0000
,
1000
0000
0000
0000
,
0010
0000
0000
0000
,
0100
0000
0000
0000
,
0001
0000
0000
0000
,
1000
0000
0000
0000
,
0010
0000
0000
0000
;

//---------------dance-single - C. Picardy----------------
#NOTES:
     dance-single:
     :
     Easy:
     4:
     0.304589,0.443915,0.116601,0.016657,0.000000,256.000000,242.000000,14.000000,2.000000,0.000000,0.000000,0.304589,0.443915,0.116601,0.016657,0.000000,256.000000,242.000000,14.000000,2.000000,0.000000,0.000000:
// measure 0
0000
0000
0000
0000
,  // measure 1
0000
0000
0000
0000
,  // measure 2
0000
0000
0000
0000
,  // measure 3
0000
0000
0000
0000
,  // measure 4
1000
0000
0100
0000
,  // measure 5
0001
0000
0010
0000
,  // measure 6
1000
0000
0100
0000
,  // measure 7
0001
0000
0010
0000
,  // measure 8
1000
1000
1000
0000
,  // measure 9
0001
0100
0001
0000
,  // measure 10
1000
1000
1000
0000
,  // measure 11
0010
0100
0010
0000
,  // measure 12
1000
1000
0100
0000
,  // measure 13
0010
0001
0010
0000
,  // measure 14
0100
0100
1000
0000
,  // measure 15
0001
0010
0100
1000
,  // measure 16
1001
0000
0100
0000
,  // measure 17
0010
0000
1000
0100
,  // measure 18
0010
0000
0001
0000
,  // measure 19
0100
0000
0010
1000
,  // measure 20
1001
0000
0000
0000
,  // measure 21
0110
0000
0000
0000
,  // measure 22
1001
0000
0110
0000
,  // measure 23
1001
0110
1001
0110
,  // measure 24
1000
0100
1000
0010
,  // measure 25
0100
0001
0010
0001
,  // measure 26
0100
0010
0100
0001
,  // measure 27
1000
0100
0010
0100
,  // measure 28
1000
0001
1000
0001
,  // measure 29
0100
0001
0100
0001
,  // measure 30
0010
0100
0010
0100
,  // measure 31
1000
1000
1000
1000
,  // measure 32
0110
0000
0001
0000
,  // measure 33
0100
0000
0010
0010
,  // measure 34
1000
0000
0001
0000
,  // measure 35
1000
0000
0100
0100
,  // measure 36
0010
0000
0001
0000
,  // measure 37
1000
0000
0010
0010
,  // measure 38
0100
0000
0001
0000
,  // measure 39
0010
0000
0100
1000
,  // measure 40
0001
0000
0100
0000
,  // measure 41
0010
0000
1000
0001
,  // measure 42
0100
0000
0010
0000
,  // measure 43
1000
0000
0100
0010
,  // measure 44
0001
0001
0001
0001
,  // measure 45
1000
1000
1000
1000
,  // measure 46
0001
0000
0000
0000
,  // measure 47
0000
0000
0000
0000
,  // measure 48
0100
0010
0100
0000
,  // measure 49
0010
0010
1000
0000
,  // measure 50
0001
0001
1000
0000
,  // measure 51
0100
0000
0010
0010
,  // measure 52
0001
0000
1000
0000
,  // measure 53
0100
0000
0010
0000
,  // measure 54
0100
0100
1000
0001
,  // measure 55
0100
0100
0110
1001
,  // measure 56
1000
0001
0100
0000
,  // measure 57
0010
0010
1000
0000
,  // measure 58
0001
1000
0100
0010
,  // measure 59
0010
0000
0001
0000
,  // measure 60
1000
0010
1000
0010
,  // measure 61
0100
0001
0100
0000
,  // measure 62
0010
1000
0001
1000
,  // measure 63
0100
0010
0001
0001
,  // measure 64
0000
1000
0001
1000
,  // measure 65
2002
0000
0000
3003
,  // measure 66
0010
0100
0010
0100
,  // measure 67
0010
1000
0010
1000
,  // measure 68
0001
1000
0001
1000
,  // measure 69
0100
1000
0100
1000
,  // measure 70
0001
0010
0001
0010
,  // measure 71
0100
1000
0100
1000
,  // measure 72
0010
1000
0010
1000
,  // measure 73
0001
0100
0001
0100
,  // measure 74
0010
1000
0100
1000
,  // measure 75
0001
0100
0001
0010
,  // measure 76
0100
1000
0010
1000
,  // measure 77
0100
0010
0001
0010
,  // measure 78
0100
1000
0001
0010
,  // measure 79
0100
1000
0010
0100
,  // measure 80
0001
0100
0010
1000
,  // measure 81
0100
0010
0001
0100
,  // measure 82
1001
0000
0000
0000
;

//---------------dance-single - C. Picardy----------------
#NOTES:
     dance-single:
     :
     Medium:
     6:
     0.454504,0.546357,0.208215,0.008329,0.000000,382.000000,357.000000,25.000000,1.000000,0.000000,0.000000,0.454504,0.546357,0.208215,0.008329,0.000000,382.000000,357.000000,25.000000,1.000000,0.000000,0.000000:
0000
0000
0000
0000
,
0000
0000
0000
0000
,
0000
0000
0000
0000
,
0000
0000
0000
0000
,
0001
0010
0001
0100
,
0010
0000
0100
0000
0010
0000
1000
0100
,
0010
0100
1000
0001
,
0100
0000
0100
0000
0010
0000
0010
1000
,
0001
0000
0010
0000
0100
0000
0010
0001
,
0010
0000
0100
0000
1000
0000
0100
1000
,
0100
0000
0010
0000
0100
0000
1000
0010
,
1000
0000
0001
0000
0100
0000
0001
0100
,
0001
0000
0001
0000
1000
0000
0010
0100
,
0001
0000
0010
0000
0100
0000
0010
0100
,
1000
0000
0001
0000
0100
0000
0100
0010
,
1000
0000
1000
0000
0001
0000
0001
0100
,
0010
0000
0100
0000
0001
0000
0100
0100
,
0100
0000
0010
0000
1000
0000
0001
1000
,
0100
0000
0010
0000
0001
0000
1000
1000
,
1000
0000
0010
0000
0100
0000
0001
1000
,
0100
0000
0000
0000
1000
0000
0000
0001
,
0001
0000
0000
0000
0100
0000
0000
0010
,
0010
0000
0000
1000
1000
0000
0000
0100
,
0100
0010
0001
0101
,
1100
0010
0100
0001
,
0110
0000
1000
0000
0001
0000
0010
0100
,
1000
0010
1010
0100
,
0001
0000
1000
0000
1100
0000
0010
0001
,
0100
0010
1000
0100
,
1001
0000
0100
0000
0010
0000
1000
0001
,
0100
0010
1000
0100
,
0011
0101
1001
1001
,
0010
0000
0100
0000
1000
0000
0001
0100
,
0001
0000
1000
0000
0001
0000
1000
0100
,
1000
0000
0010
0000
0100
0000
0001
0010
,
0001
0000
1000
0000
0001
0000
1000
0010
,
1000
0000
0001
0000
0100
0000
0010
1000
,
0001
0000
1000
0000
0100
0000
0010
0001
,
1000
0000
0010
0000
0100
0000
0001
0010
,
0100
0000
1000
0000
0100
0000
0010
0100
,
1000
0000
0001
0000
0101
0000
1000
0100
,
0010
0000
0001
0000
0101
0000
1000
0010
,
0100
0000
0001
0000
0110
0000
1000
0001
,
1000
0000
0100
0000
1001
0000
0010
0100
,
0010
0010
1001
0110
,
1100
0000
0101
0000
1001
0000
0010
0100
,
2000
0000
3001
0000
,
0100
0000
0000
0000
0010
0000
0010
1000
,
0001
0000
0000
1000
0000
0100
0000
0000
,
1000
0000
0001
0000
0100
0000
0000
0001
,
1000
0000
0100
0010
0000
0010
0000
0100
,
0000
0000
0000
1000
0100
0010
0000
0001
,
1000
0000
0000
0001
0000
0100
0000
0000
,
0010
0000
1000
0000
0001
0000
0100
0001
,
0010
0000
0010
0100
0000
1000
0000
0001
,
1000
1001
0101
1100
,
1001
0100
0010
1000
,
0001
0000
0100
0000
0010
0000
1000
0001
,
0100
0000
0010
1000
0010
0000
0100
0000
,
0001
0000
1000
0000
0100
0000
0010
0001
,
0100
0100
0010
0010
,
1000
1000
0001
0001
,
1000
0100
0010
0100
,
1000
0000
0001
0000
0010
0000
0100
0010
,
0001
0001
1000
1000
,
1100
0000
0101
0000
1000
0001
0100
0000
,
0010
0100
0010
1000
,
0100
0000
1000
0000
0010
0000
0100
0001
,
0100
0010
1000
0100
,
0010
0000
0100
0000
1000
0000
0001
1000
,
0001
0010
0100
1000
,
0001
0000
0100
0000
1000
0000
0100
0010
,
1000
0100
0001
0100
,
1000
0000
0100
0000
0001
0000
0100
1000
,
0001
0000
0010
0000
0001
0000
0001
0010
,
0001
0000
0100
0000
0010
0000
1000
0010
,
1000
0000
0001
0000
0100
0000
0010
1000
,
0010
0000
0100
0000
0001
0000
1000
0010
,
1000
0000
0001
0000
0100
0000
0010
1000
,
0001
0000
0010
0000
0100
0000
1000
0001
,
0100
0000
0010
0000
1000
0000
0100
1000
,
0010
0000
0100
0000
0001
0000
1000
0001
,
0100
0000
0000
0000
;

//---------------dance-single - ----------------
#NOTES:
     dance-single:
     :
     Hard:
     8:
     0.597281,0.614652,0.216544,0.016657,0.262351,502.000000,476.000000,26.000000,2.000000,0.000000,0.000000,0.597281,0.614652,0.216544,0.016657,0.262351,502.000000,476.000000,26.000000,2.000000,0.000000,0.000000:
0000
0000
0000
0000
,
0000
0000
0000
0000
,
0000
0000
0000
0000
,
0000
0000
0000
0000
,
0001
0000
0010
0000
0100
0000
0010
0001
,
0010
0000
0100
0000
1000
0000
0001
0010
,
0001
0000
0100
0000
0010
0000
1000
0100
,
1000
0000
0001
0000
1000
0000
0100
0010
,
0001
0000
0000
0001
0100
0000
0000
0100
0001
0000
0000
0000
1000
0000
0010
0000
,
0100
0000
0000
0100
0010
0000
0000
0010
0100
0000
0000
0000
0001
0000
0010
0000
,
0100
0000
0000
0100
1000
0000
0000
1000
0100
0000
0000
0000
0010
0000
0100
0000
,
1000
0000
0000
1000
0001
0000
0000
0001
1000
0000
0000
0000
0100
0000
0010
0000
,
0001
0000
0000
0001
0100
0000
0000
0100
0010
0000
0000
0010
0100
0000
0001
0000
,
1000
0000
0000
1000
0100
0000
0000
0100
1000
0000
0000
1000
0010
0000
0100
0000
,
0001
0000
0000
0001
0010
0000
0000
0010
0001
0000
0000
0001
1000
0000
0100
0000
,
0010
0000
0000
0010
0100
0000
0000
0100
0010
0000
0000
0010
0100
0000
1000
0000
,
0001
0000
0001
0100
1000
0000
1000
0100
,
0001
0000
0001
0100
1000
0000
1000
0100
,
0001
0000
1000
0010
0001
0000
0001
0010
,
1000
0000
1000
0010
0001
0000
0001
0010
,
1000
0000
0010
0000
0100
0000
0001
0010
,
0011
0000
1000
0000
0100
0000
0010
0100
,
0110
0000
1001
0000
,
0110
0000
1001
0000
0110
0000
1000
0100
,
0001
0000
0001
0100
1000
0000
1000
0100
,
0010
0000
0010
0100
1000
0100
0010
0001
,
0100
0000
0001
0100
1000
0000
1000
0100
,
0001
0000
0001
0100
1000
0100
0001
0010
,
1000
0000
1000
0010
0001
0000
0001
0010
,
1000
0000
1000
0010
0001
0010
0100
1000
,
0001
0000
0001
0100
0010
0000
0010
1000
,
0100
0100
0110
1001
,
0100
0000
0001
0010
0100
1000
0100
0010
,
0001
0000
1000
0100
0010
0001
0010
0100
,
1000
0000
0100
1000
0100
0010
0001
0010
,
0100
0000
0100
1000
0001
0010
0100
1000
,
0001
0000
1000
0010
0100
0010
1000
0001
,
0100
0000
0001
0100
0010
1000
0010
0100
,
0001
0000
0100
0010
1000
0001
0100
0010
,
1000
0000
0001
0100
0010
1000
0100
0000
,
1001
0000
1000
0100
0001
0100
1000
0100
,
0001
0000
0001
0100
1000
0010
0001
0010
,
1000
0000
1000
0100
0010
0100
0001
0100
,
1000
0000
1000
0100
0001
0100
1000
0000
,
0011
0101
1100
0101
,
1010
1100
0011
0110
,
2001
0000
0000
0000
,
3010
0000
0000
0100
0010
0100
0001
1000
,
0000
0100
0000
0010
0000
0001
0000
1000
,
0000
0000
0010
0000
0100
0000
0000
0100
0000
0000
0001
0000
0100
0000
0010
0000
,
1000
0000
0001
1000
0000
1000
0000
0200
,
0000
0000
0300
0010
0100
1000
0001
0010
,
0000
0100
0000
1000
0000
0001
0000
0100
,
0000
0000
0010
0000
1000
0000
0000
1000
0000
0000
0001
0000
1000
0000
0100
0000
,
0010
0000
0010
0001
0000
1000
0000
0100
,
1100
0000
0110
0000
1001
0000
1000
0100
,
0010
0000
0001
1000
0000
1000
0001
0100
,
0000
0000
0100
0000
0001
0000
0000
0001
0000
0000
1000
0000
0100
0000
0010
0000
,
0001
0000
0100
0010
0000
1000
0000
0001
,
0000
1000
0001
0010
0000
0100
0100
1000
,
0001
0000
1000
0100
0000
0010
0000
0100
,
0000
1000
0000
0001
0000
0100
0000
0000
,
0110
0000
0001
1000
0000
0010
0000
0100
,
0000
0001
0000
1000
0000
0010
0000
0100
,
0010
0010
1000
1000
,
0101
1100
1001
1001
,
0010
0000
0000
0010
0100
0000
0000
0100
0010
0000
0000
0000
0100
0000
0010
0000
,
0001
0000
0000
0001
1000
0000
0000
1000
0001
0000
0000
0000
1000
0000
0010
0000
,
0100
0000
0000
0100
0010
0000
0000
0010
0100
0000
0000
0000
0010
0000
1000
0000
,
0100
0000
0000
0100
0010
0000
0000
0010
0100
0000
0000
0000
1000
0000
0001
0000
,
0100
0000
0000
0001
0100
0000
0000
0001
0100
0000
0000
0000
0010
0000
1000
0000
,
0001
0000
0000
1000
0100
0000
0000
1000
0100
0000
0000
0000
0010
0000
0100
0000
,
1000
0000
0000
0010
0100
0000
0000
0010
0100
0000
0000
0000
0001
0000
0100
0000
,
0010
0000
0000
1000
0010
0000
0000
1000
0010
0000
0000
0000
1000
0000
0010
0000
,
0100
0000
0000
0100
0001
0000
0000
0001
0100
0000
0000
0100
0010
0000
1000
0000
,
0001
0000
0000
0001
0010
0000
0000
0010
0100
0000
0000
0100
1000
0000
0100
0000
,
0010
0000
0000
0010
0100
0000
0000
0100
1000
0000
0000
1000
0001
0000
0100
0000
,
0010
0000
0000
0010
1000
0000
0000
1000
0001
0000
0000
0001
1000
0000
0100
0000
,
0010
0000
0000
0100
0010
0000
0000
0100
1000
0000
0000
0100
0010
0000
0001
0000
,
0100
0000
0000
0100
0010
0000
0000
0100
0001
0000
0000
0100
0010
0000
1000
0000
,
0100
0000
0000
1000
0100
0000
0000
0010
0001
0000
0000
0100
0010
0000
1000
0000
,
0001
0000
0000
0010
0001
0000
0000
1000
0100
0000
0000
0010
0100
0000
1000
0000
,
0100
0000
0000
0000
;

//---------------dance-single - C. Picardy----------------
#NOTES:
     dance-single:
     :
     Challenge:
     11:
     0.997054,0.933221,0.741247,0.066629,0.720425,838.000000,749.000000,89.000000,8.000000,46.000000,1.000000,0.997054,0.933221,0.741247,0.066629,0.720425,838.000000,749.000000,89.000000,8.000000,46.000000,1.000000:
0000
0000
0000
0000
,
0000
0000
0000
0000
,
0000
0000
0000
0000
,
0000
0000
0000
0000
,
1001
0000
1000
0010
1000
0000
1000
0100
1000
0000
1000
0010
1000
0000
0001
0000
,
0100
0000
0100
0001
0100
0000
0100
0010
0100
0000
0100
0001
0100
0000
0110
0000
,
1010
0000
1000
0010
1000
0000
0001
1000
0001
0000
1000
0100
1000
0000
0001
0000
,
1000
0000
0001
0010
0001
0000
1000
0001
1000
0000
0010
1000
0010
0000
1010
0000
,
1001
0000
0001
0100
0001
0000
1000
0100
1000
0000
0001
0010
0001
0000
1000
0010
,
1000
0000
0010
0100
0010
0000
0100
0010
0100
0000
0001
0100
0001
0000
1001
0000
,
1100
0000
0010
0100
0010
0000
0001
0010
0001
0000
0100
0010
0100
0000
0001
1000
,
0001
0000
1000
0100
1000
0000
0001
0010
0001
0000
1000
0010
1000
0000
1001
0000
,
0101
0000
1000
0010
0100
0000
0001
0010
0100
0000
1000
0100
0010
0000
0001
0100
,
0010
0000
1000
0100
0010
0000
0001
0010
0100
0000
0010
0100
1000
0000
1100
0000
,
0101
0000
1000
0100
0010
0000
0001
0100
0010
0000
1000
0010
0100
0000
0001
0010
,
0100
0000
0010
0001
0100
0000
0010
1000
0100
0000
0010
0001
0100
0000
0110
0000
,
2001
0010
0100
0100
0010
0001
0100
3100
,
0002
0010
1000
1000
0100
0010
1003
1001
,
0201
0010
0001
0001
0010
0010
0001
0310
,
0020
1000
0100
0100
1000
0100
1030
1001
,
1001
M00M
1000
0100
0010
0001
0010
0100
,
1001
M00M
1000
0001
0100
0010
1000
0100
,
0110
0MM0
0001
1000
1001
M00M
0100
0010
,
1001
0000
0110
0000
1001
0010
1001
0100
,
1001
0100
0010
1000
1100
0001
0100
0010
,
0110
1000
0001
0100
1010
0100
0001
1100
,
0101
1000
0001
0100
1001
0010
1000
0100
,
1001
0010
0001
0100
0110
1000
0001
0101
,
1100
0010
0100
1000
1001
0100
0010
1000
,
1010
0001
0010
0100
0110
1000
0001
0011
,
1100
0001
0100
0010
0101
1000
0100
0010
,
0011
00MM
1100
MM00
0101
0M0M
1010
M1M0
,
0001
0000
1000
0000
0010
0000
0100
0001
0100
0000
0010
0000
1000
0000
0001
0010
,
0001
0000
1000
0000
0100
0000
0010
0001
0010
0000
0100
0000
1000
0000
1010
0000
,
1001
0000
0100
0000
0010
0000
1000
0010
1000
0000
0100
0000
0010
0000
0001
0010
,
0001
0000
0100
0000
0010
0000
1000
0001
1000
0000
0100
0000
1000
0000
1001
0000
,
0101
0000
0010
0000
1000
0000
0001
0010
0100
0000
0010
0000
0001
0000
1000
0100
,
0010
0000
0100
0000
1000
0000
0001
0100
0010
0000
1000
0000
0001
0000
1001
0000
,
1100
0000
0010
0000
0100
0000
1000
0001
0100
0000
0010
0000
1000
0000
0001
1000
,
0100
0000
0010
0000
0100
0000
0010
0100
1000
0000
0001
0000
0100
0000
0110
0000
,
0101
0000
1000
0000
0010
1000
0010
1000
0010
0000
0100
0000
0001
0010
0001
0010
,
0001
0000
1000
0000
0100
0010
0100
0010
0100
0000
1000
0000
0001
0000
0011
0000
,
0110
0000
1000
0000
0001
0100
0001
0100
0001
0000
1000
0000
0010
0100
0010
0100
,
0010
0000
1000
0000
0001
1000
0001
1000
0001
0000
1000
0000
0100
0000
1001
0000
,
0110
0MM0
1010
M0M0
0011
00MM
1100
MM00
,
0101
0M0M
1100
MM00
0110
0MM0
0010
0100
,
2002
0000
0000
0000
,
0010
0000
3003
1000
0100
0010
0001
0100
,
0110
0000
1000
0000
0001
0000
1000
0100
0000
1000
0010
1000
0100
0000
0010
0000
,
0001
0000
0010
0000
0100
0000
0010
0001
0000
0010
0001
0010
0100
0000
0010
0000
,
0001
0000
0100
0000
0010
0000
1000
0010
0000
1000
0010
1000
0001
0000
1000
0000
,
0100
0000
0010
0000
0001
0000
0010
0100
0000
0010
0100
0010
0001
0000
1000
0000
,
1001
0000
0010
0000
1000
0000
0001
0100
0000
0001
0010
0100
1000
0000
0001
0000
,
0100
0000
0010
0000
1000
0000
0001
0100
0000
0010
1000
0001
0100
0000
0010
0000
,
1000
0000
0100
0000
1000
0000
0010
1000
0000
0001
1000
0100
0010
0000
0001
0000
,
1001
0000
M11M
0000
1MM1
0000
M11M
0100
,
1001
0000
0100
0000
0010
0000
1000
0001
0000
0100
0010
1000
0001
0000
0010
0000
,
0100
0000
1000
0000
0010
0000
0100
0001
0000
1000
0100
0010
0001
0000
0100
0000
,
0010
0000
1000
0000
0001
0000
0010
0100
0000
0001
0100
0010
0001
0000
0100
0000
,
0010
0000
0100
0000
1000
0000
0100
0001
0000
0100
0010
1000
0001
0000
0100
0000
,
1001
0000
0010
0000
0100
0000
1000
0001
0000
0100
0010
1000
0100
0000
0001
0000
,
0100
0000
1000
0000
0010
0000
0001
0010
0000
1000
0010
1000
0001
0000
0100
0000
,
0010
0000
1000
0000
0001
0000
1000
0100
0000
0010
0100
1000
0001
0000
0100
0000
,
0010
1000
0010
1000
0100
1000
0100
1000
0001
1000
0001
1000
0001
0100
0001
0100
,
0010
0000
0110
0MM0
1100
MM00
0101
0M0M
,
1010
0000
M0M0
0000
0110
0000
0MM0
0000
1001
0000
1000
0001
0100
0000
0000
0000
,
1001
0000
0001
1000
0001
0000
0001
1000
0001
0000
0001
1000
0001
0000
0001
1000
,
0001
0000
0001
0100
0001
0000
0001
0100
0001
0000
0001
0100
0001
0000
1000
0000
,
1010
0000
1000
0010
1000
0000
1000
0010
1000
0000
1000
0010
1000
0000
1000
0010
,
1000
0000
1000
0100
1000
0000
1000
0100
1000
0000
1000
0100
1000
0000
1001
0000
,
1001
0000
0001
0100
0001
0000
0100
0001
0100
0000
0001
0100
0001
0000
0100
0001
,
0100
0000
0010
0100
0010
0000
0100
0010
0100
0000
0010
0100
0010
0000
1000
0000
,
1010
0000
1000
0010
1000
0000
0001
1000
0001
0000
1000
0100
1000
0000
0001
1000
,
0001
0000
0100
0001
0100
0000
0001
0010
0001
0000
1000
0100
1000
0000
1001
0000
,
1001
0000
0100
0010
1000
0000
0001
0010
0100
0000
0010
0100
1000
0000
0001
0100
,
0010
0000
1000
0001
0100
0000
0010
1000
0001
0000
0010
0100
1000
0000
0010
0100
,
0001
0000
1000
0001
0100
0000
0010
1000
0001
0000
0010
0001
1000
0000
0100
1000
,
0001
0000
0100
0010
1000
0000
0100
0010
0001
0000
1000
0001
0100
0000
0110
0000
,
1001
0000
1000
0001
0100
0000
0010
1000
0100
0000
0010
0001
0100
0000
0010
1000
,
0100
0000
1000
0010
0100
0000
0001
0100
0010
0000
0100
0001
0010
0000
0100
0010
,
0001
0000
0100
0010
1000
0000
0100
1000
0010
0000
0100
0001
0010
0000
0100
1000
,
0001
0000
0100
0010
1000
0000
0100
0010
0001
0000
1000
0001
0100
0000
0110
0000
,
2002
0000
0000
0000
,
3003
0000
0000
0000
;
