#TITLE:Where Do You Go?;
#SUBTITLE:;
#ARTIST:La Bouche;
#TITLETRANSLIT:;
#SUBTITLETRANSLIT:;
#ARTISTTRANSLIT:;
#GENRE:;
#CREDIT:;
#BANNER:wheredoyougobn.png;
#BACKGROUND:wheredoyougobg.png;
#LYRICSPATH:;
#CDTITLE:;
#MUSIC:wheredoyougo.ogg;
#OFFSET:-0.911721;
#SAMPLESTART:64.040085;
#SAMPLELENGTH:12.000000;
#SELECTABLE:YES;
#BPMS:0.000000=133.020004
;
#STOPS:139.500000=0.903000
;
#BGCHANGES:12.000=glowingsun.mp4=1.000=1=0=1=SongBgWithMovieViz==CrossFade==,
20.000=glowingsun.mp4=1.000=1=1=1=StretchRewind==CrossFade==,
40.000=rainbowsunrays.mp4=1.000=0=1=1=StretchRewind==CrossFade_Fastest==,
104.000=blazingsun.mp4=1.000=0=1=1=StretchRewind==CrossFade_Fastest==,
139.500=wheredoyougobg.png=1.000=0=0=1===CrossFade_Fastest==,
140.000=flash=1.600=0=0=1=====,
140.250=glowingsun.mp4=1.000=0=0=1=====,
180.000=rainbowsunrays.mp4=1.000=0=0=1===CrossFade_Fastest==,
212.000=blazingsun.mp4=1.000=0=0=1===CrossFade_Fastest==,
243.000=flash=1.600=0=0=1=====,
243.250=wheredoyougobg.png=1.000=0=0=1=====,
99999=-nosongbg-=1.000=0=0=0 // don't automatically add -songbackground-
;
#KEYSOUNDS:;
#ATTACKS:;

//---------------dance-single - C. Picardy----------------
#NOTES:
     dance-single:
     :
     Beginner:
     1:
     0.079100,0.108507,0.035723,0.008931,0.000000,62.000000,58.000000,4.000000,1.000000,0.000000,0.000000,0.079100,0.108507,0.035723,0.008931,0.000000,62.000000,58.000000,4.000000,1.000000,0.000000,0.000000:
0000
0000
0000
0000
,
0000
0000
0000
0000
,
0000
0000
0000
0000
,
0000
0000
0000
0000
,
0000
0000
0000
0000
,
0000
0000
0000
0000
,
0010
0000
0000
0000
,
0000
0000
0000
0000
,
0100
0000
0000
0000
,
0000
0000
0000
0000
,
0001
0000
0000
0000
,
0001
0000
0000
0000
,
1000
0000
0000
0000
,
1000
0000
0000
0000
,
0100
0000
0000
0000
,
0100
0000
0000
0000
,
1001
0000
0000
0000
,
0000
0000
0000
0000
,
0100
0000
0000
0000
,
0000
0000
0000
0000
,
0010
0000
0010
0000
,
0010
0000
0000
0000
,
0100
0000
0100
0000
,
0100
0000
0000
0000
,
1000
0000
0000
0000
,
0001
0000
0000
0000
,
1001
0000
0000
0000
,
0100
0000
0000
0000
,
0010
0000
0000
0000
,
1000
0000
1000
0000
,
1000
0000
0000
0000
,
0001
0000
0000
0000
,
0100
0000
0000
0000
,
0010
0000
0000
0000
,
1000
0000
0000
0000
,
0010
0000
0000
0000
,
0100
0000
0000
0000
,
0001
0000
0000
0000
,
1000
0000
0000
0000
,
0100
0000
0000
0000
,
1001
0000
0000
0000
,
0010
0000
0000
0000
,
0100
0000
0000
0000
,
0001
0000
0000
0000
,
1000
0000
0000
0000
,
0010
0000
0010
0000
,
0010
0000
0000
0000
,
0100
0000
0100
0000
,
0100
0000
0000
0000
,
0001
0000
0001
0000
,
0001
0000
0000
0000
,
2000
0000
0000
0000
,
0000
0000
3000
0000
,
0001
0000
0000
0000
,
0100
0000
0000
0000
,
0010
0000
0000
0000
,
1000
0000
0000
0000
,
0100
0000
0100
0000
,
0100
0000
0000
0000
,
0010
0000
0000
0000
,
0100
0000
0000
1001
;

//---------------dance-single - C. Picardy----------------
#NOTES:
     dance-single:
     :
     Challenge:
     9:
     0.598353,0.678171,0.178613,0.419740,0.276850,469.000000,449.000000,20.000000,47.000000,0.000000,10.000000,0.598353,0.678171,0.178613,0.419740,0.276850,469.000000,449.000000,20.000000,47.000000,0.000000,10.000000:
0000
0000
0000
0000
,
0000
0000
0000
0000
,
0000
0000
0000
0000
,
0000
0000
0000
0000
,
0000
0000
0000
0000
,
1000
0100
1000
0000
0100
1000
0100
0000
0010
0100
0010
0000
0100
0010
0100
0000
,
0010
0001
0010
0000
0001
0010
0001
0000
0100
0001
0100
0000
0001
0100
0001
0000
,
1000
0010
0100
0000
0010
1000
0001
0000
1000
0100
0010
0000
0100
1000
0010
0000
,
0100
0001
0010
0000
0001
1000
0010
0000
0100
0010
1000
0000
0001
0100
0010
0000
,
1000
0100
0010
0000
0100
1000
0001
0000
0010
0001
1000
0000
0010
0100
0001
0000
,
1000
0000
0100
0000
0010
0000
0001
0000
0200
0000
0000
0010
0000
0000
1000
0000
,
0301
1000
0100
1000
1010
0000
0100
0001
,
0010
0000
0100
0000
0001
0000
0100
0000
0020
0000
0000
0100
0000
0000
1000
0000
,
0031
1000
0100
0010
0110
0000
0001
0100
,
1000
0000
0100
0000
0010
0000
1000
0000
0200
0000
0000
0001
0000
0000
1000
0000
,
0310
0001
1000
0100
1100
0001
0100
0010
,
1020
0000
0100
0000
0000
0001
0001
0000
,
0000
1000
1000
0000
0000
1000
0130
0000
,
0001
0100
0010
1000
0001
0000
0001
0000
,
1000
0100
0010
0100
1000
0000
1001
0000
,
0100
0020
1000
1030
0200
0010
0310
0001
,
0100
0010
1000
0010
0100
0010
1000
0100
,
0010
0002
0100
0103
2000
0100
3100
1000
,
0100
0001
1000
0100
1000
0010
1000
0001
,
0010
0100
0100
1000
1100
0000
0011
0000
,
0001
0100
0100
0001
0100
0000
1010
0000
,
0100
0010
1000
0100
0002
0000
0103
1000
,
0020
0000
0130
0001
0020
0000
0130
0000
,
1000
0100
0010
0001
0010
0100
0000
0100
,
2000
0000
0200
3000
2000
0300
0200
3000
0020
0300
0002
0030
0020
0003
0002
0030
,
1003
0100
0001
0100
2000
0000
3001
0100
,
2000
0000
3100
0010
2000
0000
3100
0000
,
0010
0100
1000
0001
0100
0010
1000
0100
,
0020
0000
0002
0030
0020
0003
0002
0030
0200
0003
0020
0300
0200
0030
0020
0300
,
2000
0000
0000
0030
0000
0000
0002
0000
0000
3000
0000
0000
0200
0000
0000
0003
0000
0000
0001
0000
0000
1300
0000
0000
0100
0000
0000
0000
0000
0000
0000
0000
0000
0000
0000
0000
2002
0000
0000
0000
0000
0000
0000
3003
0000
0000
0000
0000
,
1000
0000
0001
1000
0001
0000
1000
0001
1000
0000
0100
1000
0100
0000
1000
0100
,
1000
0000
0010
1000
0010
0000
1000
0010
1000
0000
0010
0100
0010
0000
0100
0010
,
0100
0000
0001
0100
0001
0000
0100
0001
0100
0000
0001
0010
0001
0000
0010
0001
,
0010
0000
0100
0010
0100
0000
0010
0100
0010
0000
0100
1000
0100
0000
1000
0100
,
1000
0000
0100
1000
0100
0000
1000
0000
0100
0000
0010
0000
0100
0000
1000
0000
,
0001
0000
0010
0100
1000
0000
0001
0100
0010
0000
1000
0001
0100
0000
0001
1000
,
0100
0000
1000
0100
0010
0000
0100
1000
0001
0000
0100
0010
1000
0000
0001
0010
,
0100
0000
1000
0100
0010
0000
0001
0100
0010
0000
1000
0010
0100
0000
0010
1000
,
0001
0000
0100
0001
0010
0000
0100
0010
0001
0000
1000
0100
0010
0000
0100
0010
,
0001
0000
0100
0010
1000
0000
0001
1000
0100
0000
0010
0000
0001
0000
0010
0000
,
0100
0000
1000
0000
1000
0000
0010
0000
1020
0000
0000
0100
0000
0000
1000
0000
,
1030
0001
0100
0001
0010
0001
1000
0010
,
0100
0000
0001
0000
0001
0000
0010
0000
0021
0000
0000
0100
0000
0000
0001
0000
,
0031
1000
0100
0001
0100
1000
0010
0100
,
0001
0000
1000
0000
1000
0000
0010
0000
0210
0000
0000
1000
0000
0000
0001
0000
,
0310
1000
0100
1000
0010
0100
0001
1000
,
1200
0000
0001
0000
0000
1000
1000
0000
,
0010
0000
1000
0000
0000
0001
0001
0000
,
1300
0002
0200
0000
0010
0010
0303
1000
,
0000
0200
2000
0000
0010
0001
0010
3300
,
0100
2000
0002
0000
0010
0010
3003
0001
,
0000
0200
0002
0000
0010
0010
1000
0303
,
0101
0100
0010
1000
1001
1000
0100
1100
,
1000
0010
0100
0001
0010
0010
0011
0000
,
1100
0100
0010
0100
1000
1000
0001
0101
,
0100
0010
1000
0001
1000
1000
0101
0000
;

//---------------dance-single - C. Picardy----------------
#NOTES:
     dance-single:
     :
     Hard:
     7:
     0.447808,0.461156,0.125029,0.062515,0.125029,351.000000,337.000000,14.000000,7.000000,0.000000,0.000000,0.447808,0.461156,0.125029,0.062515,0.125029,351.000000,337.000000,14.000000,7.000000,0.000000,0.000000:
0000
0000
0000
0000
,
0000
0000
0000
0000
,
0000
0000
0000
0000
,
0000
0000
0000
0000
,
0000
0000
0000
0000
,
1000
0000
0000
0000
0100
0000
0000
0000
1000
0100
0000
0000
1000
0000
0000
0000
,
0010
0000
0000
0000
0100
0000
0000
0000
0010
0100
0000
0000
0010
0000
0000
0000
,
0100
0000
0000
0000
0001
0000
0000
0000
1000
0001
0000
0000
1000
0000
0000
0000
,
0100
0000
0000
0000
0010
0000
0000
0000
0001
0010
0000
0000
0001
0000
0000
0000
,
0100
0000
0001
0000
1000
0100
0010
0001
,
0100
0000
0000
0000
0010
0000
0000
0000
1000
0000
0000
1000
0000
0000
0010
0000
,
0100
0001
0010
0000
1001
0000
0001
0100
,
1000
0000
0000
0000
0100
0000
0000
0000
0001
0000
0000
0001
0000
0000
1000
0000
,
1000
0100
0010
0000
1001
0000
1000
0100
,
0010
0000
0100
0000
1000
0000
0000
0000
0001
0000
0000
1000
0000
0000
0100
0000
,
0010
0100
1000
0000
0101
0000
0001
0100
,
0020
1000
0000
0100
,
0000
0001
0000
1030
,
0001
0001
0100
0000
0010
0000
0010
0000
,
1000
0010
0010
0000
1000
0000
0110
0000
,
1000
0010
1000
0010
0100
0001
0100
0002
,
0000
1003
1000
0100
0010
0000
0100
0000
,
0010
0001
0010
0001
1000
0100
1000
0200
,
0000
0310
0010
0100
1000
0000
0001
0000
,
0100
0010
0010
1000
0100
0000
1001
0000
,
0010
0100
0100
0001
0010
0000
1001
0000
,
0001
0100
1000
0100
0001
0000
0001
0010
,
1000
0000
1000
0010
0001
0000
0100
0000
,
0010
1000
0100
1000
0010
1000
0000
0001
,
1000
0100
1000
0100
0010
0001
0010
0001
,
1000
0100
0001
0100
1000
0000
1000
0010
,
0001
0000
0001
0010
1000
0000
0001
0000
,
0100
0001
0010
0001
0100
0010
0000
1000
,
0001
0100
0001
0100
0010
1000
0010
1000
,
0001
0100
0010
1000
0100
0000
0110
0000
,
0001
0010
0001
0010
0001
0100
0001
0100
,
0010
0100
0010
0100
0010
1000
0010
1000
,
0100
1000
0100
1000
0100
0010
0100
0010
,
0001
0010
0001
0010
0001
1000
0001
1000
,
0010
0100
0010
0100
0010
1000
0100
0000
,
0010
0000
0000
0010
0100
0000
0000
0100
1000
0000
0000
1000
0100
0000
0000
0100
,
0010
0000
0000
0010
0001
0000
0000
0001
0100
0000
0000
0100
0001
0000
0000
0001
,
1000
0000
0000
1000
0001
0000
0000
0001
0010
0000
0000
0010
0100
0000
0000
0100
,
0010
0000
0000
0010
0100
0000
0000
0100
1000
0000
0000
1000
0001
0000
0000
0001
,
0100
0000
0000
0100
0010
0000
0000
0010
0100
0000
0001
0000
0010
0000
0001
0000
,
0100
0000
0010
0000
0010
0000
0000
0000
1002
0000
0000
0100
0000
0000
0010
0000
,
0013
0000
0100
0000
1000
0100
0010
0100
,
1000
0000
0010
0000
0010
0000
0000
0000
2001
0000
0000
0010
0000
0000
0100
0000
,
3100
0000
0010
0000
0100
0001
0010
0001
,
0100
0000
0010
0000
0010
0000
0000
0000
0120
0000
0000
1000
0000
0000
0100
0000
,
0130
0000
0001
0000
1000
0010
0100
0010
,
2000
0010
0000
0001
,
0000
0100
0000
3010
,
0100
0100
0010
0000
0100
0010
0000
0010
,
0000
1000
0001
0000
0100
0100
0100
0000
,
0010
1000
0100
0000
0010
0010
0000
0001
,
0000
0001
0001
0000
0010
0010
0010
0000
,
0001
0010
0100
0000
0100
1000
0000
0110
,
0000
0001
0100
0000
0010
0010
1010
0000
,
0001
0100
1000
0000
0100
0001
0000
0110
,
0000
1000
0001
0000
0010
0010
1001
0000
;

//---------------dance-single - C. Picardy----------------
#NOTES:
     dance-single:
     :
     Medium:
     5:
     0.334261,0.379776,0.133960,0.026792,0.026792,262.000000,247.000000,15.000000,3.000000,0.000000,0.000000,0.334261,0.379776,0.133960,0.026792,0.026792,262.000000,247.000000,15.000000,3.000000,0.000000,0.000000:
0000
0000
0000
0000
,
0000
0000
0000
0000
,
0000
0000
0000
0000
,
0000
0000
0000
0000
,
0000
0000
0000
0000
,
0001
0000
0100
0000
,
0010
0000
1000
0000
,
0001
0000
1000
0000
,
0100
0000
0010
0000
,
0001
0000
1000
1000
,
0010
0000
0000
0000
0100
0000
0000
0000
0001
0000
0000
0001
0000
0000
0001
0000
,
0001
0010
1001
0010
,
1000
0000
0000
0000
0100
0000
0000
0000
0010
0000
0000
0010
0000
0000
0010
0000
,
0010
0000
0001
0000
1001
0000
1000
0100
,
0010
0000
0000
0000
0001
0000
0000
0000
1000
0000
0000
1000
0000
0000
1000
0000
,
1000
0000
0001
0000
0101
0000
1000
0010
,
0200
0001
0000
0010
,
0000
0001
0000
0310
,
1000
0001
0000
0000
1001
0000
0000
0000
,
0100
0010
0000
0000
0110
0000
1001
0000
,
0100
0000
0010
0000
1000
0100
0010
0001
,
0000
1000
0010
0100
,
0001
0000
0100
0000
0001
0010
0100
1000
,
0000
0001
0100
0010
,
1000
0100
0000
0000
1001
0000
0100
0000
,
0010
1000
0000
0000
0101
0000
0010
0000
,
1000
0000
0001
0100
0001
0000
1000
0000
,
0010
0000
1000
0010
1000
0000
0000
0000
,
0001
0000
0100
0000
0010
0010
0000
0000
,
1000
0001
1000
0001
1000
0001
1000
0000
,
0100
0000
0010
0000
0100
0000
1000
0100
,
0010
0000
0010
0100
1000
0000
0000
0000
,
0001
0000
0100
0000
0010
1000
0000
0001
,
2000
0010
0001
0100
,
0100
3010
0100
1001
,
0001
0000
0010
0000
0100
0000
0010
0001
,
0010
0100
1000
0010
,
1000
0000
0100
0000
1000
0100
1000
0000
,
0010
0000
0100
0000
0001
1000
0001
0000
,
1000
0000
0001
0000
0010
0100
1000
0000
,
0001
0000
0100
0000
0010
0000
0100
0010
,
0100
0001
1000
0100
,
1000
0000
0010
0000
0100
0010
1000
0000
,
0100
0000
0010
0000
0001
0010
0100
0000
,
1000
0000
0001
0000
1000
0000
0001
0100
,
0010
0000
0000
0000
1001
0000
0000
0000
0100
0000
0000
0100
0000
0000
0100
0000
,
0010
0000
1000
0000
0001
0000
0001
0100
,
0010
0000
0000
0000
0110
0000
0000
0000
1000
0000
0000
1000
0000
0000
1000
0000
,
0001
0000
0100
0000
0010
0000
1000
0010
,
0100
0000
0000
0000
1010
0000
0000
0000
0001
0000
0000
1000
0000
0000
0001
0000
,
0100
0000
0010
0000
1000
0000
0001
0100
,
0020
1000
0000
0100
,
0000
1000
0000
0130
,
0001
0001
0001
0000
1000
1000
0000
1000
,
0000
0001
0001
0000
0001
1000
1000
0000
,
0100
0100
0100
0000
0010
0010
0000
0010
,
0000
0100
0100
0000
0100
0010
0010
0000
,
0001
0100
0010
0000
0100
0000
1001
0000
,
0010
1000
0100
0000
0010
0001
0010
0000
,
0100
1000
0100
0000
0010
0000
1100
0000
,
0001
0100
0010
0000
1000
1000
1001
0000
;

//---------------dance-single - C. Picardy----------------
#NOTES:
     dance-single:
     :
     Easy:
     3:
     0.238576,0.271268,0.169682,0.241127,0.000000,187.000000,168.000000,19.000000,27.000000,0.000000,0.000000,0.238576,0.271268,0.169682,0.241127,0.000000,187.000000,168.000000,19.000000,27.000000,0.000000,0.000000:
// measure 0
0000
0000
0000
0000
,  // measure 1
0000
0000
0000
0000
,  // measure 2
0000
0000
0000
0000
,  // measure 3
0000
0000
0000
0000
,  // measure 4
0000
0000
0000
0000
,  // measure 5
1000
0000
1000
0000
,  // measure 6
0001
0000
0001
0000
,  // measure 7
0100
0000
0100
0000
,  // measure 8
0010
0000
0010
0000
,  // measure 9
1000
0000
0001
0000
,  // measure 10
1000
0001
0100
0010
,  // measure 11
0110
0000
1001
0000
,  // measure 12
0001
1000
0100
0100
,  // measure 13
1001
0000
0110
0000
,  // measure 14
1000
0001
0100
0010
,  // measure 15
1010
0000
0011
0000
,  // measure 16
2002
0000
0000
0000
,  // measure 17
0000
0000
0000
3003
,  // measure 18
0100
0000
0010
0010
,  // measure 19
1000
0000
0001
0001
,  // measure 20
0100
0010
0100
0010
,  // measure 21
2000
3000
0001
0001
,  // measure 22
1000
0100
1000
0100
,  // measure 23
0020
0030
0001
0001
,  // measure 24
0100
0010
1001
0000
,  // measure 25
1000
0001
0100
0110
,  // measure 26
0001
0001
0001
1000
,  // measure 27
2000
3000
0200
0300
,  // measure 28
0010
0010
0001
0001
,  // measure 29
1000
0100
0010
0001
,  // measure 30
1000
1000
0010
0100
,  // measure 31
0200
0300
0002
0003
,  // measure 32
1000
0001
0100
0010
,  // measure 33
2000
0000
3002
0000
,  // measure 34
0103
0010
1000
1001
,  // measure 35
0100
0010
0100
0010
,  // measure 36
1000
0010
1000
0010
,  // measure 37
1000
0100
1000
0100
,  // measure 38
0010
0100
0010
0100
,  // measure 39
0010
0001
0010
0001
,  // measure 40
2002
3003
0100
0010
,  // measure 41
2000
3000
0001
0100
,  // measure 42
0001
0100
0001
0010
,  // measure 43
0001
0010
0100
1000
,  // measure 44
0100
1000
0010
0100
,  // measure 45
0001
0001
0220
0330
,  // measure 46
2002
3003
0100
0010
,  // measure 47
1000
1000
2200
3300
,  // measure 48
0202
0303
1000
0010
,  // measure 49
0100
0100
0202
0303
,  // measure 50
2020
3030
0001
0100
,  // measure 51
2002
0000
0000
0000
,  // measure 52
0000
0000
0000
3003
,  // measure 53
0100
0000
0010
0000
,  // measure 54
1000
0000
0001
0001
,  // measure 55
0001
0000
0010
0000
,  // measure 56
0100
0000
1000
1000
,  // measure 57
1000
0001
0100
0010
,  // measure 58
1000
0000
0010
0010
,  // measure 59
0010
1000
0001
0100
,  // measure 60
0010
0100
0100
0110
;
