#TITLE:What is Love;
#SUBTITLE:;
#ARTIST:Haddaway;
#TITLETRANSLIT:;
#SUBTITLETRANSLIT:;
#ARTISTTRANSLIT:;
#GENRE:;
#CREDIT:;
#BANNER:whatislovebn.png;
#BACKGROUND:whatislovebg.png;
#LYRICSPATH:;
#CDTITLE:;
#MUSIC:what is love.ogg;
#OFFSET:-0.791000;
#SAMPLESTART:54.275063;
#SAMPLELENGTH:15.000008;
#SELECTABLE:YES;
#BPMS:0.000000=123.870003
;
#STOPS:
;
#BGCHANGES:0.500=whatislovepart1.mp4=1.000=1=0=1===CrossFade==,
108.000=whatislovepart1.mp4=1.000=0=0=1=SongBgWithMovieViz==CrossFade_Fastest==,
110.000=whatislovepart1.mp4=1.000=0=0=1===CrossFade_Fastest==,
144.000=flash=2.000=0=0=1=====,
144.250=whatislovepart1.mp4=1.000=0=0=1=====,
145.000=flash=2.000=0=0=1=====,
145.250=whatislovepart1.mp4=1.000=0=0=1=====,
156.000=whatislovepart1.mp4=1.000=1=0=1=SongBgWithMovieViz==CrossFade==,
157.500=whatislovepart1.mp4=1.000=1=0=1===CrossFade==,
160.000=flash=2.000=0=0=1=====,
160.250=whatislovepart1.mp4=1.000=0=0=1=====,
161.000=flash=2.000=0=0=1=====,
161.250=whatislovepart1.mp4=1.000=0=0=1=====,
172.000=whatislovepart1.mp4=1.000=1=0=1=SongBgWithMovieViz==CrossFade==,
173.500=whatislovepart1.mp4=1.000=1=0=1===CrossFade==,
208.000=whatislovepart2.mp4=0.800=0=0=1===CrossFade_Faster==,
209.000=whatislovepart2.mp4=1.000=0=0=1=====,
239.500=whatislovepart2.mp4=1.000=0=0=1=SongBgWithMovieViz====,
239.750=whatislovepart2.mp4=1.000=0=0=1=====,
240.500=whatislovepart2.mp4=1.000=0=0=1=SongBgWithMovieViz====,
240.750=whatislovepart2.mp4=1.000=0=0=1=====,
241.500=whatislovepart2.mp4=1.000=0=0=1=SongBgWithMovieViz====,
241.750=whatislovepart2.mp4=1.000=0=0=1=====,
242.500=whatislovepart2.mp4=1.000=0=0=1=SongBgWithMovieViz====,
242.750=whatislovepart2.mp4=1.000=0=0=1=====,
243.500=whatislovebg.png=1.000=0=0=1===CrossFade_Fastest==,
99999=-nosongbg-=1.000=0=0=0 // don't automatically add -songbackground-
;
#KEYSOUNDS:;
#ATTACKS:;

//---------------dance-single - C. Picardy----------------
#NOTES:
     dance-single:
     :
     Beginner:
     1:
     0.091750,0.127199,0.050045,0.033364,0.000000,77.000000,71.000000,6.000000,4.000000,0.000000,0.000000,0.091750,0.127199,0.050045,0.033364,0.000000,77.000000,71.000000,6.000000,4.000000,0.000000,0.000000:
0000
0000
0000
0000
,
0000
0000
0000
0000
,
0000
0000
0000
0000
,
0000
0000
0000
0000
,
0000
0000
0000
0000
,
0000
0000
0000
0000
,
0000
0000
0000
0000
,
0000
0000
0000
0000
,
1000
0000
0000
0000
,
0001
0000
0000
0000
,
1000
0000
0000
0000
,
0001
0000
0000
0000
,
1001
0000
0000
0000
,
0100
0000
0000
0000
,
0010
0000
0000
0000
,
0100
0000
0000
0000
,
0010
0000
0010
0000
,
0010
0000
0000
0000
,
0100
0000
0100
0000
,
0100
0000
0000
0000
,
1001
0000
0000
0000
,
0100
0000
0000
0000
,
0001
0000
0000
0000
,
1000
0000
0000
0000
,
0010
0000
0000
0000
,
0100
0000
0000
0000
,
0100
0000
0000
0000
,
0010
0000
0000
0000
,
1001
0000
1000
0000
,
1000
0000
0000
0000
,
0001
0000
0001
0000
,
0001
0000
0000
0000
,
0110
0000
0100
0000
,
0100
0000
0000
0000
,
0010
0000
0010
0000
,
0010
0000
0000
0000
,
0010
0010
0000
0000
,
0001
0000
1000
0000
,
0001
0000
0000
0000
,
0200
0000
0300
0000
,
0100
0100
0000
0000
,
0010
0000
0100
0000
,
0010
0000
0000
0000
,
0020
0000
0030
0000
,
0001
0000
0001
0000
,
0001
0000
0000
0000
,
1000
0000
1000
0000
,
1000
0000
0000
0000
,
0100
0000
0100
0000
,
0100
0000
0000
0000
,
0010
0000
0010
0000
,
0010
0000
0000
0000
,
1001
0000
0001
0000
,
0001
0000
0000
0000
,
1000
0000
1000
0000
,
1000
0000
0000
0000
,
0010
0000
0010
0000
,
0010
0000
0000
0000
,
0100
0000
0100
0000
,
0100
0000
0000
0000
,
2002
0000
0000
0000
,
3003
0000
0000
0000
;

//---------------dance-single - C. Picardy----------------
#NOTES:
     dance-single:
     :
     Easy:
     3:
     0.259760,0.305277,0.141795,0.141795,0.000000,218.000000,201.000000,17.000000,17.000000,0.000000,0.000000,0.259760,0.305277,0.141795,0.141795,0.000000,218.000000,201.000000,17.000000,17.000000,0.000000,0.000000:
0000
0000
0000
0000
,
0000
0000
0000
0000
,
0000
0000
0000
0000
,
0000
0000
0000
0000
,
0001
0000
0001
0000
,
1000
0000
1000
0000
,
0001
0000
1000
0000
,
0010
0000
0100
0000
,
0010
0010
0010
0000
,
1000
1000
1000
0000
,
0001
0001
0001
0000
,
0100
0100
0010
0100
,
1001
1000
0001
0001
,
1000
0100
0010
0010
,
0001
0100
0010
0010
,
1000
0100
0010
1001
,
0110
0100
0010
0100
,
0001
1000
0001
1000
,
0100
1000
0100
1000
,
0001
0100
0001
0100
,
0110
0000
0001
1000
,
2000
3000
0100
0010
,
0020
0030
0001
0010
,
0100
1000
0002
0000
,
2000
3003
0001
0100
,
0020
0030
1000
0100
,
0020
0030
0001
0010
,
0200
0000
0310
0000
,
1001
1000
0001
1000
,
0010
0100
0010
0100
,
0001
0010
0001
0010
,
0100
1000
0100
1000
,
0010
0100
0001
1000
,
0010
0100
0001
1000
,
0100
0010
0001
1000
,
0100
0010
0001
1000
,
0110
0110
1000
0001
,
0200
0010
0010
0310
,
2000
0001
0001
3001
,
2000
0000
0002
3003
,
1100
1100
0001
0100
,
0020
1000
1000
1030
,
0002
0010
0010
0013
,
0200
0000
0020
0330
,
0001
0100
0010
0010
,
1000
0001
0100
0100
,
0010
1000
0001
0001
,
0010
0001
1000
1000
,
0100
0010
0100
0100
,
1000
0001
0100
0100
,
0001
1000
0010
0010
,
1000
0100
0010
0100
,
1001
0100
0001
0010
,
0110
0100
1000
0001
,
0110
1000
0100
0010
,
0011
1000
0010
0100
,
1010
0100
0001
1000
,
0011
1000
0100
0010
,
1100
0001
0100
0010
,
1000
0100
0010
0001
,
2002
0000
0000
0000
,
3003
0000
0000
0000
;

//---------------dance-single - C. Picardy----------------
#NOTES:
     dance-single:
     :
     Medium:
     6:
     0.364617,0.380815,0.191841,0.075068,0.016682,306.000000,283.000000,23.000000,9.000000,0.000000,0.000000,0.364617,0.380815,0.191841,0.075068,0.016682,306.000000,283.000000,23.000000,9.000000,0.000000,0.000000:
0000
0000
0000
0000
,
0000
0000
0000
0000
,
0000
0000
0000
0000
,
0000
0000
0000
0000
,
0001
0000
1000
0000
0001
0001
0000
0001
,
1000
0000
0001
0000
1000
1000
0000
0100
,
0010
0000
0100
0000
0010
0010
0000
0010
,
0100
0000
0010
0000
0100
0100
0000
0000
,
1000
0000
0000
0000
0001
0000
0000
0000
0100
0000
0000
0100
0000
0000
0000
0000
,
0010
0000
0000
0000
0100
0000
0000
0000
0001
0000
0000
0001
0000
0000
0000
0000
,
1000
0000
0000
0000
0100
0000
0000
0000
0010
0000
0000
0010
0000
0000
0000
0000
,
0010
0000
0000
0000
0001
0000
0000
0000
1000
0000
0000
1000
0000
0000
0000
0000
,
1001
0000
0110
0000
1000
0100
0010
0000
,
1100
0000
0001
0000
0010
0100
1000
0000
,
0101
0000
0010
0000
0100
0010
1000
0000
,
0110
0001
1010
0101
,
1000
0100
0010
0000
0010
0100
1000
0000
,
1000
0010
0100
0000
0100
0010
1000
0000
,
0001
0010
0100
0000
0100
0010
0001
0000
,
0001
0100
0010
0000
0010
0100
0001
0000
,
1100
0000
0010
0000
1000
0100
1000
0000
,
0100
0000
0010
0000
0001
0010
0001
0000
,
0100
0000
0010
0000
1000
0010
1000
0000
,
0001
0000
0100
0200
0000
0000
0010
0320
,
0000
0000
1030
0000
0001
0100
0001
0000
,
0010
0000
0100
0000
1000
0010
0100
0000
,
0001
0000
1000
0000
0001
0100
0010
0000
,
2000
0001
3001
0000
,
1001
0000
0100
0000
0010
0100
0010
0000
,
1000
0010
1000
0000
0010
1000
0010
0000
,
1000
0100
1000
0000
0100
1000
0100
0000
,
0010
0100
0010
0000
0001
0010
0001
0000
,
1001
0000
0100
0000
0001
0100
0001
0000
,
1000
0100
1000
0000
0001
0010
0001
0000
,
1000
0010
1000
0000
0100
0010
0100
0000
,
1000
0001
1000
0000
0010
0100
0010
0000
,
0101
0000
1100
0000
0001
0100
0010
0000
,
1000
0100
0010
0001
0000
0001
0000
0000
,
0001
0100
0010
1000
0000
1000
0000
0000
,
0200
0000
0000
0020
0000
0000
0330
0000
,
0011
0000
1010
0000
0001
0100
0010
0000
,
1000
0001
0100
0010
0000
0010
0000
0000
,
1000
0001
0010
0100
0000
0100
0000
0000
,
2000
0000
0000
0002
0000
0000
3003
0000
,
1100
0000
0010
0000
0100
0001
0010
0000
,
0110
0000
1000
0000
0001
0100
0010
0000
,
1010
0000
0100
0000
1000
0010
0100
0000
,
0011
0000
1000
0000
0001
0100
0010
0000
,
1001
0000
0100
0000
0010
1000
0100
0000
,
1001
0000
0010
0000
0001
0100
0010
0000
,
0110
0000
1000
0000
0100
0010
0001
0000
,
0110
0000
0001
0000
1000
0100
0010
0000
,
1001
0000
0100
0000
0010
1000
0010
0000
,
1000
0100
1000
0000
0001
0100
0001
0000
,
1000
0010
1000
0000
0001
0010
0001
0000
,
0100
0010
0100
0000
0001
1000
0001
0000
,
1000
0100
0010
0000
0100
0010
0001
0000
,
0001
0100
0010
0000
0100
0010
1000
0000
,
0001
0100
1000
0000
1000
0100
0001
0000
,
1000
0100
0010
0001
0000
0010
0200
2000
,
0000
0000
0000
0000
0000
0000
0000
3300
;

//---------------dance-single - C. Picardy----------------
#NOTES:
     dance-single:
     :
     Hard:
     8:
     0.488539,0.507753,0.225205,0.041705,0.150136,410.000000,383.000000,27.000000,5.000000,8.000000,0.000000,0.488539,0.507753,0.225205,0.041705,0.150136,410.000000,383.000000,27.000000,5.000000,8.000000,0.000000:
0000
0000
0000
0000
,
0000
0000
0000
0000
,
0000
0000
0000
0000
,
0000
0000
0000
0000
,
1000
0000
0000
0000
0001
0000
0000
1000
0000
0000
1000
0000
0000
0000
0100
0000
,
0010
0000
0000
0000
0001
0000
0000
0100
0000
0000
0100
0000
0000
0000
0010
0000
,
1000
0000
0000
0000
0100
0000
0000
0010
0000
0000
0001
0000
0000
0000
0010
0000
,
0100
0000
0000
0000
1000
0000
0000
0001
0000
0000
0100
0000
0000
0000
0001
0000
,
1000
0000
0000
0000
0110
0000
0000
0000
1000
0000
0000
0001
0000
0000
1000
0000
,
0100
0000
0000
0000
0110
0000
0000
0000
0001
0000
0000
1000
0000
0000
0001
0000
,
0100
0000
0000
0000
1001
0000
0000
0000
0010
0000
0000
0100
0000
0000
1000
0000
,
0010
0000
0000
0000
1001
0000
0000
0000
1000
0000
0000
0001
0000
0000
0100
0000
,
0010
0000
0000
0000
0101
0000
0000
0000
1000
0000
1000
0100
0000
0000
1000
0000
,
0010
0000
0000
0000
1001
0000
0000
0000
0100
0000
0100
0001
0000
0000
0010
0000
,
0100
0000
0000
0000
0011
0000
0000
0000
1000
0000
1000
0010
0000
0000
1000
0000
,
0001
0000
0000
0000
0110
0000
0000
0000
1000
0001
0000
0001
1000
0000
0100
0000
,
0010
0100
1000
0100
0010
0010
0100
0100
,
1000
0010
0100
0010
1000
1000
0001
0001
,
0100
0001
0010
0001
0100
0100
0010
0010
,
1000
0100
0010
0100
1000
1000
0001
0001
,
0100
0000
1010
0000
0001
0100
0010
0100
,
0001
0010
0100
0000
1000
0100
0010
0100
,
1000
0010
0100
0000
0001
0010
0100
1000
,
0100
0010
0001
0002
0000
0000
1003
1000
,
0010
0000
0101
0000
1000
0100
0001
0100
,
1000
0100
0010
0000
0001
0100
1000
0100
,
0001
0100
0010
0000
1000
0100
0001
0100
,
1000
0000
0000
0000
0100
0000
0000
0010
0000
0000
0001
0000
1000
0000
0000
0000
,
0001
0000
0100
0000
0001
0000
0100
0001
0100
0000
0001
0000
0100
0000
0001
0000
,
0100
0000
0010
0000
0100
0000
0010
0100
0010
0000
0100
0000
0010
0000
0100
0000
,
0010
0000
1000
0000
0010
0000
1000
0010
1000
0000
0010
0000
1000
0000
0010
0000
,
1000
0000
0100
0000
1000
0000
0100
1000
0100
0000
1000
0000
0100
0000
1000
0000
,
0001
0000
0010
0000
0100
0000
0010
0001
0010
0000
0100
0000
1000
0000
0001
0000
,
0100
0000
0010
0000
1000
0000
0100
1000
0100
0000
0010
0000
0100
0000
1000
0000
,
0001
0000
0010
0000
0100
0000
1000
0010
1000
0000
0100
0000
0010
0000
0100
0000
,
1000
0000
0001
0000
0100
0000
0010
0100
0010
0000
1000
0000
0100
0000
0000
0000
,
1MM1
0000
M11M
0000
1000
0100
0010
0001
,
0010
0100
1000
0001
0100
0100
0010
0000
,
1000
0010
0100
0001
1000
1000
0100
0000
,
0020
0001
0100
0031
,
M1M1
0000
11MM
0000
0001
0100
0010
1000
,
0010
0100
0001
0010
0100
0100
0110
0000
,
0001
0010
0100
1000
0001
0001
0011
0000
,
1200
0010
0001
1300
,
0110
0000
0000
0000
1001
0000
0000
0000
0100
0000
0100
0001
0000
0000
1000
0000
,
0010
0000
0000
0000
0110
0000
0000
0000
1000
0000
1000
0100
0000
0000
0100
0000
,
0010
0000
0000
0000
0011
0000
0000
0000
0100
0000
0100
0001
0000
0000
1000
0000
,
0010
0000
0000
0000
0101
0000
0000
0000
1000
0000
1000
0001
0000
0000
1000
0000
,
0100
0000
0000
0000
0110
0000
0000
0000
1000
0000
0001
1000
0000
0000
0001
0000
,
0100
0000
0000
0000
1010
0000
0000
0000
0100
0000
0001
1000
0000
0000
0100
0000
,
0010
0000
0000
0000
1001
0000
0000
0000
0010
0000
0100
1000
0000
0000
0001
0000
,
0100
0000
0000
0000
1001
0000
0000
0000
0010
0000
1000
0001
0000
0000
1000
0000
,
0001
0100
1000
0100
0001
0100
1000
0100
,
0001
0010
1000
0010
0001
0010
1000
0010
,
0001
0010
0100
0010
0001
0010
0100
0100
,
1000
0100
0001
0100
1000
0100
0001
0100
,
1000
0000
0010
0000
1000
0000
0010
1000
0010
0000
1000
0000
0100
0000
0010
0000
,
0001
0000
0010
0000
0001
0000
0100
0001
0100
0000
0001
0000
0010
0000
0100
0000
,
1000
0000
0001
0000
0100
0000
0001
0010
0001
0000
1000
0000
0100
0000
0010
0000
,
0100
0000
1000
0000
0001
0100
0000
0010
0000
1000
0001
0000
0100
0000
2002
0000
,
0000
0000
0000
0000
0000
0000
0000
3003
;

//---------------dance-single - C. Picardy----------------
#NOTES:
     dance-single:
     :
     Challenge:
     9:
     0.642250,0.660079,0.542159,0.216864,0.300273,539.000000,474.000000,65.000000,26.000000,10.000000,16.000000,0.642250,0.660079,0.542159,0.216864,0.300273,539.000000,474.000000,65.000000,26.000000,10.000000,16.000000:
// measure 0
0000
0000
0000
0000
,  // measure 1
0000
0000
0000
0000
,  // measure 2
0000
0000
0000
0000
,  // measure 3
0000
0000
0000
0000
,  // measure 4
1000
0100
1000
0100
0001
0100
0001
0100
,  // measure 5
1000
0010
1000
0010
0001
0010
0001
0010
,  // measure 6
1000
0010
0001
1000
0100
0001
1000
0100
,  // measure 7
0001
1000
0010
0001
1000
0100
0001
0100
,  // measure 8
2000
0000
0000
0000
0200
0000
0000
0000
0010
0000
0000
0001
3300
0000
1000
0000
,  // measure 9
0002
0000
0000
0000
0200
0000
0000
0000
0010
0000
0000
1000
0303
0000
0010
0000
,  // measure 10
2000
0000
0000
0000
0002
0000
0000
0000
0010
0000
0000
0010
3003
0000
0001
0000
,  // measure 11
0200
0000
0000
0000
0020
0000
0000
0000
1000
0000
0000
1000
0330
0000
0001
0000
,  // measure 12
1010
0000
1000
0000
0100
0000
0010
0001
0100
0000
0010
0000
0110
0000
1000
0000
,  // measure 13
0001
0000
1000
0000
1100
0000
0100
0010
0001
0000
0100
0000
0110
0000
1000
0000
,  // measure 14
0001
0000
0010
0000
0011
0000
1000
0100
0010
0000
0001
0000
0101
0000
1000
0000
,  // measure 15
0100
0000
1000
0000
1001
0000
0010
0100
1000
0000
0001
0000
2002
0000
0000
3003
,  // measure 16
1000
0000
0100
0000
1100
0000
0100
0010
0001
0000
0011
0000
001M
0000
0011
0000
,  // measure 17
0100
0000
0010
0000
0110
0000
1000
0010
0100
0000
0101
0000
0M01
0000
0101
0000
,  // measure 18
1000
0000
0010
0000
0110
0000
0010
1000
0100
0000
1100
0000
1M00
0000
1100
0000
,  // measure 19
0010
0000
0001
0000
1001
0000
1000
0001
0100
0000
0010
0000
1000
0000
0100
0000
,  // measure 20
2002
0000
0000
0000
0010
0000
3003
0000
1000
0000
0001
0000
0100
0000
0010
0100
,  // measure 21
0001
0000
1000
0000
0100
0000
0010
0100
1000
0000
0001
0000
0100
0000
0010
0100
,  // measure 22
0001
0000
0010
0000
0100
0000
1000
0100
0010
0000
0001
0000
1000
0000
0100
1000
,  // measure 23
0020
0000
0100
0230
0000
0000
0001
0301
,  // measure 24
0110
0000
1000
0000
0001
0000
1000
0100
0010
0000
0001
0000
1000
0000
0010
0100
,  // measure 25
0001
0000
1000
0000
0100
0000
1000
0001
0100
0000
0001
0000
1000
0000
0010
1000
,  // measure 26
0001
0000
0010
0000
0100
0000
1000
0001
0010
0000
0100
0000
1000
0000
0002
0000
,  // measure 27
0200
0000
0000
0000
0010
0000
0000
1000
0303
0000
0001
0000
0010
0000
0100
0000
,  // measure 28
0110
0000
0100
0000
1000
0000
0001
0100
0010
0000
0110
0000
01M0
0000
0110
0000
,  // measure 29
1000
0000
0100
0000
1001
0000
1000
0010
0100
0000
0101
0000
0M01
0000
0101
0000
,  // measure 30
1000
0000
0010
0000
0110
0000
1000
0001
0010
0000
0011
0000
00M1
0000
0011
0000
,  // measure 31
1000
0000
0010
0000
1010
0000
0010
1000
0001
0000
1001
0000
100M
0000
1001
0000
,  // measure 32
0010
0000
0100
0000
1100
0000
1000
0001
0100
0000
0101
0000
0M01
0000
0011
0000
,  // measure 33
1000
0000
0010
0000
0110
0000
1000
0001
0010
0000
0011
0000
10M0
0000
1100
0000
,  // measure 34
0001
0000
0100
0000
0110
0000
1000
0001
0010
0000
0110
0000
1M00
0000
1100
0000
,  // measure 35
0001
0000
1000
0000
1001
0000
1000
0100
0010
0000
0001
0000
0010
0000
0100
0000
,  // measure 36
2200
0000
0000
0000
0011
0000
3300
0000
1000
0000
0100
0000
1000
0000
0001
0010
,  // measure 37
0001
0000
1000
0000
0001
0000
1000
0010
1000
0000
0001
0000
1000
0000
0100
0010
,  // measure 38
0100
0000
1000
0000
0001
0000
0100
0010
0100
0000
0001
0000
1000
0000
0100
0000
,  // measure 39
0220
0000
0000
0001
0330
1000
0001
0100
,  // measure 40
0202
0000
0000
0000
1010
0000
0303
0000
0001
0000
0100
0000
0010
0000
1000
0100
,  // measure 41
0010
0000
0100
0000
1000
0000
0001
0100
0010
0000
1000
0000
1001
0000
0000
0000
,  // measure 42
0010
0000
0100
0000
1000
0000
0100
0010
0001
0000
0100
0000
0110
0000
0000
0000
,  // measure 43
2002
0000
0000
0010
3003
0001
0100
0010
,  // measure 44
0100
0000
0001
0000
1001
0000
1000
0100
0010
0000
0100
1000
0000
0000
0001
0000
,  // measure 45
0100
0000
0010
0000
1010
0000
1000
0001
0100
0000
0001
0010
0000
0000
0100
0000
,  // measure 46
1000
0000
0010
0000
0110
0000
1000
0001
0100
0000
0001
1000
0000
0000
0100
0000
,  // measure 47
0010
0000
0001
0000
1001
0000
0010
0001
1000
0000
0001
0100
0000
0000
0001
0000
,  // measure 48
1001
0000
1000
0000
1001
0000
1000
0100
1000
0000
0001
0100
0000
0000
0010
0000
,  // measure 49
1010
0000
1000
0000
1001
0000
1000
0001
0100
0000
0001
1000
0000
0000
0100
0000
,  // measure 50
0110
0000
0010
0000
0011
0000
1000
0100
0010
0000
0100
0010
0000
0000
0100
0000
,  // measure 51
1100
0000
0001
0000
0101
0000
1000
0001
0100
0000
0010
1000
0000
0001
0100
0000
,  // measure 52
1001
0000
0100
0000
1000
0000
0001
0100
1000
0000
0100
0000
0001
0000
1000
0100
,  // measure 53
0001
0000
0100
0000
1000
0000
0001
0010
1000
0000
0010
0000
0001
0000
1000
0010
,  // measure 54
0001
0000
0010
0000
1000
0000
0001
0100
1000
0000
0100
0000
0001
0000
0010
0100
,  // measure 55
1000
0000
0001
0000
0100
0000
0010
0100
0001
0000
1000
0000
0100
0000
0010
0001
,  // measure 56
0100
0000
1000
0000
0100
0000
0001
0010
0100
0000
1000
0000
0100
0000
0001
0100
,  // measure 57
1000
0000
0010
0000
0001
0000
0010
1000
0100
0000
0010
0000
1000
0000
0010
0001
,  // measure 58
1000
0000
0010
0000
0001
0000
0010
1000
0100
0000
0010
0000
0001
0000
0010
0000
,  // measure 59
0100
0000
1000
0000
0001
0100
0000
0010
0000
1000
0001
0100
0010
0000
0220
0000
,  // measure 60
0000
0000
0000
1001
0000
0000
0000
0330
;
