#TITLE:We Wanna Have It All;
#SUBTITLE:;
#ARTIST:Honey Hime;
#TITLETRANSLIT:;
#SUBTITLETRANSLIT:;
#ARTISTTRANSLIT:;
#GENRE:;
#CREDIT:;
#BANNER:wewannahaveitallbn.png;
#BACKGROUND:wewannahaveitallbg.png;
#LYRICSPATH:;
#CDTITLE:;
#MUSIC:wewannahaveitall.ogg;
#OFFSET:0.010378;
#SAMPLESTART:74.598816;
#SAMPLELENGTH:12.620005;
#SELECTABLE:YES;
#BPMS:0.000000=153.000000
;
#STOPS:
;
#BGCHANGES:16.000=blueneontoroid.mp4=1.000=1=0=1=SongBgWithMovieViz==CrossFade==,
30.000=wewannahaveitallbg.png=1.000=0=0=1===CrossFade_Fastest==,
32.000=flash=2.000=0=0=1====#0000FF=,
32.250=blueneontoroid.mp4=1.000=0=1=1=StretchRewind====,
64.000=flash=2.000=0=0=1====#0000FF=,
64.250=blueneontoroid.mp4=1.000=0=0=1=Checkerboard1File2x2====,
72.000=flash=2.000=0=0=1====#FF00FF=,
72.250=blueneontoroid.mp4=1.000=0=0=1=Checkerboard1File2x2====,
80.000=flash=2.000=0=0=1====#FF00FF=,
80.250=blueneontoroid.mp4=1.000=0=0=1=SongBgWithMovieViz====,
87.500=flash=3.000=0=0=1====#0000FF=,
87.750=blueneontoroid.mp4=1.000=0=0=1=SongBgWithMovieViz====,
88.500=flash=3.000=0=0=1====#0000FF=,
88.750=blueneontoroid.mp4=1.000=0=0=1=SongBgWithMovieViz====,
89.500=flash=3.000=0=0=1====#0000FF=,
89.750=blueneontoroid.mp4=1.000=0=0=1=SongBgWithMovieViz====,
90.500=flash=3.000=0=0=1====#0000FF=,
90.750=blueneontoroid.mp4=1.000=0=0=1=SongBgWithMovieViz====,
91.500=flash=1.000=0=0=1====#0000FF=,
91.750=wewannahaveitallbg.png=1.000=1=0=1===CrossFade==,
96.000=netstreaks.mp4=1.000=0=1=1=StretchRewind==CrossFade_Fastest==,
112.000=netstreaks.mp4=1.000=0=0=1=Checkerboard1File2x2====,
120.000=netstreaks.mp4=1.000=1=0=1===CrossFade==,
124.000=wewannahaveitallbg.png=1.000=0=0=1=====,
124.250=netstreaks.mp4=1.000=0=0=1=====,
124.500=wewannahaveitallbg.png=1.000=0=0=1=====,
124.750=netstreaks.mp4=1.000=0=0=1=====,
125.000=wewannahaveitallbg.png=1.000=0=0=1=====,
125.250=netstreaks.mp4=1.000=0=0=1=====,
125.500=wewannahaveitallbg.png=1.000=0=0=1=====,
125.750=netstreaks.mp4=1.000=0=0=1=====,
126.000=wewannahaveitallbg.png=1.000=0=0=1=====,
126.250=netstreaks.mp4=1.000=0=0=1=====,
126.500=wewannahaveitallbg.png=1.000=0=0=1=====,
126.750=netstreaks.mp4=1.000=0=0=1=====,
127.000=wewannahaveitallbg.png=1.000=0=0=1=====,
127.250=netstreaks.mp4=1.000=0=0=1=====,
127.500=wewannahaveitallbg.png=1.000=0=0=1=====,
127.750=netstreaks.mp4=1.000=0=0=1=====,
128.000=blueneontoroid.mp4=1.000=0=0=1===SlideUp=#00FF00=,
142.500=flash=3.000=0=0=1====#00FF00=,
142.750=blueneontoroid.mp4=1.000=0=0=1====#00FF00=,
143.000=flash=3.000=0=0=1====#00FF00=,
143.250=blueneontoroid.mp4=1.000=0=0=1====#00FF00=,
144.000=blueneontoroid.mp4=1.000=0=0=1===CrossFade_Faster=#FF00FF=,
158.500=flash=3.000=0=0=1====#FF00FF=,
158.750=blueneontoroid.mp4=1.000=0=0=1====#FF00FF=,
159.000=flash=3.000=0=0=1====#FF00FF=,
159.250=blueneontoroid.mp4=1.000=0=0=1====#FF00FF=,
160.000=netstreaks.mp4=1.000=1=0=1===CrossFade==,
183.500=flash=3.000=0=0=1=====,
183.750=netstreaks.mp4=1.000=0=0=1=====,
184.500=flash=3.000=0=0=1=====,
184.750=netstreaks.mp4=1.000=0=0=1=====,
185.500=flash=3.000=0=0=1=====,
185.750=netstreaks.mp4=1.000=0=0=1=====,
186.500=flash=3.000=0=0=1=====,
186.750=netstreaks.mp4=1.000=0=0=1=====,
187.500=flash=3.000=0=0=1=====,
187.750=wewannahaveitallbg.png=1.000=1=0=1===CrossFade==,
192.000=blueneontoroid.mp4=1.000=0=0=1===CrossFade_Fastest=#FFFF00=,
194.500=flash=3.000=0=0=1====#FFFF00=,
194.750=blueneontoroid.mp4=1.000=0=0=1====#FFFF00=,
195.000=flash=3.000=0=0=1====#FFFF00=,
195.250=blueneontoroid.mp4=1.000=0=0=1====#FFFF00=,
198.500=flash=3.000=0=0=1====#FFFF00=,
198.750=blueneontoroid.mp4=1.000=0=0=1====#FFFF00=,
199.000=flash=3.000=0=0=1====#FFFF00=,
199.250=blueneontoroid.mp4=1.000=0=0=1====#FFFF00=,
208.000=blueneontoroid.mp4=1.000=0=0=1===CrossFade_Fastest=#FF0000=,
210.500=flash=3.000=0=0=1====#FF0000=,
210.750=blueneontoroid.mp4=1.000=0=0=1====#FF0000=,
211.000=flash=3.000=0=0=1====#FF0000=,
211.250=blueneontoroid.mp4=1.000=0=0=1====#FF0000=,
214.500=flash=3.000=0=0=1====#FF0000=,
214.750=blueneontoroid.mp4=1.000=0=0=1====#FF0000=,
215.000=flash=3.000=0=0=1====#FF0000=,
215.250=blueneontoroid.mp4=1.000=0=0=1====#FF0000=,
216.000=blueneontoroid.mp4=1.000=0=0=1=====,
217.000=blueneontoroid.mp4=1.000=0=0=1=Checkerboard1File2x2====,
218.000=blueneontoroid.mp4=1.000=0=0=1=Checkerboard1File2x2===#00FF00=,
218.500=blueneontoroid.mp4=1.000=0=0=1=Checkerboard1File2x2===#0000FF=,
219.000=blueneontoroid.mp4=1.000=0=0=1=====,
220.000=blueneontoroid.mp4=1.000=0=0=1====#FF0000=,
220.250=blueneontoroid.mp4=1.000=0=0=1====#00FF00=,
220.500=blueneontoroid.mp4=1.000=0=0=1====#0000FF=,
220.750=blueneontoroid.mp4=1.000=0=0=1====#FFFF00=,
221.000=blueneontoroid.mp4=1.000=0=0=1====#00FFFF=,
221.250=blueneontoroid.mp4=1.000=0=0=1====#FF00FF=,
221.500=blueneontoroid.mp4=1.000=0=0=1=====,
221.750=blueneontoroid.mp4=1.000=0=0=1====#FF0000=,
222.000=blueneontoroid.mp4=1.000=0=0=1====#00FF00=,
222.250=blueneontoroid.mp4=1.000=0=0=1====#0000FF=,
222.500=blueneontoroid.mp4=1.000=0=0=1====#FFFF00=,
222.750=blueneontoroid.mp4=1.000=0=0=1====#00FFFF=,
223.000=blueneontoroid.mp4=1.000=0=0=1====#FF00FF=,
223.250=blueneontoroid.mp4=1.000=0=0=1=====,
223.500=blueneontoroid.mp4=1.000=0=0=1====#FF0000=,
223.750=blueneontoroid.mp4=1.000=0=0=1====#00FF00=,
224.000=netstreaks.mp4=1.000=0=0=1===CrossFade_Fastest==,
226.500=flash=3.000=0=0=1====#FFFF00=,
226.750=netstreaks.mp4=1.000=0=0=1=====,
227.000=flash=3.000=0=0=1====#FFFF00=,
227.250=netstreaks.mp4=1.000=0=0=1=====,
230.500=flash=3.000=0=0=1====#FFFF00=,
230.750=netstreaks.mp4=1.000=0=0=1=====,
231.000=flash=3.000=0=0=1====#FFFF00=,
231.250=netstreaks.mp4=1.000=0=0=1=====,
240.000=netstreaks.mp4=1.000=0=0=1===CrossFade_Fastest=#FF00FF=,
242.500=flash=3.000=0=0=1====#FF00FF=,
242.750=netstreaks.mp4=1.000=0=0=1====#FF00FF=,
243.000=flash=3.000=0=0=1====#FF00FF=,
243.250=netstreaks.mp4=1.000=0=0=1====#FF00FF=,
246.500=flash=3.000=0=0=1====#FF00FF=,
246.750=netstreaks.mp4=1.000=0=0=1====#FF00FF=,
247.000=flash=3.000=0=0=1====#FF00FF=,
247.250=netstreaks.mp4=1.000=0=0=1====#FF00FF=,
248.000=netstreaks.mp4=1.000=1=0=1===CrossFade==,
252.000=blueneontoroid.mp4=1.000=0=0=1=====,
252.250=netstreaks.mp4=1.000=0=0=1=====,
252.500=blueneontoroid.mp4=1.000=0=0=1=====,
252.750=netstreaks.mp4=1.000=0=0=1=====,
253.000=blueneontoroid.mp4=1.000=0=0=1=====,
253.250=netstreaks.mp4=1.000=0=0=1=====,
253.500=blueneontoroid.mp4=1.000=0=0=1=====,
253.750=netstreaks.mp4=1.000=0=0=1=====,
254.000=blueneontoroid.mp4=1.000=0=0=1=====,
254.250=netstreaks.mp4=1.000=0=0=1=====,
254.500=blueneontoroid.mp4=1.000=0=0=1=====,
254.750=netstreaks.mp4=1.000=0=0=1=====,
255.000=blueneontoroid.mp4=1.000=0=0=1=====,
255.250=netstreaks.mp4=1.000=0=0=1=====,
255.500=blueneontoroid.mp4=1.000=0=0=1=====,
255.750=netstreaks.mp4=1.000=0=0=1=====,
256.000=flash=3.000=0=0=1=====,
256.250=blueneontoroid.mp4=1.000=0=0=1=====,
272.000=netstreaks.mp4=1.000=0=0=1===CrossFade_Fastest==,
284.000=wewannahaveitallbg.png=1.000=1=0=1===CrossFade==,
99999=-nosongbg-=1.000=0=0=0 // don't automatically add -songbackground-
;
#KEYSOUNDS:;
#ATTACKS:;

//---------------dance-single - C. Picardy----------------
#NOTES:
     dance-single:
     :
     Beginner:
     1:
     0.103776,0.158354,0.088590,0.044295,0.000000,82.000000,72.000000,10.000000,5.000000,0.000000,0.000000,0.103776,0.158354,0.088590,0.044295,0.000000,82.000000,72.000000,10.000000,5.000000,0.000000,0.000000:
0000
0000
0000
0000
,
0000
0000
0000
0000
,
0000
0000
0000
0000
,
0000
0000
0000
0000
,
0000
0000
0000
0000
,
0000
0000
0000
0000
,
0000
0000
0000
0000
,
0000
0000
0000
0000
,
1001
0000
0000
0000
,
0100
0000
0000
0000
,
0010
0000
0000
0000
,
1000
0000
0000
0000
,
0001
0000
0000
0000
,
1000
0000
0000
0000
,
0001
0000
0000
0000
,
0100
0000
0000
0000
,
1001
0000
0000
0000
,
0000
0000
0000
0000
,
1001
0000
0000
0000
,
0000
0000
0000
0000
,
1001
0000
0000
0000
,
0010
0000
0000
0000
,
0000
0000
0000
0000
,
2002
0000
3003
0000
,
0010
0000
0010
0000
,
0010
0000
0000
0000
,
0100
0000
0100
0000
,
0100
0000
0000
0000
,
0001
0000
0001
0000
,
0001
0000
0000
0000
,
1000
0000
1000
0000
,
1000
0000
0000
0000
,
0110
0000
0000
0000
,
0100
0000
0000
0000
,
0001
0000
0000
0000
,
1000
0000
0000
0000
,
0010
0000
0000
0000
,
1000
0000
0000
0000
,
0001
0000
0000
0000
,
0100
0000
0000
0000
,
0110
0000
0000
0000
,
0010
0000
0000
0000
,
0100
0000
0000
0000
,
0010
0000
0000
0000
,
0001
0000
0000
0000
,
1000
0000
0000
0000
,
0110
0000
0000
0000
,
0220
0000
0330
0000
,
1000
0000
1000
0000
,
1000
0000
0000
0000
,
0001
0000
0001
0000
,
0001
0000
0000
0000
,
1000
0000
1000
0000
,
1000
0000
0000
0000
,
0001
0000
0001
0000
,
0001
0000
0000
0000
,
0100
0000
0100
0000
,
0100
0000
0000
0000
,
0010
0000
0010
0000
,
0010
0000
0000
0000
,
0100
0000
0100
0000
,
0100
0000
0000
0000
,
0010
0000
0000
0000
,
1001
0000
0000
0000
,
1000
0000
0000
0000
,
0001
0000
0000
0000
,
1000
0000
0000
0000
,
0001
0000
0000
0000
,
0100
0000
0000
0000
,
0010
0000
0000
0000
,
0100
0000
0000
0000
,
0020
0000
0030
0000
;

//---------------dance-single - C. Picardy----------------
#NOTES:
     dance-single:
     :
     Challenge:
     10:
     0.756809,0.986944,0.690999,0.522679,0.473955,598.000000,520.000000,78.000000,59.000000,74.000000,25.000000,0.756809,0.986944,0.690999,0.522679,0.473955,598.000000,520.000000,78.000000,59.000000,74.000000,25.000000:
0000
0000
0000
0000
,
0000
0000
0000
0000
,
0000
0000
0000
0000
,
0000
0000
0000
0000
,
0020
0000
1030
0100
0010
0010
0001
0100
,
0010
0010
1000
0100
0010
0100
1000
0010
,
0200
0000
0301
0010
0100
0100
1000
0010
,
M400
0004
0000
0000
00M0
0000
0000
0000
M000
0000
0000
0000
00M0
0000
0303
0000
,
1010
1000
0100
1000
0010
0100
0101
0100
,
0010
1000
1100
0100
0010
0002
0010
0100
,
0013
0100
1001
0100
0010
0001
0011
1000
,
0010
0100
0110
0010
1000
0200
0010
1000
,
0310
0001
0101
1000
0100
1000
1010
0001
,
0010
0100
0110
0100
1000
0020
0100
1000
,
0130
0001
1001
1000
0100
0010
1001
0100
,
4M00
0004
0000
0000
00M0
0000
0000
0000
0M00
0000
0000
0000
00M0
0000
3003
0000
,
1001
2000
0000
0200
0000
0020
0000
0002
,
0030
0020
0003
0002
0033
0022
3333
0000
,
1001
0002
0000
0200
0000
0020
0000
2000
,
0030
0020
3000
2000
3030
2020
3333
0000
,
0120
0200
0000
1000
0330
0001
0002
2000
,
0000
0010
0000
0010
3003
1000
0100
1001
,
0000
1100
0000
0101
0000
1010
0000
0011
,
M040
0400
0000
0000
000M
0000
0000
0000
M000
0000
0000
0000
000M
0000
0330
0000
,
1000
0001
1000
0001
1000
0100
1000
0100
1000
0000
1100
0000
0001
0100
0001
0000
,
1000
0010
1000
0010
0000
0100
0001
0100
0010
0000
0110
0000
1000
0010
1000
0000
,
0001
0010
0001
0010
0000
0100
1000
0100
1000
0001
1000
0000
0010
1000
0010
0000
,
0100
0001
0100
0001
0010
0100
1000
0001
0100
0001
0100
0001
1000
0100
0010
0000
,
0001
0010
0001
0010
0100
1000
0100
1000
0100
0000
1001
0000
1000
0001
0100
0000
,
0010
1000
0010
1000
0000
0001
0010
0001
0010
0000
0110
0000
1000
0001
0010
0000
,
0100
1000
0100
1000
0000
0001
0010
0100
1000
0100
1000
0000
0001
0010
0100
1000
,
0001
0100
0001
0100
0010
0100
0010
0100
0010
1000
0010
1000
0001
1000
0001
1000
,
0100
0010
0100
0001
0100
1000
0010
0100
,
0010
1000
0001
0100
1000
0100
0010
0100
,
0010
1000
0100
0001
0100
1000
0010
0100
,
0001
0010
0100
1000
0001
M1M1
M1M1
0000
,
1010
1000
0100
1000
0010
0100
1000
0100
,
0001
0010
0100
0010
0001
0010
0100
1000
,
0100
0001
0100
1000
0010
0100
0010
1000
,
0001
0100
0010
1000
0100
1MM1
1MM1
0000
,
0102
0000
0200
0000
0003
0000
0020
0000
0000
0330
2020
0000
0000
0030
0200
0000
,
0000
3000
0002
0000
0000
0303
0202
0000
0000
0003
0020
0000
0000
0000
0000
0330
,
0012
0000
0020
0000
0003
0000
2000
0000
0000
3030
2020
0000
0030
0000
0002
0000
,
0000
3000
0200
0000
0003
0000
2000
0000
0000
0300
0020
0000
0000
0000
0000
3030
,
0210
0000
0020
0000
0000
0300
1000
0000
0000
0000
0001
0000
0001
0000
0002
0030
,
0000
0000
0023
0000
0000
0030
2010
0000
0000
0000
3100
0000
0010
0000
0011
0000
,
0000
1010
0000
0101
0000
1100
0000
2MM2
,
0000
0MM0
0000
0MM0
3003
0001
0010
0100
,
1000
0010
0000
1001
0000
11MM
11MM
0100
,
0010
0001
0000
0101
0000
1M1M
1M1M
0100
,
0002
0000
0200
0000
0010
0000
1000
1000
,
0000
0010
0000
1000
0000
1313
0000
0000
,
1MM1
1MM1
0000
1100
0000
MM11
MM11
0010
,
0100
1000
0000
0101
0000
M11M
M11M
1000
,
0002
0000
2003
0000
0100
3100
0010
0100
,
40M0
0400
0000
0000
000M
0000
0000
0000
00M0
0000
0000
0000
000M
0000
3300
0000
,
MM11
MM11
0000
0101
0000
11MM
11MM
0010
,
0100
1000
0000
0011
0000
M1M1
M1M1
1000
,
0200
0000
2000
0000
0001
0000
0010
0010
,
0000
0001
0000
0010
0000
3311
0000
0000
,
11MM
1MM1
0000
0101
0000
MM11
M11M
0100
,
1000
0001
0000
0110
0000
1M1M
MM11
0010
,
0200
0000
0320
0000
0001
0031
0010
0100
,
1000
0001
0100
0010
0100
0001
1000
0100
0010
0100
1000
0010
0100
0010
1000
0001
,
0010
0100
1000
0100
0010
0001
0010
0100
1000
0000
1001
0000
0001
0100
0010
0000
,
1000
0001
0100
0010
0000
0100
0010
1000
0001
0000
1100
0000
0010
0001
1000
0000
,
0010
0100
0001
1000
0000
0001
0010
0100
1000
0001
0100
0000
0010
1000
0001
0000
,
1000
0001
0100
0010
1000
0100
0010
0100
0010
0001
1000
0010
0100
0010
1000
0000
,
0001
0100
0010
1000
0010
0100
0001
0100
0010
0000
1001
0000
1000
0100
0010
0000
,
0001
0010
0100
1000
0000
1000
0100
0010
0001
0000
0101
0000
1000
0001
0100
0000
,
0010
1000
0001
1000
0000
0100
0010
0001
0010
0100
1000
0000
0001
0100
0010
1000
,
0001
0010
0001
0010
0100
0010
0100
0010
0100
1000
0100
1000
0001
1000
0001
0000
;

//---------------dance-single - C. Picardy----------------
#NOTES:
     dance-single:
     :
     Hard:
     8:
     0.564443,0.635631,0.363218,0.274628,0.132884,446.000000,405.000000,41.000000,31.000000,2.000000,0.000000,0.564443,0.635631,0.363218,0.274628,0.132884,446.000000,405.000000,41.000000,31.000000,2.000000,0.000000:
0000
0000
0000
0000
,
0000
0000
0000
0000
,
0000
0000
0000
0000
,
0000
0000
0000
0000
,
2000
0000
3001
0100
0002
0000
1003
0100
,
2000
0000
3001
0100
0002
0000
1003
0100
,
0020
0000
0031
0010
0200
0000
0310
0001
,
4000
0040
0000
3030
,
0001
0100
1000
0100
0001
0100
1000
0100
,
0001
0100
1000
0100
0001
0100
1000
0100
,
0101
0000
1000
0100
0001
0100
1000
0100
,
0001
0100
1000
0100
0001
0100
1000
0010
,
0110
0000
1000
0010
0100
0010
1000
0010
,
0100
0010
1000
0010
0100
0010
1000
0100
,
0011
0000
0001
0010
0100
0010
0001
0010
,
0400
4000
0000
3300
,
1001
2000
0000
0100
0000
0010
0000
3002
,
0000
0010
0000
1000
0000
0013
0000
0000
,
1010
0020
0000
0100
0000
0001
0000
0230
,
0000
0010
0000
1000
0000
0310
0000
0000
,
1001
0002
0000
2003
0000
3100
0020
0001
,
0000
0001
0000
0031
0000
1000
0100
1100
,
0000
0101
0000
1100
0000
0011
0000
2002
,
0000
0000
0000
3003
,
1000
0000
0100
0010
0000
0000
0100
0000
1000
0000
1000
0000
0001
0000
0100
0000
,
0010
0000
0010
1000
0000
0000
0001
0000
1000
0000
1000
0000
0100
0000
0010
0000
,
0001
0000
0010
0001
0000
0000
1000
0000
0100
1000
0000
0000
0001
0100
0000
0000
,
0001
0000
0001
0010
0000
0000
0100
0000
1000
0000
1000
0000
0001
0000
0001
0000
,
0100
0000
0010
0100
0000
0000
0010
0000
1000
0000
1000
0000
0100
0000
0010
0000
,
0100
0000
1000
0100
0000
0000
0010
0000
0001
0000
0001
0000
1000
0000
0010
0000
,
1000
0000
0001
0100
0000
0000
0010
0000
1000
0100
0000
0000
0001
0100
0000
0000
,
1000
0001
1000
0001
1000
0000
0000
0000
0100
0010
0100
0010
0100
0000
0000
0000
,
1001
0000
0100
0000
0010
1000
0100
0010
,
0000
0001
0010
0100
0000
0100
0000
1000
,
0010
1000
0001
0000
0010
0001
1000
0000
,
0010
1000
0100
0000
1000
1001
1001
0000
,
0110
0000
1000
0000
0001
0100
1000
0000
,
1000
0100
0001
0000
1000
0100
0010
0100
,
1000
0010
0100
0000
0001
0010
0100
0000
,
1000
0100
0010
0001
0000
0110
0110
0000
,
1100
2000
0000
3002
0000
2003
0000
3020
,
0000
0230
0000
0320
0000
1000
1030
0000
,
0101
0002
0000
0023
0000
0230
0000
2300
,
0000
3002
0000
0023
0000
0100
0130
0000
,
1000
1100
0000
0011
0000
1000
0100
0001
,
0000
1100
0000
0101
0000
0100
0010
0110
,
0000
1010
0000
0011
0000
1100
0000
0202
,
0000
0000
0000
0000
0303
0001
0100
0010
,
0100
0001
0000
1100
0000
0010
0010
0100
,
1000
0010
0000
1001
0000
0100
0100
0010
,
1000
0000
0001
0000
1000
0000
0200
0010
,
0000
0310
0000
0001
0000
1000
1001
0000
,
0001
0100
0000
1001
0000
0010
0010
0100
,
1000
0010
0000
1001
0000
0100
0100
0010
,
0100
0000
1010
0000
0100
0100
0010
0200
,
4000
0000
0000
0000
3300
1000
0100
0010
,
0100
1000
0000
0101
0000
0010
1000
0100
,
1000
0010
0000
0101
0000
1000
1000
0100
,
0010
0000
1100
0000
0101
0000
0100
0010
,
0000
0110
0000
1000
0000
1001
0000
0000
,
0001
0001
0100
0010
0000
0100
0100
0010
,
1000
1000
0010
1000
0000
0001
0001
0010
,
0100
0000
0011
0000
1000
0100
1000
0100
,
0040
0000
0004
0000
0000
0000
0033
00MM
,
1000
0000
0100
1000
0000
0100
1000
0000
0100
0000
0100
0000
1000
0000
0001
0000
,
0100
0000
0001
0100
0000
0001
0100
0000
0010
0000
0010
0000
1000
0000
0100
0000
,
0010
0000
0010
0100
0000
0100
1000
0000
0001
0100
0000
0000
0010
0000
1000
0000
,
0001
0000
0001
1000
0000
1000
0100
0000
0010
0000
0010
0000
0001
0000
0001
0000
,
1000
0000
0010
1000
0000
0010
0100
0000
0010
0000
1000
0000
0100
0000
0010
0000
,
0001
0000
0010
0100
0000
0010
0001
0000
1000
0000
0100
0000
0010
0000
0100
0000
,
1000
0000
0001
0100
0000
0100
0010
0000
1000
0000
0001
0000
1000
0000
0100
0000
,
0040
0400
0000
0330
;

//---------------dance-single - C. Picardy----------------
#NOTES:
     dance-single:
     :
     Medium:
     6:
     0.435355,0.476723,0.230333,0.115167,0.000000,344.000000,318.000000,26.000000,13.000000,0.000000,0.000000,0.435355,0.476723,0.230333,0.115167,0.000000,344.000000,318.000000,26.000000,13.000000,0.000000,0.000000:
0000
0000
0000
0000
,
0000
0000
0000
0000
,
0000
0000
0000
0000
,
0000
0000
0000
0000
,
0200
0000
0000
0010
0310
0000
0000
1000
,
1000
0000
0000
0100
0100
0000
0010
0000
,
0020
0000
0000
0001
0031
0000
0100
0000
,
1004
0000
0000
0003
,
0110
0000
1000
0100
0001
0000
0001
0100
,
1000
0000
1000
0100
0001
0100
1000
0001
,
0100
0000
0100
0010
1000
0000
1000
0001
,
0100
0000
0100
0010
1000
0100
0001
0100
,
0010
0000
0010
0001
0100
0000
0100
0001
,
0010
0000
0010
0100
1000
0100
1000
0010
,
0100
0000
0001
0100
1000
0000
1000
0100
,
0004
0000
0000
0003
,
1000
1000
0000
0001
0000
1000
0000
0100
,
0000
0010
0000
0100
0000
0100
0000
0000
,
0001
0001
0000
0010
0000
0100
0000
1000
,
0000
0001
0000
1000
0000
1000
0000
0000
,
0010
0010
0000
0010
0000
1000
1000
1000
,
0000
0001
0000
1000
0000
0100
0100
0100
,
0000
0011
0000
0100
0000
1010
0000
2002
,
0000
0000
0000
3003
,
0010
1000
0100
0000
1000
1000
0010
0000
,
0100
0001
0010
0000
0001
0001
0100
0000
,
0010
1000
0000
0001
1000
0001
0000
1000
,
0200
0000
0010
0000
1000
1000
1300
0000
,
0001
0100
0010
0000
0100
0100
0001
0000
,
0010
0100
1000
0000
0010
0010
1000
0000
,
0001
0100
0000
0100
0001
0000
1000
0000
,
0400
0000
0000
0300
,
0011
0000
1000
0000
0001
0100
0001
0000
,
1000
0000
0100
0000
0010
0100
0010
0000
,
0002
0010
0100
0013
,
2000
0000
0010
0000
0001
0001
3001
0000
,
1010
0000
0100
0000
0001
0010
0001
0000
,
1000
0000
0100
0000
1000
0010
1000
0000
,
0020
1000
0100
1030
,
0200
0000
0001
0000
0010
0010
0310
0000
,
1000
0100
0000
1000
0000
1100
0000
0001
,
0000
0101
0000
0100
0000
0010
1000
0000
,
0001
0010
0000
0100
0000
0110
0000
0010
,
0000
0110
0000
1000
0000
0001
0100
0000
,
0010
0100
0000
1001
0000
0100
0010
0200
,
0000
0010
0000
0310
0000
1000
0100
0010
,
0000
0011
0000
1000
0000
1010
0000
0220
,
0000
0000
0000
0330
,
0010
0000
0001
0000
0010
0001
0001
0000
,
1000
0000
0100
0000
1000
0100
0100
0000
,
1000
1010
0100
0101
,
1000
0100
0001
0000
0001
0100
1000
0000
,
0010
0000
0100
0000
0010
1000
1000
0000
,
0100
0000
0010
0000
0001
0010
0010
0000
,
1100
0000
0101
0000
1000
0001
1000
0100
,
0040
0000
0000
0030
,
0100
0100
0000
1100
0000
0001
0001
0100
,
0001
0100
0000
0101
0000
0010
0100
0000
,
1010
0100
0011
1000
,
0110
0000
0100
0000
0010
0100
1000
0000
,
0001
1000
0000
0100
0000
1000
0100
0000
,
0010
0001
0000
0010
0000
0001
0010
0000
,
1100
0000
0101
0000
0001
0001
0100
0010
,
4000
0000
0000
3000
,
0001
0100
0001
0000
1000
1000
0100
0000
,
1000
0010
1000
0000
0001
0001
0010
0000
,
0100
0010
0000
0010
0100
0000
1000
1000
,
0002
0000
0010
0000
0100
0100
0103
0000
,
0010
1000
0100
0000
0010
0010
0100
0000
,
1000
0100
0001
0000
0100
0100
1000
0000
,
0010
0100
0000
0100
0010
0000
1000
0001
,
4000
0000
0000
3000
;

//---------------dance-single - C. Picardy----------------
#NOTES:
     dance-single:
     :
     Easy:
     4:
     0.302470,0.411720,0.248051,0.248051,0.000000,239.000000,211.000000,28.000000,28.000000,0.000000,0.000000,0.302470,0.411720,0.248051,0.248051,0.000000,239.000000,211.000000,28.000000,28.000000,0.000000,0.000000:
// measure 0
0000
0000
0000
0000
,  // measure 1
0000
0000
0000
0000
,  // measure 2
0000
0000
0000
0000
,  // measure 3
0000
0000
0000
0000
,  // measure 4
0000
0001
0000
0001
,  // measure 5
0000
1000
0000
0001
,  // measure 6
0000
0100
0000
0010
,  // measure 7
0020
0000
0000
0030
,  // measure 8
1001
1000
0001
1000
,  // measure 9
0100
0010
0100
0010
,  // measure 10
0001
0010
0100
1000
,  // measure 11
0001
0010
0100
1000
,  // measure 12
0010
0100
0001
1000
,  // measure 13
0010
0100
0001
1000
,  // measure 14
0100
0010
0001
0100
,  // measure 15
2002
0000
0000
3003
,  // measure 16
0110
0000
1000
0000
,  // measure 17
1000
0000
1000
0000
,  // measure 18
0011
0000
0100
0000
,  // measure 19
0100
0000
0100
0000
,  // measure 20
1100
0000
0001
0000
,  // measure 21
0010
0000
0000
0000
0001
0000
0000
0100
,  // measure 22
0000
0100
0000
0100
0000
0100
0000
0200
,  // measure 23
0000
0000
0000
0300
,  // measure 24
0001
1000
0100
0100
,  // measure 25
0010
0100
1000
1000
,  // measure 26
0001
0100
0001
1000
,  // measure 27
0010
0100
0001
1000
,  // measure 28
0100
0010
0001
0001
,  // measure 29
0010
0100
0010
0010
,  // measure 30
0001
0100
0010
1000
,  // measure 31
0220
0000
0000
0330
,  // measure 32
1001
0000
1000
1000
,  // measure 33
1000
0000
0001
0100
,  // measure 34
0010
0010
0100
0100
,  // measure 35
0002
0000
0003
1001
,  // measure 36
1001
0000
0100
0010
,  // measure 37
0100
0000
0001
1000
,  // measure 38
0010
0010
0100
0100
,  // measure 39
0020
0000
0030
0110
,  // measure 40
0120
0000
2030
0000
,  // measure 41
3002
0000
1003
1000
,  // measure 42
0200
0000
0320
0000
,  // measure 43
0032
0000
0103
0100
,  // measure 44
0020
0000
0230
0000
,  // measure 45
0302
0000
0000
0000
2003
0000
0000
3010
,  // measure 46
0000
0010
0000
0010
0000
0010
0000
2002
,  // measure 47
0000
0000
0000
3003
,  // measure 48
0010
0100
0010
1001
,  // measure 49
1000
0100
0010
1001
,  // measure 50
0010
0010
0100
0100
,  // measure 51
1000
0100
0001
0100
,  // measure 52
1000
0010
0100
0011
,  // measure 53
1000
0100
1000
0101
,  // measure 54
0001
0100
1000
0100
,  // measure 55
2020
0000
0000
3030
,  // measure 56
0100
0010
0011
0101
,  // measure 57
0010
1000
1100
0101
,  // measure 58
0010
1000
0001
1000
,  // measure 59
0100
0100
0220
0330
,  // measure 60
0001
0100
1010
0011
,  // measure 61
1000
0100
1001
0110
,  // measure 62
1000
0100
0010
0001
,  // measure 63
2200
0000
0000
3300
,  // measure 64
0001
1000
0001
1000
,  // measure 65
0100
0010
0100
0010
,  // measure 66
0001
0100
0001
0100
,  // measure 67
0010
1000
0100
1000
,  // measure 68
0001
0100
1000
0100
,  // measure 69
0001
0010
1000
0010
,  // measure 70
0001
0010
0100
1000
,  // measure 71
0202
0000
0303
0000
;
