#TITLE:Velfarre 2000;
#SUBTITLE:;
#ARTIST:Bazooka Girl;
#TITLETRANSLIT:;
#SUBTITLETRANSLIT:;
#ARTISTTRANSLIT:;
#GENRE:;
#CREDIT:;
#BANNER:velfarre2000bn.png;
#BACKGROUND:velfarre2000bg.png;
#LYRICSPATH:;
#CDTITLE:;
#MUSIC:velfarre2000.ogg;
#OFFSET:0.048380;
#SAMPLESTART:68.401733;
#SAMPLELENGTH:12.000000;
#SELECTABLE:YES;
#BPMS:0.000000=161.309998
;
#STOPS:
;
#BGCHANGES:16.000=crazyloop.mp4=1.000=0=0=0=StretchNoLoop==CrossFade_Fastest==,
48.000=flash=1.600=0=0=1=====,
48.250=danceparticles.mp4=1.000=0=0=0=StretchNoLoop===#FFFFFF80=,
88.000=flash=1.600=0=0=1=====,
88.250=crazyloop.mp4=1.000=0=0=0=StretchNoLoop====,
120.000=shininglines.mp4=1.000=0=0=0=StretchNoLoop==CrossFade_Fastest==,
184.000=danceparticles.mp4=1.000=0=0=0=StretchNoLoop==CrossFade_Fastest=#808080=,
212.000=danceparticles.mp4=1.000=1=0=1=SongBgWithMovieViz==CrossFade==,
216.000=danceparticles.mp4=1.000=0=0=0=StretchNoLoop==CrossFade_Fastest=#808080=,
256.000=flash=1.600=0=0=1=====,
256.250=crazyloop.mp4=1.000=0=0=0=StretchNoLoop====,
288.000=flash=1.000=0=0=1=====,
288.250=velfarre2000bg.png=1.000=0=0=1=====,
99999=-nosongbg-=1.000=0=0=0 // don't automatically add -songbackground-
;
#KEYSOUNDS:;
#ATTACKS:;

//---------------dance-single - C. Picardy----------------
#NOTES:
     dance-single:
     :
     Beginner:
     1:
     0.109901,0.162912,0.072405,0.000000,0.000000,85.000000,77.000000,8.000000,0.000000,0.000000,0.000000,0.109901,0.162912,0.072405,0.000000,0.000000,85.000000,77.000000,8.000000,0.000000,0.000000,0.000000:
0000
0000
0000
0000
,
0000
0000
0000
0000
,
0000
0000
0000
0000
,
0000
0000
0000
0000
,
0000
0000
0000
0000
,
0000
0000
0000
0000
,
0000
0000
0000
0000
,
0000
0000
0000
0000
,
1000
0000
0000
0000
,
0001
0000
0000
0000
,
1000
0000
0000
0000
,
0001
0000
0000
0000
,
1001
0000
0000
0000
,
0100
0000
0000
0000
,
0110
0000
0000
0000
,
0010
0000
0000
0000
,
1001
0000
0000
0000
,
0100
0000
0000
0000
,
0010
0000
0000
0000
,
0001
0000
0000
0000
,
1000
0000
1000
0000
,
1000
0000
0000
0000
,
0001
0000
0001
0000
,
0001
0000
0000
0000
,
1000
0000
1000
0000
,
1000
0000
0000
0000
,
0100
0000
0100
0000
,
0100
0000
0000
0000
,
0010
0000
0010
0000
,
0010
0000
0000
0000
,
0001
0000
0000
0000
,
1000
0000
0000
0000
,
0100
0000
0000
0000
,
0010
0000
0000
0000
,
0001
0000
0000
0000
,
1000
0000
0000
0000
,
0010
0000
0000
0000
,
0010
0000
0000
0000
,
0110
0000
0000
0000
,
0010
0000
0000
0000
,
1000
0000
0000
0000
,
0100
0000
0000
0000
,
1001
0000
0000
0000
,
1000
0000
0000
0000
,
0100
0000
0000
0000
,
0010
0000
0000
0000
,
1001
0000
0000
0000
,
0100
0000
0100
0000
,
0100
0000
0000
0000
,
0010
0000
0010
0000
,
0010
0000
0000
0000
,
1000
0000
1000
0000
,
1000
0000
0000
0000
,
0001
0000
0000
0000
,
0001
0000
0001
0000
,
0001
0000
0000
0000
,
1000
0000
1000
0000
,
1000
0000
0000
0000
,
0010
0000
0010
0000
,
0010
0000
0000
0000
,
0100
0000
0000
0000
,
0010
0000
0000
0000
,
1001
0000
0000
0000
,
0010
0000
0000
0000
,
1001
0000
0000
0000
,
0100
0000
0000
0000
,
0010
0000
0000
0000
,
1000
0000
0000
0000
,
0001
0000
0000
0000
,
0100
0000
0000
0000
,
0010
0000
0000
0000
,
1000
0000
1000
0000
,
1000
0000
0000
0000
;

//---------------dance-single - C. Picardy----------------
#NOTES:
     dance-single:
     :
     Easy:
     4:
     0.319360,0.325824,0.153861,0.253419,0.000000,247.000000,230.000000,17.000000,28.000000,0.000000,0.000000,0.319360,0.325824,0.153861,0.253419,0.000000,247.000000,230.000000,17.000000,28.000000,0.000000,0.000000:
// measure 0
0000
0000
0000
0000
,  // measure 1
0000
0000
0000
0000
,  // measure 2
0000
0000
0000
0000
,  // measure 3
0000
0000
0000
0000
,  // measure 4
0010
0100
0010
0100
,  // measure 5
1000
0001
1000
0001
,  // measure 6
0100
0001
0100
0001
,  // measure 7
0100
0010
0100
0010
,  // measure 8
1000
0100
0001
0100
,  // measure 9
1000
0100
0001
0100
,  // measure 10
1000
0001
0010
0100
,  // measure 11
1000
0010
2002
3003
,  // measure 12
0100
0010
0010
1000
,  // measure 13
0001
0001
0100
0010
,  // measure 14
0000
1000
1000
0001
,  // measure 15
0100
0001
0010
0010
,  // measure 16
0100
1000
0001
0100
,  // measure 17
0010
0010
1000
0001
,  // measure 18
0110
0000
1001
0000
,  // measure 19
1000
0001
0100
0010
,  // measure 20
2002
0000
0000
0000
,  // measure 21
3003
0000
0000
0000
,  // measure 22
0001
0100
0010
1000
,  // measure 23
0001
0010
0100
1000
,  // measure 24
0001
1000
0100
0010
,  // measure 25
0001
1000
0010
0100
,  // measure 26
1001
0100
0010
1000
,  // measure 27
0001
0100
0010
1000
,  // measure 28
0100
0010
0100
1000
,  // measure 29
0010
0100
0220
0330
,  // measure 30
0001
1000
0001
1000
,  // measure 31
0010
0100
0001
1000
,  // measure 32
0100
0100
0020
0030
,  // measure 33
0001
0001
1000
0010
,  // measure 34
0100
0100
0010
0010
,  // measure 35
1000
0001
0100
0010
,  // measure 36
1000
0001
1000
1000
,  // measure 37
0001
0100
0010
1000
,  // measure 38
2002
3003
0220
0330
,  // measure 39
0000
0001
0100
0010
,  // measure 40
2020
3030
0022
0033
,  // measure 41
0000
0100
0010
0001
,  // measure 42
2200
3300
0202
0303
,  // measure 43
0000
1000
0010
0100
,  // measure 44
0001
0001
0001
0001
,  // measure 45
2000
0000
0000
3000
,  // measure 46
1001
0001
1000
0001
,  // measure 47
0100
0100
0010
1000
,  // measure 48
0000
0001
1000
0100
,  // measure 49
0010
0000
0001
0001
,  // measure 50
1001
0100
0010
1000
,  // measure 51
0100
0100
0010
0000
,  // measure 52
2000
3000
0002
0003
,  // measure 53
0200
0300
0020
0030
,  // measure 54
0110
0100
0001
1000
,  // measure 55
0100
0100
0010
0001
,  // measure 56
0000
1000
0010
0100
,  // measure 57
0001
0001
1000
0010
,  // measure 58
1000
0100
0100
0010
,  // measure 59
0001
0001
1000
0000
,  // measure 60
0200
0300
0020
0030
,  // measure 61
0001
1000
0010
0100
,  // measure 62
2002
0000
0000
0000
,  // measure 63
3003
0000
0000
0000
,  // measure 64
0001
0010
0100
1000
,  // measure 65
0001
0100
0010
1000
,  // measure 66
0100
0010
0001
0100
,  // measure 67
0010
1000
0100
1000
,  // measure 68
0010
0100
0001
0100
,  // measure 69
1000
0100
0001
0010
,  // measure 70
0100
0010
0001
0100
,  // measure 71
0010
1000
0100
0010
,  // measure 72
1001
0000
0000
0000
;

//---------------dance-single - C. Picardy----------------
#NOTES:
     dance-single:
     :
     Medium:
     6:
     0.416331,0.426513,0.181013,0.126709,0.000000,322.000000,302.000000,20.000000,14.000000,0.000000,0.000000,0.416331,0.426513,0.181013,0.126709,0.000000,322.000000,302.000000,20.000000,14.000000,0.000000,0.000000:
0000
0000
0000
0000
,
0000
0000
0000
0000
,
0000
0000
0000
0000
,
0000
0000
0000
0000
,
0001
0000
0100
0000
0010
0000
0100
0001
,
0100
0010
1000
0100
,
0010
0000
0100
0000
1000
0000
0100
0010
,
0100
1000
0010
0100
,
0001
0000
1000
0000
0100
0000
0010
0100
,
0010
0000
0001
0000
1000
0000
0010
0100
,
0010
0000
1000
0000
0100
0000
0010
0001
,
0010
0100
2200
3300
,
0101
0100
0010
1000
,
0001
0000
1000
0000
0001
0100
0001
0000
,
1000
0100
0010
0100
,
1000
0001
1000
0000
0010
0000
0010
0000
,
0100
0000
0001
0000
0010
0100
0010
0000
,
0001
0001
1000
0010
,
0200
0001
0001
0310
,
1000
0001
0100
0000
0010
0000
1000
0000
,
0001
0001
0000
1000
0000
0001
0000
0100
,
0020
0000
0030
0000
,
0001
0000
1000
0000
0010
0100
0010
0000
,
1000
0000
0001
0000
0010
0100
0010
0000
,
0001
0000
0100
0000
0010
1000
0010
0000
,
2000
0010
0001
3100
,
0010
0000
0100
0000
0010
0001
0100
0000
,
0010
0000
1000
0000
0010
1000
0100
0000
,
0020
0001
0100
0031
,
0100
0010
1000
0000
0001
0000
1001
0000
,
0100
0000
0010
0000
0100
0010
0100
0000
,
0001
0000
1000
0000
0001
1000
0001
0000
,
1000
0000
1000
0000
1000
2000
0000
3000
,
0001
0100
0001
0010
,
1100
0000
1000
0100
0010
0000
0010
0000
,
0001
0000
0100
0000
0010
1000
0001
0000
,
0020
0000
0130
0000
1000
1000
0100
0000
,
0010
0000
0001
0000
0100
0000
0001
0100
,
0010
0101
1000
1100
,
0010
0000
0100
0000
0001
1000
0100
0000
,
0010
0011
1000
1010
,
0001
0000
1000
0000
0010
0010
0100
0000
,
0010
0101
1000
0011
,
1000
0000
0100
0000
0010
0100
1000
0000
,
0001
0001
1001
1001
,
0100
0010
0000
1000
0000
0001
1000
0000
,
0110
0100
0010
1000
,
0100
0010
0000
0010
0000
0010
0000
0000
,
0001
0100
0010
1000
,
0001
1000
0000
0010
0000
0010
0000
0010
,
0000
0100
0010
1000
,
0001
0100
0000
0100
0000
0100
0000
0000
,
0001
0000
1000
0001
0000
0000
0100
0000
,
0010
0000
0000
1000
0000
0001
0000
1000
,
0100
0000
0010
0000
0001
0010
0001
0000
,
1000
1000
1010
0101
,
1000
0000
0010
0000
0100
0010
1000
0000
,
0001
0010
1100
0110
,
1100
0000
0010
0000
0100
0001
1000
0000
,
0010
0100
0001
0010
,
1000
2000
0000
0002
0000
0000
3003
0000
,
0010
0100
0000
0001
0000
1000
0001
0000
,
0100
0010
0000
1000
0000
0001
0000
2002
,
0000
0000
3003
0000
,
0001
0000
1000
0000
0010
0000
0100
0010
,
0100
0000
0001
0000
1000
0000
0100
0010
,
0100
0000
1000
0000
0010
0000
0100
0001
,
0100
0000
0010
0000
1000
0000
0010
1000
,
0010
0000
0100
0000
0001
0000
0010
0100
,
1000
0000
0010
0000
0100
0000
0001
0100
,
0010
0000
1000
0000
0100
0000
0010
0001
,
0100
0010
1000
0100
,
0022
0000
0033
0000
;

//---------------dance-single - C. Picardy----------------
#NOTES:
     dance-single:
     :
     Hard:
     8:
     0.589587,0.619066,0.217216,0.054304,0.153861,456.000000,432.000000,24.000000,6.000000,0.000000,0.000000,0.589587,0.619066,0.217216,0.054304,0.153861,456.000000,432.000000,24.000000,6.000000,0.000000,0.000000:
0000
0000
0000
0000
,
0000
0000
0000
0000
,
2000
0000
3002
0000
,
0103
0010
1000
0000
,
0001
0000
0100
0000
0010
0000
0100
0000
0001
0000
0000
0001
0000
0000
0001
0000
,
1000
0000
0100
0000
0010
0000
0100
0000
1000
0000
0000
1000
0000
0000
1000
0000
,
0001
0000
0100
0000
0010
0000
1000
0000
0010
0000
0000
0010
0000
0000
0010
0000
,
0100
0000
0001
0000
1000
0000
0010
0000
0100
0000
0000
0100
0000
0000
0100
0000
,
0001
0000
0100
0000
0010
0000
0100
0000
0001
0000
0000
1000
0000
0000
0010
0000
,
0100
0000
0001
0000
0010
0000
0001
0000
1000
0000
0000
0100
0000
0000
0010
0000
,
0100
0000
1000
0000
0001
0000
0100
0000
0001
0000
0000
1000
0000
0000
0010
0000
,
0100
0001
0010
0100
4000
0000
3001
0000
,
1001
0000
0110
0000
1000
0001
0100
0010
,
1000
0001
0000
0010
0100
0010
0001
0100
,
0010
0000
1010
0000
0001
0100
1000
0100
,
0001
0010
0000
0100
0010
0001
0010
0100
,
1000
0000
0110
0000
0001
0010
0100
0010
,
0001
1000
0000
0010
1000
0001
0100
0000
,
0001
0100
0010
1000
0000
0001
1000
0000
,
0100
0010
0100
1000
0000
0001
0100
0000
,
1001
1000
0000
0100
0000
0010
0000
0001
,
0001
0001
0000
1000
0100
0000
0000
0000
,
1000
0000
0100
0000
0010
0000
0100
0000
1000
0000
0100
1000
0000
0100
1000
0000
,
0001
0000
0100
0000
0010
0000
0100
0000
0001
0000
0100
0001
0000
0100
0001
0000
,
1000
0000
0010
0000
0100
0000
0010
0000
1000
0000
0010
1000
0000
0010
1000
0000
,
0100
0000
0010
0000
0001
0000
0010
0000
0100
0000
0010
0001
0000
0010
0001
0000
,
0100
0000
0001
0000
0010
0000
0001
0000
0100
0000
0010
1000
0000
1000
0010
0000
,
1000
0000
0100
0000
0010
0000
0100
0000
1000
0000
0010
1000
0000
1000
0010
0000
,
0100
0000
0001
0000
0010
0000
0001
0000
0100
0000
0001
0010
0000
0010
0001
0000
,
1000
0100
0010
0100
1000
0000
0101
0000
,
1000
0100
0010
0001
0010
0100
1000
0000
,
0001
0010
0100
1000
0100
0010
0001
0100
,
0010
0000
1001
0000
0100
0010
0000
0000
,
1000
0000
0000
0001
0000
0000
0100
0000
0010
0000
0000
1000
0000
0000
0100
0000
,
0010
0000
0001
0010
0100
0000
1001
0000
,
0001
0100
0010
1000
0010
0100
0001
0100
,
0010
0000
1001
0000
0100
0100
0100
0000
,
0100
0000
0000
0010
0000
0000
0001
0000
1000
0000
0000
0010
0000
0000
0100
0000
,
0010
1010
0001
0011
,
0000
1000
0100
0010
0100
1000
0001
0100
,
0010
1001
0100
1001
,
0000
0001
1000
0010
0100
0100
0001
0001
,
1000
1100
0001
0101
,
0000
0100
0010
1000
0100
0010
0001
0100
,
0010
0010
1001
0110
,
1000
0100
0010
0001
0000
0100
0010
0000
,
1001
0000
0100
0000
0010
1000
0100
0000
,
0010
0001
0000
0100
0000
0010
0000
1000
,
0001
0000
0010
0000
0100
1000
0001
0010
,
0100
1000
0000
1000
0000
0001
0000
0101
,
0000
0000
1000
0000
0001
0100
0010
1000
,
0010
0100
0000
0001
0000
1000
0000
0000
,
0100
0100
0000
0220
0000
0000
0330
0000
,
1000
0100
0010
0001
0000
0100
0000
0010
,
1000
0000
0001
0000
1000
0100
0001
0000
,
0100
0000
1000
0000
0001
0100
0010
0100
,
0001
0000
1000
0000
0001
0100
1000
0000
,
0100
0000
0001
0000
0010
0100
1000
0100
,
0010
0000
0001
0000
1000
0010
0100
0000
,
0001
0000
1000
0000
0100
0010
0001
0000
,
0100
0100
0000
0220
0000
0000
0330
0000
,
0001
0010
0100
1000
0000
0010
0100
0000
,
0001
1001
0000
0100
0000
0010
0000
1000
,
0001
0100
0000
0001
1001
0000
0000
0000
,
1000
0000
0100
0000
0010
0000
0100
0000
1000
0000
0000
0010
0000
0000
0100
0000
,
0001
0000
0010
0000
0001
0000
0100
0000
0010
0000
0000
1000
0000
0000
0001
0000
,
0100
0000
0010
0000
1000
0000
0010
0000
0100
0000
0000
0001
0000
0000
1000
0000
,
0100
0010
0100
0010
0001
1000
0001
1000
,
0001
0000
0100
0000
0010
0000
0100
0000
0001
0000
0100
0001
0000
0100
0001
0000
,
0010
0000
0100
0000
1000
0000
0100
0000
0010
0000
0100
1000
0000
0100
1000
0000
,
0100
0000
0010
0000
0001
0000
0100
0000
0010
0000
1000
0001
0000
1000
0001
0000
,
0010
0100
1000
0001
0100
0000
0010
0000
,
1001
0000
0000
0000
;

//---------------dance-single - C. Picardy----------------
#NOTES:
     dance-single:
     :
     Challenge:
     10:
     0.862400,0.918644,0.407280,0.253419,0.796459,667.000000,622.000000,45.000000,28.000000,80.000000,9.000000,0.862400,0.918644,0.407280,0.253419,0.796459,667.000000,622.000000,45.000000,28.000000,80.000000,9.000000:
0000
0000
0000
0000
,
0000
0000
0000
0000
,
1000
0000
0001
0100
0000
0000
0000
0000
0001
0000
1000
0100
0040
0400
0000
0000
,
0330
0000
0000
1100
0000
0000
0101
0000
M11M
0000
0000
0000
1MM1
0000
0000
0000
,
1000
0000
0001
0100
0000
0001
0100
0001
2000
0000
0000
0010
3000
1000
0010
1000
,
0100
0000
0010
0100
0000
1000
0100
0010
0200
0000
0000
0010
0300
0001
0100
0001
,
0100
0000
0001
0010
0000
0100
0010
0100
2000
0000
0000
0001
3000
1000
0010
0100
,
0001
0000
1000
0100
0000
0010
0100
1000
0001
0000
0100
0010
0000
0100
0010
1000
,
0001
0000
1000
0100
0000
0010
0001
0010
0200
0000
0000
1000
0300
0001
0010
0001
,
1000
0000
0010
0100
0000
0001
0100
0001
0200
0000
0000
0010
0300
1000
0001
0100
,
0010
0000
1000
0100
0000
0010
0100
1000
0002
0000
0000
0100
0003
0010
1000
0010
,
0100
0000
0000
0000
M1M1
0000
0000
0000
M1M1
0000
0000
0000
M1M1
0000
0000
0000
4000
0400
0000
0000
0000
0000
0000
3300
0010
0000
0000
0000
0MM0
0000
0000
0000
,
0001
0010
0100
0010
0001
0100
0010
1000
,
0001
0000
0100
0001
0100
0000
0010
1000
0010
0000
1000
0100
1000
0000
0010
0000
,
0100
0001
0010
0001
1000
0010
0100
0001
,
0010
0000
0100
0010
0001
0000
0010
0100
1000
0000
0001
1000
0010
0100
0010
0100
,
0010
1000
0100
0001
0100
1000
0010
0100
,
0010
0000
1000
0000
0001
0100
0001
0100
0001
0000
0001
0000
1000
0100
1000
0100
,
1000
0100
0010
0000
0001
0100
0010
0000
1000
0001
0100
0000
1M1M
0000
1M1M
0000
,
0001
0000
0000
0000
1000
0000
0100
0000
1000
0000
0100
0000
1000
0000
0000
0000
0001
0000
0100
0000
0001
0000
0100
0000
0004
4000
0000
0000
0000
0000
0000
3003
,
1001
0100
0000
1M1M
0000
MM11
0000
10MM
,
0100
M11M
0000
0001
2MM2
0000
0010
3003
,
1000
0000
0001
0100
0000
0001
0100
0001
1000
0000
0010
0100
0000
0001
0010
0001
,
0100
0000
0001
0010
0000
0100
0010
0001
1000
0000
0100
0010
0000
0100
1000
0100
,
0010
0000
0001
0100
0000
0010
0100
0001
0100
0000
0010
1000
0000
0001
0100
0010
,
1000
0000
M10M
0010
0000
0100
M01M
0100
0010
0000
M10M
0010
0000
0100
M01M
0100
,
0010
0000
0001
0100
0000
0001
0010
0001
0100
0000
0010
1000
0000
0100
1000
0010
,
0100
0000
0001
0010
0000
0100
0010
0001
1000
0000
0010
0100
0000
0001
0010
0100
,
1000
0000
0001
0010
0000
0100
0010
0001
1000
0000
0010
0100
0000
0010
1000
0001
,
0100
0000
0010
1000
0000
1000
0100
0010
0001
0000
0000
0000
11MM
0000
0000
0000
,
0001
0100
1000
0100
0001
0010
0011
0000
,
1000
0100
0010
0001
0011
0010
0100
1000
,
1100
0000
0101
0000
1MM1
1MM1
0000
0000
,
1000
0000
0100
0010
0000
0001
0010
0100
1000
0000
0010
0100
0000
0001
0100
0010
,
2000
0000
3001
0001
0102
0000
0010
0003
,
0001
0100
1000
0100
0001
0010
1000
0010
,
0110
0000
0011
0000
1000
1MM1
1MM1
0000
,
1000
0000
0001
0010
0000
0100
0010
0001
1000
0000
0010
0100
0000
0001
0010
0000
,
2200
0000
0010
0300
0002
0000
0010
3003
,
0001
0010
0001
1000
0010
0100
0001
1000
,
0202
0000
0010
0300
2000
0000
0010
3003
,
0001
0100
0100
0010
1000
1000
0001
0001
,
0202
0000
1000
0003
0020
0000
1000
0330
,
0001
0100
0010
1000
0100
0010
0001
1000
,
0200
0000
2000
0000
0001
0000
0010
3300
,
0100
0010
0001
0100
0000
1MM1
1MM1
0000
,
0110
0000
1000
0010
0100
0010
1000
0100
,
0001
0100
0010
0100
1000
0010
0100
0010
,
0001
0010
0100
0010
0001
0010
1000
0100
,
0010
0000
0100
0000
1000
0000
0010
0000
0100
0000
0001
0000
0010
0100
0010
0100
,
0010
0001
M1M1
0100
0010
0100
0001
1000
,
0010
0100
0001
0010
0100
0010
0001
0100
,
0020
1000
1030
0200
0010
0010
0310
0001
,
1000
0000
0100
0000
0010
0000
0001
0000
1000
0100
0010
0001
1000
0100
0010
0001
,
1MM1
0010
1000
0010
0001
0100
1000
0100
,
0010
0100
0010
0001
0010
1000
0100
0010
,
0100
1000
0010
0100
0010
0001
0010
1000
,
0100
0000
0001
0000
0100
0000
1000
0000
0010
0000
0100
0000
0010
0100
0010
0100
,
0010
1000
1MM1
0100
0010
1000
0100
0001
,
0100
1000
0010
0001
0010
1000
0100
0010
,
1MM1
2M1M
0000
0100
0000
0001
3000
1000
,
0001
0100
0001
1000
0010
0100
M1M1
M11M
,
1000
1MM1
0000
11MM
0000
M1M1
0000
0010
,
0100
1MM1
0000
0100
2MM2
0000
3MM3
0000
,
1000
0000
0001
0100
0000
0001
1000
0001
1000
0000
0100
0010
0000
0001
0010
0001
,
0010
0000
0100
1000
0000
0001
0100
0001
0100
0000
0010
1000
0000
0001
0100
0010
,
1000
0000
0100
0010
0000
0001
0010
0001
1000
0000
0010
0100
0000
0001
0100
0010
,
1000
0000
0100
0010
0000
0100
1000
0100
0010
0000
0100
1000
0000
1000
0001
0100
,
0010
0000
1000
0001
0000
0010
0100
1000
0001
0000
0100
0010
0000
1000
0100
0010
,
0001
0000
0100
0010
0000
1000
0001
0100
0010
0000
1000
0001
0000
0010
0100
0010
,
0001
0000
0100
0010
0000
1000
0010
0100
0010
0000
1000
0001
0000
0010
0100
0010
,
0001
0000
1000
0100
0000
0010
0100
1000
0001
0000
0000
0000
0100
0000
0000
0000
,
2M2M
0M0M
3M3M
0000
;
