#TITLE:Unsolved Mysteries;
#SUBTITLE:;
#ARTIST:Michael Boyd & Gary Remal Malkin;
#TITLETRANSLIT:;
#SUBTITLETRANSLIT:;
#ARTISTTRANSLIT:;
#GENRE:;
#CREDIT:;
#BANNER:unsolvedmysteriesbn.png;
#BACKGROUND:unsolvedmysteries.png;
#LYRICSPATH:;
#CDTITLE:;
#MUSIC:unsolvedmysteries.ogg;
#OFFSET:-0.071671;
#SAMPLESTART:14.948283;
#SAMPLELENGTH:12.000000;
#SELECTABLE:YES;
#BPMS:0.000000=152.710007
,139.000000=76.355003
,140.000000=152.710007
;
#STOPS:
;
#BGCHANGES:24.000=darkbluespace.mp4=1.000=0=0=1=SongBgWithMovieViz==CrossFade_Fastest==,
40.000=darkbluespace.mp4=1.000=0=0=1===CrossFade_Fastest==,
72.000=orangebluecurtain.mp4=1.000=0=0=0=StretchNoLoop==CrossFade_Fastest==,
104.000=darkbluespace.mp4=1.000=0=0=0=StretchNoLoop==CrossFade_Fastest==,
136.000=darkbluespace.mp4=1.000=1=0=1=SongBgWithMovieViz==CrossFade==,
139.000=unsolvedmysteries.png=1.000=0=0=1===CrossFade_Fastest==,
140.000=flash=1.600=0=0=1=====,
140.250=colorfuldarkstage.mp4=1.000=0=0=0=StretchNoLoop====,
172.000=orangebluecurtain.mp4=1.000=0=0=0=StretchNoLoop==CrossFade_Fastest==,
204.000=darkbluespace.mp4=1.000=0=0=0=StretchNoLoop==CrossFade_Fastest==,
236.000=colorfuldarkstage.mp4=1.000=0=0=0=StretchNoLoop==CrossFade_Fastest==,
266.000=colorfuldarkstage.mp4=1.000=0=0=1=SongBgWithMovieViz==CrossFade_Fastest==,
268.000=unsolvedmysteries.png=1.000=1=0=1===CrossFade==,
271.000=flash=1.000=0=0=1=====,
271.250=unsolvedmysteries.png=1.000=0=0=1=====,
99999=-nosongbg-=1.000=0=0=0 // don't automatically add -songbackground-
;
#KEYSOUNDS:;
#ATTACKS:;

//---------------dance-single - C. Picardy----------------
#NOTES:
     dance-single:
     :
     Beginner:
     1:
     0.088378,0.121936,0.053795,0.000000,0.000000,69.000000,63.000000,6.000000,0.000000,0.000000,0.000000,0.088378,0.121936,0.053795,0.000000,0.000000,69.000000,63.000000,6.000000,0.000000,0.000000,0.000000:
0000
0000
0000
0000
,
0000
0000
0000
0000
,
0010
0000
0000
0000
,
0000
0000
0000
0000
,
1000
0000
0000
0000
,
0000
0000
0000
0000
,
0001
0000
0000
0000
,
0000
0000
0000
0000
,
0100
0000
0000
0000
,
0000
0000
0000
0000
,
0010
0000
0000
0000
,
0010
0000
0000
0000
,
1000
0000
0000
0000
,
1000
0000
0000
0000
,
0001
0000
0000
0000
,
0001
0000
0000
0000
,
0010
0000
0000
0000
,
0100
0000
0000
0000
,
1001
0000
0000
0000
,
1000
0000
0000
0000
,
0001
0000
0000
0000
,
0010
0000
0000
0000
,
0100
0000
0000
0000
,
0010
0000
0000
0000
,
1000
0000
0000
0000
,
0001
0000
0000
0000
,
0110
0000
0000
0000
,
1000
0000
0000
0000
,
0010
0000
0000
0000
,
0100
0000
0000
0000
,
0001
0000
0000
0000
,
0010
0000
0000
0000
,
0100
0000
0000
0000
,
1000
0000
0000
0000
,
0010
0000
0000
0000
,
0100
0000
0000
0000
,
1000
0000
0000
0000
,
0001
0000
0000
0000
,
0010
0000
0000
0000
,
0100
0000
0000
0000
,
1000
0000
0000
0000
,
0010
0000
0000
0000
,
0001
0000
0000
0000
,
1001
0000
0000
0000
,
0100
0000
0000
0000
,
0010
0000
0000
0000
,
1000
0000
0000
0000
,
0001
0000
0000
0000
,
0010
0000
0000
0000
,
0100
0000
0000
0000
,
1000
0000
0000
0000
,
1001
0000
0000
0000
,
0100
0000
0000
0000
,
1000
0000
0000
0000
,
0001
0000
0000
0000
,
0110
0000
0000
0000
,
0100
0000
0000
0000
,
0001
0000
0000
0000
,
1000
0000
0000
0000
,
1001
0000
0000
0000
,
0010
0000
0000
0000
,
1000
0000
0000
0000
,
0001
0000
0000
0000
,
0100
0000
0000
0000
,
0010
0000
0000
0000
,
1000
0000
0000
0000
,
0001
0000
0000
0000
,
1000
0000
0000
0000
,
0010
0000
0000
0000
;

//---------------dance-single - C. Picardy----------------
#NOTES:
     dance-single:
     :
     Easy:
     3:
     0.247202,0.303719,0.134488,0.358635,0.000000,193.000000,178.000000,15.000000,40.000000,0.000000,0.000000,0.247202,0.303719,0.134488,0.358635,0.000000,193.000000,178.000000,15.000000,40.000000,0.000000,0.000000:
// measure 0
0000
0000
0000
0000
,  // measure 1
0000
0000
0000
0000
,  // measure 2
0020
0000
0000
0030
,  // measure 3
0000
0000
0000
0000
,  // measure 4
2000
0000
0000
3000
,  // measure 5
0000
0000
0000
0000
,  // measure 6
0010
0000
0100
0000
,  // measure 7
0001
0000
1000
0000
,  // measure 8
0010
0000
0100
0000
,  // measure 9
0001
0000
1001
0000
,  // measure 10
1000
0000
0010
0100
,  // measure 11
0000
0001
1000
0000
,  // measure 12
0100
0010
0100
0000
,  // measure 13
0001
0000
0220
0330
,  // measure 14
2002
3003
1000
1000
,  // measure 15
0000
0001
0100
0001
,  // measure 16
0000
1000
0010
0000
,  // measure 17
0000
0000
0220
0330
,  // measure 18
2002
3003
0010
0000
,  // measure 19
0001
1000
0010
0000
,  // measure 20
0100
0001
1000
0100
,  // measure 21
0010
0000
0002
0003
,  // measure 22
1000
0010
0100
0100
,  // measure 23
0000
0001
1000
1000
,  // measure 24
0010
0100
0001
0001
,  // measure 25
0000
1000
0020
0030
,  // measure 26
1001
0100
0010
0010
,  // measure 27
0000
1000
0010
0010
,  // measure 28
1000
0100
1000
1000
,  // measure 29
0000
0001
0202
0303
,  // measure 30
0010
1000
0001
0001
,  // measure 31
0000
0010
0100
1000
,  // measure 32
0001
0100
0010
1000
,  // measure 33
0100
0010
0100
1000
,  // measure 34
0002
0000
0000
1000
,  // measure 35
1003
0000
0100
0010
,  // measure 36
0000
0001
1000
0010
,  // measure 37
0000
0100
0001
1000
,  // measure 38
0100
0100
0010
0010
,  // measure 39
0002
0003
0100
0010
,  // measure 40
0000
1000
0001
0100
,  // measure 41
0000
0010
1000
0100
,  // measure 42
1000
1000
0010
0010
,  // measure 43
0200
0300
0020
0030
,  // measure 44
0200
0300
0020
0030
,  // measure 45
2000
3000
0002
0003
,  // measure 46
2000
3000
0002
0003
,  // measure 47
0100
0001
0010
0020
,  // measure 48
0030
0100
1000
1000
,  // measure 49
0001
0100
0001
0002
,  // measure 50
0003
0000
2002
3003
,  // measure 51
0220
0330
1000
0001
,  // measure 52
0000
0100
0010
1000
,  // measure 53
0000
0001
1000
0100
,  // measure 54
0000
0010
0200
0300
,  // measure 55
1001
1000
0100
0010
,  // measure 56
0000
0001
0010
0001
,  // measure 57
0000
1000
0100
1000
,  // measure 58
0010
0000
2020
3030
,  // measure 59
0202
0303
0100
0001
,  // measure 60
0000
1000
0010
0100
,  // measure 61
0000
0001
1000
0010
,  // measure 62
0100
0100
0220
0330
,  // measure 63
1001
0100
0010
1000
,  // measure 64
0000
0100
0010
0001
,  // measure 65
0000
0010
0100
1000
,  // measure 66
0001
0001
0200
0300
,  // measure 67
2002
0000
0000
3003
;

//---------------dance-single - C. Picardy----------------
#NOTES:
     dance-single:
     :
     Medium:
     6:
     0.386813,0.394835,0.143454,0.349669,0.004483,302.000000,286.000000,16.000000,39.000000,0.000000,0.000000,0.386813,0.394835,0.143454,0.349669,0.004483,302.000000,286.000000,16.000000,39.000000,0.000000,0.000000:
0000
0000
0000
0000
,
0000
0000
0000
0000
,
1000
0000
0000
1000
0000
1000
1000
0000
,
0001
0000
0000
0001
0000
0001
0001
0000
,
0100
0000
0000
0100
0000
0010
0100
0000
,
0010
0000
0000
0010
0000
0100
0010
0000
,
0200
0000
0000
0301
0100
0000
0010
0000
,
2000
0000
0000
3100
1000
0000
1000
0000
,
0002
0000
0000
0013
0001
0000
1000
0000
,
0010
1000
0100
0000
2002
0000
3003
0000
,
0001
0000
0100
0000
0010
0000
1000
0001
,
0000
0000
1000
0000
0001
0000
1000
0010
,
0000
0000
0100
0000
0001
0100
0001
0000
,
0100
0100
0010
0000
2020
0000
3030
0000
,
0100
0001
0100
0010
1000
0000
1000
0100
,
0000
0100
0010
0000
0010
0000
0001
1000
,
0000
1000
0001
0000
0001
0000
0100
0010
,
0000
0010
0100
0000
2002
0000
3003
0000
,
1000
0000
0001
1000
0000
1000
0001
0000
,
0100
0000
0100
0010
0000
0010
0100
0000
,
0010
0000
0010
1000
0000
1000
0010
0000
,
0100
0001
0010
0000
0022
0000
0033
0000
,
2002
0000
3003
0100
0000
0010
1000
0000
,
0001
0000
1000
0100
0000
1000
0001
0000
,
0100
0000
0100
0001
0000
0001
0010
0000
,
0001
1000
0100
0000
0220
0000
0330
0000
,
0001
0010
0001
0000
0001
0000
0001
0000
,
1000
0000
1000
0100
1000
0000
1000
0000
,
0010
0000
0010
0100
0010
0000
0010
0000
,
0100
0001
0000
0000
0202
0000
0303
0000
,
1010
0000
0100
0010
0000
1000
0001
0000
,
0100
0001
0000
0100
0000
0010
0100
0000
,
0001
0100
1000
0000
1000
0100
0001
0000
,
0001
0010
0100
0000
0100
1000
0010
0000
,
0200
0000
0000
0000
0000
0000
0000
0000
0000
0000
0000
0000
0001
0000
0000
0001
,
0301
0000
0000
0000
0100
0010
1000
0100
,
0000
0000
0010
0000
0010
0001
0100
0010
,
0000
0000
1000
0000
1000
0010
0100
0000
,
0100
0010
1000
0000
1000
0010
1000
0000
,
0002
0000
0000
0100
0000
0000
0100
0103
,
0020
0000
0000
1000
0000
0000
1000
1030
,
0200
0000
0000
1000
0000
1000
1000
0300
,
1000
0100
0001
0000
0001
0100
1000
0000
,
0001
0000
1000
0000
0010
0000
0100
0001
,
0000
0000
0100
0000
0001
0000
0010
0100
,
0000
0000
1000
0000
0100
0000
0010
0100
,
0000
0010
0001
0000
2000
0000
0000
3000
,
0002
0000
0000
0013
0000
0001
0010
0000
,
0100
0000
1000
0100
0000
1000
0100
0000
,
0010
0000
0100
0010
0000
0001
0010
0000
,
0200
0000
2000
3300
,
2002
3003
0010
0100
,
0001
1000
0100
0100
,
0010
0100
1000
1000
,
0100
0010
0022
0033
,
2002
3003
0100
0001
,
0010
0100
0010
0010
,
0001
1000
0010
0010
,
1000
0001
0022
0033
,
2200
0000
3300
0000
0100
0010
0100
0000
,
0010
0000
0001
0000
0100
0001
0100
0000
,
0010
0000
1000
0000
0001
0100
0001
0000
,
0100
0000
0010
0000
1000
0010
1000
0000
,
1001
0000
0100
0000
0010
0010
0010
0000
,
1000
0000
0100
0000
1000
1000
1000
0000
,
0010
0000
0100
0000
0001
1000
0100
0010
,
0000
0001
0100
0000
0220
0000
0330
0000
,
0202
0000
0000
0303
;

//---------------dance-single - C. Picardy----------------
#NOTES:
     dance-single:
     :
     Hard:
     8:
     0.593029,0.607438,0.260010,0.152420,0.000000,463.000000,434.000000,29.000000,17.000000,100.000000,1.000000,0.593029,0.607438,0.260010,0.152420,0.000000,463.000000,434.000000,29.000000,17.000000,100.000000,1.000000:
0000
0000
0000
0000
,
0000
0000
0000
0000
,
0002
0000
0003
0002
0000
0103
0101
0000
,
2000
0000
3000
2000
0000
3010
0100
0000
,
0200
0000
0300
0200
0000
0310
1010
0000
,
2000
0000
3000
0020
0000
0130
0001
0000
,
0000
0010
0100
1000
0100
0010
0001
1000
,
0000
0010
0100
0001
0100
0010
1000
0100
,
0000
0100
1000
0010
1000
0100
0010
0001
,
0000
0001
0100
0010
2000
0000
0000
3000
,
1001
0000
0001
0100
0010
0100
0001
1000
,
M000
0100
1000
0010
0100
0001
0010
0100
,
0M00
0010
0001
0010
0100
1000
0100
0010
,
0MM0
0001
0100
0001
0010
0010
0010
00MM
,
0011
0001
0100
0010
0100
0001
1000
0010
,
M0M0
0100
0001
0100
0010
1000
1000
0010
,
00M0
0001
0100
1000
0100
0001
0010
0100
,
MM00
0010
0100
1000
0100
0100
0100
MM00
,
0110
0010
0001
0100
0010
1000
0100
0010
,
0MM0
0001
0010
1000
0010
0001
0100
1000
,
MM00
0100
0010
1000
0010
0100
0010
1000
,
M0M0
0010
0001
0010
1000
1000
1010
MMMM
,
0110
0010
1000
0010
0001
0010
1000
0001
,
MMMM
0010
0100
0010
0001
0100
0010
1000
,
MMMM
0100
0010
0001
0010
0100
0010
0001
,
2000
0010
3010
MM00
2000
0100
3100
MMMM
,
1001
1000
0100
0010
0001
0010
0100
1000
,
1100
M100
0010
0001
0100
0010
0100
0001
,
0101
0M01
0010
0100
0010
0001
0100
0010
,
0110
0M10
0001
0010
1000
0100
0100
0000
,
0110
01M0
1000
0010
0100
0001
0010
0100
,
0110
MM10
0001
0100
10MM
0100
MM01
0010
,
0100
10MM
0100
0010
MM01
0010
0100
10MM
,
0100
M010
0100
10MM
0100
0010
0001
0100
,
0002
0000
0000
2000
,
0M10
3003
0000
0000
0100
0001
0010
0100
,
0000
1000
0100
0010
0100
1000
0001
0100
,
0000
0010
1000
0001
0100
0010
1000
0100
,
0010
0001
0100
0010
1000
0100
0010
0000
,
1000
0001
0100
0000
0100
0010
1000
0100
,
0000
0010
0100
0000
0010
0001
0100
0010
,
0000
1000
0001
0100
0010
1000
0100
0010
,
0001
1000
0001
0100
0001
1000
0001
0010
,
0000
0010
0100
1000
0100
0010
0100
1000
,
0000
0001
0100
0010
0100
0001
0100
0010
,
0000
1000
0010
0100
0010
1000
0010
0100
,
0000
0100
0001
0010
0001
0100
0100
0000
,
0110
0000
0100
0010
1000
0001
0100
0001
,
00MM
1000
0001
0100
0001
1000
0100
1000
,
MM00
0100
0010
0100
1000
1000
0001
1000
,
MM00
0001
0100
0001
1000
0001
0001
M00M
,
1001
0000
0100
0001
0010
0001
0011
00MM
,
0100
0010
0001
0010
0100
0010
0001
1000
,
1100
0000
MM10
0100
0010
1000
0010
0000
,
M0M1
0100
0010
0100
1000
0100
0100
0000
,
0110
MMM0
1000
1000
0001
0001
1000
1000
,
M000
0010
0010
0100
0100
0001
0010
0010
,
00M0
0001
0001
1000
1000
M100
1000
1000
,
0000
M100
0100
1000
0100
1000
1100
0000
,
0001
0010
0010
0001
0010
0010
0011
0M00
,
0100
0010
0010
0100
0010
0010
0110
M000
,
0001
M100
0100
00M1
0100
M001
0101
00M0
,
1000
0M10
0010
100M
0010
1M10
101M
0000
,
0100
0001
M001
0100
M001
0100
M010
0110
,
0000
1000
01MM
0100
10MM
1000
01MM
1100
,
0000
0100
M010
0010
010M
0010
M010
0110
,
0000
0001
0001
0100
0220
0000
0330
0000
,
2002
0000
0000
3003
;

//---------------dance-single - C. Picardy----------------
#NOTES:
     dance-single:
     :
     Challenge:
     11:
     0.863286,1.002350,0.690372,0.780031,0.932451,674.000000,597.000000,77.000000,87.000000,229.000000,6.000000,0.863286,1.002350,0.690372,0.780031,0.932451,674.000000,597.000000,77.000000,87.000000,229.000000,6.000000:
0000
0000
0000
0000
,
0000
0000
0000
0000
,
2000
0000
0000
0000
3000
0000
2000
0000
0000
0000
3100
0010
0100
0000
0MM0
0000
,
2000
0000
0000
0000
3000
0000
2000
0000
0000
0000
3010
0100
0010
0000
0MM0
0000
,
0002
0000
0000
0000
0003
0000
0002
0000
0000
0000
1003
0001
0100
M00M
0000
0000
,
0002
0000
0000
0000
0003
0000
2000
0000
0000
0000
3001
1000
0010
M000
00M0
0000
,
0000
0000
2000
0000
0200
3000
2000
0300
0002
3000
0200
0003
0002
0300
2000
0003
,
3000
MMMM
0200
0000
2000
0300
0002
3000
0020
0003
0002
0030
2000
0003
0020
3000
,
0030
MMMM
0001
0000
0100
0000
0101
0000
0100
0000
0010
0000
1010
0000
0110
0000
,
0000
0000
0001
0000
0100
0000
1000
0000
0100
0010
0100
0000
0010
1000
0010
1000
,
0010
M1M0
0010
0101
1M0M
0110
0MM1
0110
,
0MM0
0011
010M
1M10
0100
1M10
00M1
1100
,
M000
0101
0010
11M0
MM10
1100
MM01
0110
,
0MM0
0000
1100
0000
1010
0000
0100
0000
0001
0010
0001
0000
0010
0001
0010
0001
,
0010
0000
1M01
0000
0100
00M0
0001
0100
0010
0100
0001
0000
0M10
0000
01M1
0000
,
0000
0000
1000
0010
0100
0000
0011
0000
1000
0100
0010
0000
1100
0000
0101
M000
,
0M0M
0000
0100
0010
1000
0000
0101
0000
0100
0010
1000
0010
0100
0000
0202
0000
,
0303
0M0M
0100
0000
0010
0000
1010
0000
0010
1000
0010
0000
1000
0010
1M00
0010
,
1010
0000
0001
0000
01M1
0000
0100
0000
0010
1000
0M10
0000
0010
1000
0010
0000
,
0000
0000
0100
0001
01M0
0000
0100
0000
0001
0100
0001
0100
0001
0100
0010
MM0M
,
0000
0000
1000
0100
1000
0100
1000
0M00
1000
0100
1000
0100
1000
0100
1000
MM00
,
0000
0000
0000
0000
0001
0000
0010
0000
0001
0000
0010
0000
0001
0000
00M0
0000
0001
0000
001M
0000
0001
0000
0000
000M
0010
0000
0001
0000
0010
0000
0001
0000
,
0011
00MM
0011
0000
0100
0010
0100
0000
0100
0010
0100
0010
01M0
0000
0M01
0000
,
0000
0001
0100
0000
0001
0100
0010
0000
0100
0010
0100
0010
1M00
0010
1000
00M0
,
0000
0010
0100
0000
0010
0000
1000
0000
0100
0010
0001
0010
0100
1000
0010
0000
,
0000
0100
0001
0000
0100
0000
0010
0000
1000
0010
1000
0010
1010
0000
0000
0000
,
0101
0000
0000
0000
0000
0000
0000
0000
0000
0000
0000
0000
0000
0000
0000
0000
0000
0000
0000
0000
0000
0000
0000
0000
0001
0000
0000
0000
0000
0000
0000
0000
0000
0000
0000
0000
0100
0000
0000
0000
0000
0000
0000
0000
0000
0000
0000
0000
0010
0000
0000
0000
0000
0000
0000
0000
0000
0000
0000
0000
0000
0000
0000
0000
0000
0000
0000
0000
0000
0000
0000
0000
0100
0000
0000
0000
0000
0000
0000
0000
0000
0000
0000
0000
0000
0000
0000
0000
0000
0000
0000
0000
0000
0000
0000
0000
0010
0000
0000
0000
0000
0000
0100
0000
0000
0000
0000
0000
0010
0000
0000
0000
0000
0000
0000
0000
0000
0000
0000
0000
0000
0000
0000
0000
0000
0000
0000
0000
0000
0000
0000
0000
0000
0000
0000
0000
0000
0000
0000
0000
0000
0000
0000
0000
0100
0000
0000
0000
0000
0000
0000
0000
0000
0000
0000
0000
0000
0000
0000
0000
0000
0000
0000
0000
0000
0000
0000
0000
0010
0000
0000
0000
0000
0000
0000
0000
0000
0000
0000
0000
0000
0000
0000
0000
0MM0
0000
0000
0000
0000
0000
0000
0000
,
0000
0000
0000
0000
1000
0000
0010
0000
1000
0000
0000
0000
1000
0000
0000
0000
0010
1000
0010
0000
0000
0000
0000
0000
1000
0000
0000
0000
M010
0000
0000
0000
,
00M0
0000
0000
0000
1000
0000
0001
0000
0100
0000
0000
0000
0001
0000
0000
0000
0100
0001
0100
0000
0000
0000
0000
0000
0001
0000
0000
0000
0100
0000
0000
0M0M
,
0000
0000
0000
0000
0001
0000
0010
0000
0001
0000
0000
0000
1000
0000
0000
0000
0001
0010
0001
0000
0000
0000
0000
0000
1000
0000
0000
0000
0100
0000
0000
0000
,
MM00
1000
0100
1000
1000
0100
1000
1010
,
M0M0
0100
0001
0010
0010
0001
0101
0000
,
MM00
00M0
M00M
0000
M00M
0000
M00M
00M0
MM00
0000
0000
0000
MMMM
0MM0
0MM0
0MM0
,
0MM0
0MM0
MMMM
0000
0000
0000
MMMM
M000
M000
M000
MMMM
M000
M000
M000
MMMM
0000
,
1002
0000
0000
0000
0000
0000
0200
0000
0000
0000
0000
0000
M020
M000
M000
0000
,
1333
0000
MMMM
0000
0001
0100
0001
0000
0001
0100
0010
0000
1000
0000
0101
0000
,
0000
0000
0010
1000
0001
0100
0010
0000
1000
0100
0010
0000
0100
0000
0011
0000
,
0000
0000
0010
0100
0010
0000
0010
0000
0010
0001
0010
0000
0001
0000
0011
0000
,
0001
0010
0001
0010
0100
1000
0100
1000
0100
0010
0100
0010
0002
0MM0
0003
0000
,
0010
0100
0010
0100
0010
0001
0010
0000
0100
0010
0100
1000
0100
0000
0100
0000
,
1MMM
0010
1000
0010
0100
0001
0100
0000
0001
0100
0001
0100
0010
0000
1010
0000
,
MMM0
0000
0001
0100
0010
1000
0010
1000
0001
1000
0001
1000
0100
0000
1000
0000
,
0100
0010
0001
0010
0001
0010
0100
0010
0001
0010
0100
1000
0100
1000
0100
0010
,
MMM1
0000
0000
0000
0000
0000
0000
0000
0000
0000
0000
0000
0000
0000
0000
0000
0000
0000
0000
0000
0000
0000
0000
0000
0201
0000
0000
0000
0000
0000
0000
0000
0000
0000
0000
0000
0000
0000
0000
0000
0000
0000
0000
0000
0000
0000
0000
0000
0310
0000
0000
0000
0000
0000
0000
0000
0000
0000
0000
0000
0000
0000
0000
0000
0000
0000
0000
0000
0000
0000
0000
0000
1200
0000
0000
0000
0000
0000
0000
0000
0000
0000
0000
0000
0000
0000
0000
0000
0000
0000
0000
0000
0000
0000
0000
0000
0310
0000
0000
0000
0000
0000
0000
0000
0000
0000
0000
0000
0000
0000
0000
0000
0000
0000
0000
0000
0000
0000
0000
0000
0012
0000
0000
0000
0000
0000
0000
0000
0000
0000
0000
0000
0000
0000
0000
0000
0000
0000
0000
0000
0000
0000
0000
0003
1200
0000
0000
0000
0000
0000
0000
0000
0000
0000
0000
0000
0000
0000
0000
0000
0000
0000
0000
0000
0000
0000
0300
0000
2002
0000
0000
0000
0000
0000
0000
0000
0000
0000
0000
0000
0000
0000
0000
0000
0000
0000
0000
0000
0000
0000
0000
0000
,
3003
0000
0000
0000
0000
0000
0000
0000
0000
0000
0000
0000
0000
0000
0000
0000
0000
0000
0000
0000
0000
0000
0000
0000
0010
0000
0000
0000
0000
0000
0000
0000
0000
0000
0000
0000
0000
0000
0000
0000
0000
0000
0000
0000
0000
0000
0000
0000
0102
0000
0000
0000
0000
0000
0000
0000
0000
0000
0000
0000
0000
0000
0000
0000
0000
0000
0000
0000
0000
0000
0000
0000
0013
0000
0000
0000
0000
0000
0000
0000
0000
0000
0000
0000
0000
0000
0000
0000
0000
0000
0000
0000
0000
0000
0000
0000
2100
0000
0000
0000
0000
0000
0000
0000
0000
0000
0000
0000
0000
0000
0000
0000
0000
0000
0000
0000
0000
0000
0000
0000
3010
0000
0000
0000
0000
0000
0000
0000
0000
0000
0000
0000
0000
0000
0000
0000
0000
0000
0000
0000
0000
0000
0000
0000
2010
0000
0000
0000
0000
0000
0000
0000
0000
0000
0000
0000
0000
0000
0000
0000
0000
0000
0000
0000
0000
0000
3000
0000
0022
0000
0000
0000
0000
0000
0000
0000
0000
0000
0000
0000
0000
0000
0000
0000
0000
0000
0000
0000
0000
0000
0000
0000
,
0033
0000
0000
0000
0000
0000
0000
0000
0000
0000
0000
0000
0000
0000
0000
0000
0000
0000
0000
0000
0000
0000
0000
0000
0100
0000
0000
0000
0000
0000
0000
0000
0000
0000
0000
0000
0000
0000
0000
0000
0000
0000
0000
0000
0000
0000
0000
0000
1020
0000
0000
0000
0000
0000
0000
0000
0000
0000
0000
0000
0000
0000
0000
0000
0000
0000
0000
0000
0000
0000
0000
0000
0130
0000
0000
0000
0000
0000
0000
0000
0000
0000
0000
0000
0000
0000
0000
0000
0000
0000
0000
0000
0000
0000
0000
0000
0001
0000
0000
0000
0000
0000
0000
0000
0000
0000
0000
0000
0000
0000
0000
0000
0000
0000
0000
0000
0000
0000
0000
0000
0102
0000
0000
0000
0000
0000
0000
0000
0000
0000
0000
0000
0000
0000
0000
0000
0000
0000
0000
0000
0000
0003
0000
0000
0210
0000
0000
0000
0000
0000
0000
0000
0000
0000
0000
0000
0000
0000
0000
0000
0000
0000
0000
0000
0000
0000
0300
0000
2020
0000
0000
0000
0000
0000
0000
0000
0000
0000
0000
0000
0000
0000
0000
0000
0000
0000
0000
0000
0000
0000
0000
0000
,
3030
0201
2300
3010
1200
0301
2100
3020
,
0030
0000
0000
0000
0000
0000
0000
0000
0000
0000
0000
0000
0000
0000
0000
0000
0000
0000
0000
0000
0000
0000
0000
0000
01M2
0000
0000
0000
0000
0000
0000
0000
0000
0000
0000
0000
0000
0000
0000
0000
0000
0000
0000
0000
0000
0000
0000
0000
2003
0000
0000
0000
0000
0000
0000
0000
0000
0000
0000
0000
0000
0000
0000
0000
0000
0000
0000
0000
0000
0000
3000
0000
0210
0000
0000
0000
0000
0000
0000
0000
0000
0000
0000
0000
0000
0000
0000
0000
0000
0000
0000
0000
0000
0000
0000
0000
M302
0000
0000
0000
0000
0000
0000
0000
0000
0000
0000
0000
00M0
0000
0000
0000
0000
0000
0000
0000
0000
0000
0000
0000
2003
0000
0000
0000
0000
0000
0000
0000
0000
0000
0000
0000
0000
0000
0000
0000
0000
0000
0000
0000
0000
0000
3000
0000
012M
0000
0000
0000
0000
0000
0000
0000
0000
0000
0000
0000
0000
0000
0000
0000
0000
0000
0000
0000
0000
0000
0030
0000
M202
0000
0000
0000
0000
0000
0000
0000
0000
0000
0000
0000
0000
0000
0000
0000
0000
0000
0000
0000
0000
0000
0000
0000
,
0303
0000
0000
0000
0000
0000
0000
0000
0000
0000
0000
0000
0000
0000
0000
0000
0000
0000
0000
0000
0000
0000
0000
0000
2100
0000
0000
0000
0000
0000
0000
0000
0000
0000
0000
0000
0000
0000
0000
0000
0000
0000
0000
0000
0000
0000
0000
0000
3M20
0000
0000
0000
0000
0000
0000
0000
0000
0000
0000
0000
0000
0000
0000
0000
0000
0000
0000
0000
0000
0000
0030
0000
2100
0000
0000
0000
0000
0000
0000
0000
0000
0000
0000
0000
0000
0000
0000
0000
0000
0000
0000
0000
0000
0000
0000
0000
32M1
0000
0000
0000
0000
0000
0000
0000
0000
0000
0000
0000
0000
0000
0000
0000
0000
0000
0000
0000
0000
0000
0000
0000
M310
0000
0000
0000
0000
0000
0000
0000
0000
0000
0000
0000
0000
0000
0000
0000
0000
0000
0000
0000
0000
0000
0000
0000
102M
0000
0000
0000
0000
0000
0000
0000
0000
0000
0000
0000
0000
0000
0000
0000
0000
0000
0000
0000
0000
0000
0030
0000
2200
0000
0000
0000
0000
0000
0000
0000
0000
0000
0000
0000
0000
0000
0000
0000
0000
0000
0000
0000
0000
0000
0000
0000
,
3300
0000
0000
0000
0000
0000
0000
0000
0000
0000
0000
0000
0000
0000
0000
0000
0000
0000
0000
0000
0000
0000
0000
0000
0002
0000
0000
0000
0000
0000
0000
0000
0000
0000
0000
0000
0000
0000
0000
0000
0000
0000
0000
0000
0000
0000
0003
0000
2100
0000
0000
0000
0000
0000
0000
0000
0000
0000
0000
0000
0000
0000
0000
0000
0000
0000
0000
0000
0000
0000
0000
0000
3M02
0000
0000
0000
0000
0000
0000
0000
0000
0000
0000
0000
0000
0000
0000
0000
0000
0000
0000
0000
0000
0000
0000
0000
M213
0000
0000
0000
0000
0000
0000
0000
0000
0000
0000
0000
0000
0000
0000
0000
0000
0000
0000
0000
0000
0000
0000
0000
03M1
0000
0000
0000
0000
0000
0000
0000
0000
0000
0000
0000
0000
0000
0000
0000
0000
0000
0000
0000
0000
0000
0000
0000
0M21
0000
0000
0000
0000
0000
0000
0000
0000
0000
0000
0000
0000
0000
0000
0000
0000
0000
0000
0000
0000
0000
0030
0000
0202
0000
0000
0000
0000
0000
0000
0000
0000
0000
0000
0000
0000
0000
0000
0000
0000
0000
0000
0000
0000
0000
0000
0000
,
03M3
0000
0000
0000
0000
0000
0000
0000
0000
0000
0000
0000
0000
0000
0000
0000
0000
0000
0000
0000
0000
0000
0000
0000
1M2M
0000
0000
0000
0000
0000
0000
0000
0000
0000
0000
0000
0000
0000
0000
0000
0000
0000
0000
0000
0000
0000
0030
0000
2100
0000
0000
0000
0000
0000
0000
0000
0000
0000
0000
0000
0000
0000
0000
0000
0000
0000
0000
0000
0000
0000
3000
0000
02M1
0000
0000
0000
0000
0000
0000
0000
0000
0000
0000
0000
0000
0000
0000
0000
0000
0000
0000
0000
0000
0000
0300
0000
M012
0000
0000
0000
0000
0000
0000
0000
0000
0000
0000
0000
0000
0000
0000
0000
0000
0000
0000
0000
0000
0003
0000
0000
0210
0000
0000
0000
0000
0000
0000
0000
0000
0000
0000
0000
0000
0000
0000
0000
0000
0000
0000
0000
0000
0000
0300
0000
1020
0000
0000
0000
0000
0000
0000
0000
0000
0000
0000
0000
0000
0000
0000
0000
0000
0000
0000
0000
0000
0000
0030
0000
2M02
0000
0000
0000
0000
0000
0000
0000
0000
0000
0000
0000
0000
0000
0000
0000
0000
0000
0000
0000
0000
0000
0000
0000
,
30M3
0000
0000
0000
0001
0000
0000
0000
0100
0000
0000
0000
0010
0000
0000
0000
0100
0010
0100
0000
0001
0000
0000
0000
0010
0000
0000
0000
0100
0000
0000
0000
,
0010
0001
0010
0000
0100
0000
0000
0000
1000
0000
0000
0000
0100
0000
0000
0000
1000
0100
1000
0000
0100
0000
0000
0000
1000
0000
0000
0000
0100
0000
0000
0000
,
0010
0001
0010
0000
0100
0000
0000
0000
0010
0000
0000
0000
0001
0000
0000
0000
1000
0001
1000
0000
0010
0000
0000
0000
1000
0000
0000
0000
0010
0000
0000
0000
,
0010
1000
0010
0000
1000
0000
0000
0000
0010
0000
0000
0000
0100
0000
0000
0000
0202
0000
0000
0000
0000
0000
0000
0000
0000
0000
0000
0000
0303
0000
0000
0000
,
MMMM
0000
0000
0000
0000
0000
0000
0000
0001
0100
0001
0000
M0M0
0000
0000
0000
0100
0001
0100
0000
M0M0
0000
0000
0000
0010
0100
0010
0000
0000
0000
0000
0000
,
0MM0
0000
0000
0000
0000
0000
0000
0000
1MM0
0001
1000
0000
0000
0000
0000
0000
10MM
0100
1000
0000
0000
0000
0000
0000
1MM0
0001
1000
0000
0000
0000
0000
0000
,
M00M
0000
0000
0000
0000
0000
0000
0000
01MM
1000
0100
0000
0000
0000
0000
0000
1M0M
0010
1000
0000
0000
0000
0000
0000
MM01
0010
0001
0000
0000
0000
0000
0000
,
M00M
0000
0000
0000
0001
0000
0000
0000
1000
0001
1000
0000
0000
0000
0000
0000
2200
0000
0000
0000
0000
0000
0000
0000
0000
0000
0000
0000
3300
0000
0000
0000
,
MM10
0100
1000
0100
0010
0000
0001
0010
0100
1000
0100
0010
0001
0000
1000
0000
,
0100
0010
0001
0010
0100
0000
1000
0100
0010
0001
0010
0100
1000
0000
0001
0000
,
0100
0010
1000
0010
0100
0000
0001
0100
0010
1000
0010
0100
0001
0000
1000
0000
,
0001
0100
0010
1000
0010
0000
0010
1000
0010
0100
0001
0100
0010
0000
0MM0
0000
,
1000
0001
01M0
0010
1M0M
0001
M1M0
0001
0M10
0001
M010
0001
01M0
0001
M10M
0010
,
1M00
0010
1MMM
0010
M100
0001
0M10
0001
M10M
0010
100M
0100
M010
0001
01M0
0001
,
M10M
0010
10M0
0100
M010
0100
10M0
0100
100M
0100
MM10
0001
01MM
0010
1M00
0001
,
M1M0
0001
0100
0010
1M00
0001
M10M
0020
2000
0000
0000
0000
3030
0000
M0M0
0000
,
0202
0000
0000
0000
0000
0000
0000
0000
0000
0000
0000
0000
0000
0000
0000
0000
0000
0000
0000
0000
0000
0000
0000
0000
0000
0000
0000
0000
0000
0000
0000
0000
0000
0000
0000
0000
0000
0000
0000
0000
0000
0000
0000
0000
0000
0000
0000
0000
0000
0000
0000
0000
0000
0000
0000
0000
0000
0000
0000
0000
0000
0000
0000
0000
0000
0000
0000
0000
0000
0000
0000
0000
0000
0000
0000
0000
0000
0000
0000
0000
0000
0000
0000
0000
0000
0000
0000
0000
0000
0000
0000
0000
0000
0000
0000
0000
0000
0000
0000
0000
0000
0000
0000
0000
0000
0000
0000
0000
0000
0000
0000
0000
0000
0000
0000
0000
0000
0000
0000
0000
0000
0000
0000
0000
0000
0000
0000
0000
0000
0000
0000
0000
0000
0000
0000
0000
0000
0000
0000
0000
0000
0000
0000
0000
0303
0101
0000
0000
0000
0000
0000
0000
0000
0000
0000
0000
0000
0000
0000
0000
0000
0000
0000
0000
0000
0000
0000
0000
0000
0000
0000
0000
0000
0000
0000
0000
0000
0000
0000
0000
0000
0000
0000
0000
0000
0000
0000
0000
0000
0000
0000
0000
;
